osu file format v14

[General]
AudioFilename: audio.mp3
AudioLeadIn: 0
PreviewTime: 223682
Countdown: 0
SampleSet: Soft
StackLeniency: 0.4
Mode: 0
LetterboxInBreaks: 0
WidescreenStoryboard: 0

[Editor]
DistanceSpacing: 0.9
BeatDivisor: 4
GridSize: 32
TimelineZoom: 1.8

[Metadata]
Title:Kotoba no Iranai Yakusoku
TitleUnicode:言葉のいらない約束
Artist:sana
ArtistUnicode:sana
Creator:Irohas
Version:Insane
Source:NARUTO-ナルト-疾風伝
Tags:mugiwarasekai 鎖那 honeyworks shippuden shippuuden ending gom oji 海賊王 shito cake atsyuk! ヤマコ
BeatmapID:1345731
BeatmapSetID:634179

[Difficulty]
HPDrainRate:6
CircleSize:4
OverallDifficulty:7
ApproachRate:9
SliderMultiplier:1.6
SliderTickRate:1

[Events]
//Background and Video events
0,0,"BG.jpg",0,0
//Break Periods
2,57691,59714
2,88750,93597
2,218632,220656
//Storyboard Layer 0 (Background)
//Storyboard Layer 1 (Fail)
//Storyboard Layer 2 (Pass)
//Storyboard Layer 3 (Foreground)
//Storyboard Sound Samples

[TimingPoints]
-391,352.941176470588,4,2,1,30,1,0
1020,-117.647058823529,4,2,1,30,0,0
10903,-200,4,2,1,30,0,0
11961,-200,4,2,1,40,0,0
12314,-100,4,2,1,70,0,0
23608,-125,4,2,1,30,0,0
34903,-100,4,2,1,70,0,0
42579,-100,4,2,1,5,0,0
42667,-100,4,2,1,70,0,0
45491,-125,4,2,1,70,0,0
45756,-125,4,2,1,5,0,0
45844,-90.9090909090909,4,2,1,70,0,0
46108,-125,4,2,1,5,0,0
46197,-142.857142857143,4,2,1,70,0,0
51844,-142.857142857143,4,2,1,70,0,0
56079,-117.647058823529,4,2,1,70,0,0
56697,-117.647058823529,4,2,1,5,0,0
56785,-117.647058823529,4,2,1,70,0,0
60314,-166.666666666667,4,2,1,25,0,0
60491,-166.666666666667,4,2,1,5,0,0
61550,-166.666666666667,4,2,1,25,0,0
61726,-100,4,2,1,70,0,0
62785,-142.857142857143,4,2,1,30,0,0
63050,-142.857142857143,4,2,1,5,0,0
63138,-100,4,2,1,80,0,1
68699,-100,4,2,1,5,0,1
68787,-100,4,2,1,80,0,1
74079,-74.0740740740741,4,2,1,80,0,0
74432,-100,4,2,1,80,0,1
77167,-100,4,2,1,5,0,1
77256,-100,4,2,1,80,0,1
79726,-90.9090909090909,4,2,1,80,0,1
79991,-100,4,2,1,5,0,1
80079,-100,4,2,1,80,0,1
85726,-100,4,2,1,70,0,0
87138,-200,4,2,1,25,0,0
88550,-100,4,2,1,70,0,0
99491,-90.9090909090909,4,2,1,70,0,0
99756,-90.9090909090909,4,2,1,5,0,0
99844,-100,4,2,1,70,0,0
113167,-100,4,2,1,5,0,0
113256,-100,4,2,1,70,0,0
116785,-142.857142857143,4,2,1,70,0,0
126667,-117.647058823529,4,2,1,70,0,0
127285,-117.647058823529,4,2,1,5,0,0
127373,-117.647058823529,4,2,1,70,0,0
128079,346.820809248555,4,2,1,70,1,0
129466,359.281437125748,4,2,1,70,1,0
130903,352.941176470588,4,2,1,70,1,0
133373,-142.857142857143,4,2,1,30,0,0
133638,-142.857142857143,4,2,1,5,0,0
133726,-100,4,2,1,70,0,1
139285,-100,4,2,1,5,0,1
139373,-100,4,2,1,70,0,1
144314,-74.0740740740741,4,2,1,70,0,1
144667,-74.0740740740741,4,2,1,70,0,0
145020,-100,4,2,1,70,0,1
147756,-100,4,2,1,5,0,1
147844,-100,4,2,1,70,0,1
150314,-90.9090909090909,4,2,1,70,0,1
150579,-90.9090909090909,4,2,1,5,0,1
150667,-100,4,2,1,70,0,1
156314,-100,4,2,1,70,0,0
157726,-200,4,2,1,25,0,0
159138,-142.857142857143,4,2,1,40,0,0
163373,-142.857142857143,4,2,1,50,0,0
164785,-133.333333333333,4,2,1,50,0,0
170432,-125,4,2,1,60,0,0
180314,-111.111111111111,4,2,1,60,0,0
181726,-100,4,2,1,70,0,1
192844,-100,4,2,1,70,0,0
193020,-142.857142857143,4,2,1,70,0,1
193285,-142.857142857143,4,2,1,5,0,1
193373,-100,4,2,1,70,0,1
198579,-100,4,2,1,5,0,1
198667,-100,4,2,1,70,0,1
203785,-86.9565217391304,4,2,1,70,0,1
203961,-117.647058823529,4,2,1,70,0,1
204226,-117.647058823529,4,2,1,5,0,1
204314,-100,4,2,1,70,0,0
205726,-166.666666666667,4,2,1,40,0,0
207138,-125,4,2,1,60,0,0
217020,-117.647058823529,4,2,1,60,0,0
217638,-117.647058823529,4,2,1,5,0,0
217726,-117.647058823529,4,2,1,60,0,0
221256,-166.666666666667,4,2,1,25,0,0
221432,-166.666666666667,4,2,1,5,0,0
222491,-166.666666666667,4,2,1,25,0,0
222667,-100,4,2,1,60,0,0
223726,-142.857142857143,4,2,1,30,0,0
223991,-142.857142857143,4,2,1,5,0,0
224079,-100,4,2,1,70,0,1
229638,-100,4,2,1,5,0,1
229726,-100,4,2,1,70,0,1
235020,-74.0740740740741,4,2,1,70,0,0
235373,-100,4,2,1,70,0,1
238108,-100,4,2,1,5,0,1
238197,-100,4,2,1,70,0,1
240667,-90.9090909090909,4,2,1,70,0,1
240932,-90.9090909090909,4,2,1,5,0,1
241020,-100,4,2,1,70,0,1
246667,-100,4,2,1,70,0,0
248079,-200,4,2,1,25,0,0

[Colours]
Combo1 : 255,217,255
Combo2 : 255,254,193
Combo3 : 201,255,185
Combo4 : 225,245,255
Combo5 : 245,175,175

[HitObjects]
39,320,1020,6,0,P|91:323|193:329,1,136.000002593994,2|2,0:3|1:3,0:0:0:0:
293,232,1550,1,2,1:3:0:0:
293,232,1726,2,0,P|263:237|223:244,1,68.0000012969971,0|2,0:0|0:3,0:0:0:0:
347,305,2079,2,0,P|317:310|265:318,1,68.0000012969971,2|2,1:3|1:3,0:0:0:0:
401,203,2432,5,2,0:3:0:0:
460,326,2608,1,0,0:0:0:0:
460,326,2785,2,0,P|471:294|465:259,1,68.0000012969971,2|2,1:3|1:3,0:0:0:0:
384,150,3138,2,0,P|398:176|399:217,1,68.0000012969971,0|2,0:0|0:3,0:0:0:0:
308,311,3491,2,2,P|322:284|324:242,1,68.0000012969971,2|2,1:3|1:3,1:3:0:0:
197,179,3844,6,0,P|232:202|228:289,1,136.000002593994,2|2,0:3|1:3,0:0:0:0:
109,348,4373,1,2,1:3:0:0:
109,348,4550,2,0,L|189:356,1,68.0000012969971,0|2,0:0|0:3,0:0:0:0:
61,263,4903,2,2,L|128:269,1,68.0000012969971,2|2,1:3|1:3,1:3:0:0:
201,195,5256,5,2,0:3:0:0:
138,134,5432,1,0,0:0:0:0:
197,73,5608,2,0,P|231:64|268:71,1,68.0000012969971,2|2,1:3|1:3,1:0:0:0:
314,140,5961,2,0,P|343:148|387:134,1,68.0000012969971,0|2,0:0|0:3,0:0:0:0:
471,64,6314,2,0,P|441:56|404:63,1,68.0000012969971,2|2,1:3|1:3,1:0:0:0:
235,140,6667,6,0,P|243:194|255:277,1,136.000002593994,2|2,0:3|1:3,0:0:0:0:
439,330,7373,2,0,P|387:291|316:312,2,136.000002593994,0|2|2,0:0|1:3|0:3,0:0:0:0:
370,365,8432,5,2,1:3:0:0:
297,322,8785,1,0,0:0:0:0:
225,366,9138,1,2,1:3:0:0:
136,307,9491,6,0,P|142:261|155:153,2,136.000002593994,2|2|0,0:3|1:3|0:0,0:0:0:0:
136,307,10550,2,0,P|108:292|67:295,1,68.0000012969971,2|0,1:3|1:0,1:0:0:0:
208,253,10903,6,0,B|266:223|318:267|318:267|379:310|429:265,1,240,2|2,0:3|0:3,0:0:0:0:
377,130,12314,6,0,P|374:186|371:238,1,80,4|2,0:1|0:0,0:0:0:0:
199,120,12667,2,0,P|231:106|282:115,1,80,8|0,0:0|0:0,0:0:0:0:
157,223,13020,1,2,0:0:0:0:
93,76,13197,1,2,0:3:0:0:
93,76,13285,1,8,0:0:0:0:
93,76,13373,2,0,P|86:132|80:184,1,80,2|8,0:0|0:0,0:0:0:0:
157,223,13726,5,2,0:0:0:0:
6,158,13903,1,0,0:0:0:0:
157,223,14079,2,0,P|112:231|61:242,1,80,8|0,0:0|0:0,0:0:0:0:
241,322,14432,2,0,P|201:313|162:307,1,80,2|2,0:3|0:0,0:0:0:0:
153,314,14697,1,8,0:0:0:0:
143,321,14785,1,2,0:0:0:0:
259,212,14961,1,8,0:0:0:0:
342,354,15138,6,0,P|356:315|346:270,1,80,4|2,0:1|0:0,0:0:0:0:
264,154,15491,2,0,P|250:193|260:238,1,80,8|2,0:0|0:3,0:0:0:0:
312,78,15844,1,2,0:0:0:0:
167,149,16020,1,2,0:0:0:0:
167,149,16108,1,8,0:0:0:0:
167,149,16197,2,0,P|206:157|245:163,1,80,2|8,0:0|0:0,0:0:0:0:
85,224,16550,6,0,P|124:232|163:238,1,80,2|2,0:0|0:3,0:0:0:0:
292,294,16903,2,0,P|252:302|213:308,1,80,8|2,0:0|0:3,0:0:0:0:
355,349,17256,1,2,0:0:0:0:
212,299,17432,1,2,0:3:0:0:
371,198,17608,2,0,P|384:229|375:283,1,80,8|2,0:0|0:0,0:0:0:0:
151,161,17961,6,0,B|186:132|186:132|237:142|320:155,1,160,4|8,0:1|0:0,0:0:0:0:
305,158,18491,1,2,0:0:0:0:
393,41,18667,2,0,L|382:146,1,80,8|2,0:0|0:0,0:0:0:0:
388,134,18932,1,8,0:0:0:0:
392,145,19020,1,2,0:0:0:0:
304,15,19197,1,8,0:0:0:0:
228,168,19373,6,0,P|196:173|139:145,1,80,2|2,0:0|0:0,0:0:0:0:
112,5,19726,2,0,P|106:55|100:112,1,80,8|2,0:0|0:0,0:0:0:0:
143,258,20079,1,2,0:0:0:0:
6,205,20256,1,2,0:3:0:0:
6,205,20344,1,8,0:0:0:0:
6,205,20432,2,0,P|47:199|93:190,1,80,2|8,0:0|0:3,0:0:0:0:
221,271,20785,6,0,P|181:263|142:257,1,80,2|0,0:0|0:3,0:0:0:0:
18,338,21138,2,0,P|57:330|96:324,1,80,8|0,0:0|0:0,0:0:0:0:
222,178,21491,1,2,0:0:0:0:
304,321,21667,1,0,0:0:0:0:
304,321,21756,1,8,0:0:0:0:
304,321,21844,2,0,P|318:282|308:237,1,80,2|8,0:0|0:0,0:0:0:0:
120,218,22197,5,2,0:0:0:0:
239,276,22373,1,0,0:0:0:0:
101,324,22550,1,2,0:0:0:0:
219,382,22726,1,0,0:0:0:0:
85,320,22903,6,0,P|124:316|164:311,1,80,8|2,0:0|0:0,0:0:0:0:
173,319,23167,1,8,0:0:0:0:
181,327,23256,1,2,0:0:0:0:
26,258,23432,1,2,0:0:0:0:
26,258,23520,1,8,0:0:0:0:
26,258,23608,6,0,P|0:207|35:144,1,128,2|2,0:3|1:3,0:0:0:0:
107,56,24138,1,2,1:3:0:0:
107,56,24314,2,0,P|111:98|116:134,1,64,0|0,0:0|0:3,0:0:0:0:
207,206,24667,2,0,P|162:201|127:194,1,64,2|2,1:3|1:3,1:3:0:0:
300,121,25020,6,0,P|295:179|284:276,1,128,2|2,0:3|1:3,0:0:0:0:
411,380,25550,2,0,B|435:349|435:349|412:254,1,128,2|0,1:3|0:3,0:0:0:0:
272,278,26079,2,2,P|303:282|335:286,1,64,2|2,1:3|1:3,1:3:0:0:
222,369,26432,6,0,P|265:362|302:357,1,64,2|0,0:3|0:0,0:0:0:0:
176,296,26785,2,0,P|219:289|256:284,1,64,2|2,1:3|1:3,0:0:0:0:
126,369,27138,1,0,0:0:0:0:
70,240,27314,1,0,0:3:0:0:
70,240,27491,2,2,P|64:271|60:303,1,64,2|2,1:3|1:3,1:3:0:0:
254,192,27844,6,0,P|218:163|140:180,2,128,2|2|0,0:3|1:3|0:0,0:0:0:0:
340,132,28726,1,0,0:3:0:0:
340,132,28903,2,2,P|338:174|335:224,1,64,2|2,1:3|1:3,1:3:0:0:
422,284,29256,6,0,P|420:252|418:218,1,64,2|0,0:3|0:0,0:0:0:0:
341,334,29608,1,2,1:3:0:0:
341,334,29961,5,0,0:0:0:0:
263,303,30138,1,0,0:3:0:0:
190,342,30314,1,2,1:3:0:0:
123,291,30491,1,2,1:3:0:0:
120,288,30667,6,0,P|91:281|48:292,1,64,2|0,0:3|0:0,0:0:0:0:
194,234,31020,1,2,1:3:0:0:
194,234,31373,1,0,0:0:0:0:
240,164,31550,1,0,0:3:0:0:
187,99,31726,1,2,1:3:0:0:
250,45,31903,1,2,1:3:0:0:
253,42,32079,6,0,P|281:36|324:47,1,64,2|0,0:3|0:0,0:0:0:0:
458,114,32432,2,0,P|399:120|305:129,1,128,2|0,1:3|0:0,0:0:0:0:
321,142,32961,1,0,0:3:0:0:
250,45,33138,2,2,P|246:88|242:133,1,64,2|2,1:3|1:3,0:3:0:0:
103,242,33491,5,2,3:2:0:0:
191,204,33667,1,2,0:3:0:0:
154,114,33844,1,2,0:0:0:0:
66,152,34020,1,2,0:3:0:0:
112,238,34197,5,2,0:3:0:0:
193,193,34373,1,2,0:3:0:0:
279,239,34550,1,2,0:3:0:0:
350,174,34726,1,2,0:0:0:0:
434,316,34903,6,0,P|447:283|436:227,1,80,4|0,0:1|0:0,0:0:0:0:
273,328,35256,2,0,L|376:344,1,80,8|0,0:0|0:0,0:0:0:0:
174,248,35608,1,2,0:0:0:0:
199,384,35785,1,0,0:0:0:0:
48,333,35961,2,0,P|87:328|133:323,1,80,8|0,0:0|0:0,0:0:0:0:
0,265,36314,5,2,0:0:0:0:
132,319,36491,1,0,0:0:0:0:
102,168,36667,2,0,P|94:216|83:281,1,80,8|0,0:0|0:0,0:0:0:0:
53,103,37020,1,2,0:0:0:0:
94,254,37197,5,8,0:0:0:0:
177,100,37373,1,8,0:0:0:0:
96,246,37550,1,0,0:0:0:0:
259,208,37726,6,0,P|216:202|176:196,1,80,2|0,0:0|0:0,0:0:0:0:
335,80,38079,2,0,P|331:127|327:168,1,80,8|0,0:0|0:0,0:0:0:0:
404,37,38432,1,2,0:0:0:0:
331,168,38608,1,0,0:0:0:0:
185,52,38785,2,0,P|209:41|275:50,1,80,8|0,0:0|0:0,0:0:0:0:
147,130,39138,5,2,0:0:0:0:
281,161,39314,1,0,0:0:0:0:
144,236,39491,2,0,P|194:241|238:246,1,80,8|0,0:0|0:0,0:0:0:0:
82,291,39844,1,2,0:0:0:0:
225,238,40020,5,8,0:0:0:0:
78,173,40197,1,8,0:0:0:0:
233,230,40373,1,0,0:0:0:0:
180,89,40550,6,0,P|175:128|170:168,1,80,4|0,0:1|0:0,0:0:0:0:
89,3,40903,2,0,P|94:42|99:82,1,80,8|0,0:0|0:0,0:0:0:0:
274,44,41256,2,0,P|250:33|184:42,1,80,2|0,0:0|0:0,0:0:0:0:
321,146,41608,2,0,P|360:151|397:137,1,80,8|0,0:0|0:0,0:0:0:0:
227,115,41961,6,0,P|234:168|240:212,1,80,2|0,0:0|0:0,0:0:0:0:
99,288,42314,2,0,P|158:281|246:269,1,120,8|0,0:0|0:0,0:0:0:0:
281,314,42667,5,2,0:0:0:0:
353,201,42844,1,8,0:0:0:0:
421,344,43020,5,8,0:0:0:0:
356,208,43197,1,0,0:0:0:0:
499,255,43373,6,0,P|454:260|405:265,1,80,2|0,0:0|0:0,0:0:0:0:
273,192,43726,2,0,P|318:197|367:202,1,80,8|0,0:0|0:0,0:0:0:0:
190,126,44079,1,0,0:0:0:0:
216,272,44256,1,0,0:0:0:0:
190,113,44432,5,8,0:0:0:0:
108,243,44608,1,2,0:0:0:0:
265,187,44785,5,4,0:1:0:0:
99,147,44961,1,8,0:0:0:0:
226,47,45138,2,2,P|222:83|217:112,3,40,2|2|2|2,0:3|0:3|0:3|0:3,0:3:0:0:
188,123,45491,6,0,P|246:128|314:133,1,96,10|0,0:0|0:0,0:0:0:0:
182,121,45844,6,0,P|229:117|327:107,1,132.00000402832,2|0,0:0|0:0,0:0:0:0:
388,90,46197,6,0,P|339:86|264:79,2,111.999996582031,4|2|10,0:1|0:3|0:0,0:0:0:0:
388,90,47256,2,0,P|425:88|455:85,1,55.9999982910157,2|2,0:3|0:0,0:0:0:0:
325,154,47608,5,2,0:0:0:0:
435,186,47785,1,14,0:0:0:0:
441,179,48138,5,2,0:0:0:0:
321,147,48314,2,0,P|328:189|332:216,2,55.9999982910157,2|2|2,0:3|0:0|0:3,0:0:0:0:
262,269,48844,1,2,0:0:0:0:
262,269,48932,1,2,0:0:0:0:
262,269,49020,6,0,B|229:254|229:254|142:278,2,111.999996582031,4|2|12,0:1|0:3|0:0,0:0:0:0:
262,269,50079,2,0,P|295:261|324:262,1,55.9999982910157,2|2,0:3|0:0,0:0:0:0:
409,359,50432,5,2,0:0:0:0:
455,288,50608,1,2,0:3:0:0:
351,202,50785,5,2,0:0:0:0:
371,288,50961,1,2,0:3:0:0:
483,189,51138,5,14,0:0:0:0:
410,146,51314,1,2,0:3:0:0:
341,195,51491,1,2,0:3:0:0:
371,273,51667,1,2,0:3:0:0:
309,353,51844,6,0,P|253:347|197:341,2,111.999996582031,4|2|14,0:1|0:3|0:0,0:0:0:0:
309,353,52903,2,0,P|336:350|364:347,1,55.9999982910157,2|2,0:3|0:0,0:0:0:0:
219,244,53256,5,2,0:0:0:0:
157,384,53432,2,0,P|153:344|144:257,1,111.999996582031,2|2,0:3|0:0,0:0:0:0:
40,210,53961,1,10,0:0:0:0:
40,210,54314,2,0,P|45:246|50:287,1,55.9999982910157,2|0,0:3|0:0,0:0:0:0:
208,162,54667,6,0,P|169:136|97:157,2,111.999996582031,4|2|8,0:1|0:3|0:0,0:0:0:0:
300,230,55726,2,0,P|258:234|224:237,1,55.9999982910157,2|8,0:0|0:0,0:0:0:0:
238,241,55991,1,8,0:0:0:0:
232,247,56079,5,2,0:0:0:0:
340,313,56256,1,2,0:0:0:0:
385,155,56432,2,0,P|395:213|404:273,1,102.000001945496,2|0,0:0|0:0,0:0:0:0:
340,313,56785,1,10,0:0:0:0:
484,246,56961,1,4,0:0:0:0:
344,321,57138,1,4,0:0:0:0:
343,321,57491,5,2,0:3:0:0:
340,253,60314,6,0,B|300:234|258:265|258:265|198:312|152:269|152:269|120:228|151:184|205:184|210:221,1,335.999989746094,2|2,0:3|0:0,0:0:0:0:
207,212,61726,5,8,0:0:0:0:
189,90,61903,1,8,0:0:0:0:
467,183,62432,5,8,0:0:0:0:
451,311,62609,1,8,0:0:0:0:
299,172,62785,6,0,P|307:219|317:279,1,83.9999974365235,2|0,0:3|0:0,0:0:0:0:
372,304,63138,6,0,P|301:297|206:286,1,160,4|8,1:3|0:0,0:0:0:0:
78,332,63668,1,2,0:0:0:0:
105,181,63844,2,0,P|115:236|124:286,1,80,2|0,0:0|0:0,0:0:0:0:
185,123,64197,1,8,0:0:0:0:
127,268,64373,1,2,0:0:0:0:
290,224,64550,6,0,P|246:219|194:211,1,80,2|0,0:0|0:0,0:0:0:0:
392,124,64903,2,0,P|349:132|296:140,1,80,8|0,0:0|0:0,0:0:0:0:
445,228,65256,1,2,0:0:0:0:
445,228,65432,1,2,0:0:0:0:
512,84,65609,2,0,L|500:184,1,80,8|0,0:0|0:0,0:0:0:0:
222,111,65962,6,0,P|244:72|360:84,1,160,0|8,1:2|0:0,0:0:0:0:
433,194,66491,1,0,0:0:0:0:
281,168,66668,2,0,P|335:162|377:157,1,80,2|0,0:0|0:0,0:0:0:0:
190,237,67020,1,8,0:0:0:0:
218,97,67197,1,2,0:0:0:0:
197,250,67373,5,2,1:2:0:0:
116,143,67550,1,0,0:0:0:0:
278,197,67726,5,8,1:2:0:0:
200,59,67903,1,2,0:0:0:0:
200,59,67991,1,8,0:0:0:0:
200,59,68079,2,0,P|205:110|211:163,1,80,2|2,1:2|0:0,0:0:0:0:
51,202,68432,2,0,P|110:211|169:220,1,120,8|0,1:2|0:0,0:0:0:0:
239,246,68785,6,0,P|159:255|79:263,1,160,4|8,1:1|0:0,0:0:0:0:
249,355,69315,1,0,0:0:0:0:
249,355,69491,2,0,P|198:349|155:344,1,80,2|0,0:0|0:0,0:0:0:0:
354,313,69844,1,8,0:0:0:0:
271,254,70020,1,0,0:0:0:0:
427,189,70197,6,0,P|437:224|420:281,1,80,2|0,1:2|0:0,0:0:0:0:
322,95,70550,2,0,P|328:145|335:202,1,80,8|0,0:0|0:0,0:0:0:0:
379,32,70903,1,2,0:0:0:0:
379,32,71079,1,2,0:0:0:0:
252,154,71256,2,0,P|211:150|159:141,1,80,8|0,0:0|0:0,0:0:0:0:
81,159,71609,5,2,1:2:0:0:
144,34,71785,1,2,0:0:0:0:
81,159,71962,2,0,P|69:119|79:79,1,80,8|0,0:0|0:0,0:0:0:0:
179,241,72315,5,2,1:2:0:0:
46,272,72491,1,2,0:0:0:0:
174,358,72668,2,0,P|123:352|80:347,1,80,4|0,0:1|0:0,0:0:0:0:
259,222,73020,5,2,1:2:0:0:
330,354,73197,1,2,0:0:0:0:
330,354,73285,1,8,0:0:0:0:
330,354,73373,6,0,P|336:310|342:252,1,80,2|2,0:3|0:0,0:0:0:0:
418,212,73638,1,8,0:0:0:0:
425,206,73726,6,0,P|449:245|410:315,1,120,2|2,1:3|0:0,0:0:0:0:
273,231,74079,6,0,P|304:225|340:232,1,54.0000002059937,4|0,0:1|0:0,0:0:0:0:
245,332,74256,2,8,P|219:337|190:332,1,54.0000002059937,4|0,0:1|0:0,0:0:0:0:
98,186,74432,6,0,P|104:229|113:292,1,80,4|2,0:1|0:0,0:0:0:0:
174,103,74785,2,0,P|180:146|189:209,1,80,4|2,0:1|0:0,0:0:0:0:
337,74,75138,1,2,0:0:0:0:
284,209,75315,1,0,0:0:0:0:
442,165,75491,2,0,P|402:161|348:154,1,80,8|0,0:0|0:0,0:0:0:0:
217,240,75844,6,0,P|257:236|311:229,1,80,2|0,0:3|0:0,0:0:0:0:
157,106,76197,2,0,P|155:153|150:211,1,80,8|0,0:0|0:0,0:0:0:0:
96,39,76550,1,2,0:0:0:0:
96,39,76726,1,2,0:0:0:0:
229,152,76903,2,0,P|289:146|376:136,1,120,8|0,0:0|0:0,0:0:0:0:
418,180,77256,5,2,1:2:0:0:
418,180,77432,1,2,0:0:0:0:
479,36,77609,2,0,P|475:80|471:115,1,80,8|0,0:2|0:0,0:0:0:0:
292,67,77962,2,0,P|326:53|376:61,1,80,2|2,1:2|0:0,0:0:0:0:
252,156,78315,1,8,0:0:0:0:
369,58,78491,1,2,0:0:0:0:
352,210,78668,5,2,1:2:0:0:
273,70,78844,1,0,0:0:0:0:
174,225,79020,2,0,P|161:186|172:141,1,80,8|0,1:2|0:0,0:0:0:0:
272,283,79373,5,8,1:2:0:0:
310,128,79550,1,8,0:0:0:0:
493,224,79726,6,0,B|443:205|443:205|360:243,1,132.00000402832,4|0,1:1|0:0,0:0:0:0:
364,241,80079,6,0,P|405:200|352:109,1,160,4|8,0:1|0:0,0:0:0:0:
207,187,80609,1,0,0:0:0:0:
274,42,80785,2,0,P|270:96|267:143,1,80,2|0,0:0|0:0,0:0:0:0:
132,206,81138,2,0,P|180:199|240:193,1,80,8|0,0:0|0:0,0:0:0:0:
51,116,81491,6,0,P|90:120|130:126,1,80,2|2,1:3|0:0,0:0:0:0:
23,34,81844,1,8,0:0:0:0:
129,141,82020,1,0,0:0:0:0:
235,10,82197,2,0,P|232:59|228:99,1,80,2|0,1:3|0:0,0:0:0:0:
343,173,82550,2,0,P|305:161|260:169,1,80,8|0,0:0|0:0,0:0:0:0:
125,241,82903,6,0,P|162:252|202:247,1,80,2|0,1:2|0:0,0:0:0:0:
332,329,83256,2,0,P|295:314|255:317,1,80,8|0,0:0|0:0,0:0:0:0:
436,220,83609,6,0,P|429:268|419:328,1,80,2|0,1:2|0:0,0:0:0:0:
365,124,83962,2,0,P|358:172|349:234,1,80,8|0,0:0|0:0,0:0:0:0:
404,46,84315,5,2,1:2:0:0:
278,162,84491,2,0,P|239:166|202:150,1,80,10|2,0:3|0:0,0:0:0:0:
158,21,84844,1,2,0:0:0:0:
158,21,84932,1,8,0:0:0:0:
158,21,85020,2,0,P|151:69|142:131,1,80,8|2,0:0|0:0,0:0:0:0:
58,259,85373,5,2,0:0:0:0:
151,215,85550,1,2,0:0:0:0:
61,162,85726,5,4,0:1:0:0:
63,166,87138,6,0,P|67:203|73:255,2,80,2|0|0,0:3|0:0|0:0,0:0:0:0:
116,99,88197,1,2,0:3:0:0:
201,135,88550,5,2,0:0:0:0:
31,116,94197,6,0,P|62:74|165:90,2,160,4|8|0,0:1|0:0|0:0,0:0:0:0:
136,194,95079,1,2,0:0:0:0:
52,213,95256,2,0,P|104:208|156:203,1,80,8|2,0:0|0:0,0:0:0:0:
214,171,95520,1,2,0:0:0:0:
222,182,95608,6,0,P|219:230|215:276,1,80,2|2,0:0|0:0,0:0:0:0:
53,322,95961,2,0,P|116:330|236:344,1,160,8|2,0:0|0:0,0:0:0:0:
218,349,96491,1,2,0:0:0:0:
288,215,96667,2,0,P|294:263|300:308,1,80,8|2,0:0|0:0,0:0:0:0:
351,360,96932,1,2,0:0:0:0:
366,365,97020,6,0,P|406:360|468:353,1,80,2|2,0:0|0:0,0:0:0:0:
242,298,97373,2,0,P|281:293|321:288,1,80,8|2,0:0|0:0,0:0:0:0:
183,225,97726,1,2,0:0:0:0:
324,284,97903,1,2,0:0:0:0:
283,136,98079,2,0,P|277:180|270:234,1,80,8|0,0:0|0:0,0:0:0:0:
180,34,98432,6,0,P|186:78|193:132,1,80,8|10,0:0|0:0,0:0:0:0:
187,125,98697,1,8,0:0:0:0:
182,136,98785,1,8,0:0:0:0:
363,98,98961,5,8,0:0:0:0:
363,98,99050,1,8,0:0:0:0:
363,98,99138,2,0,P|324:103|302:106,3,40,8|2|2|2,0:0|0:0|0:0|0:0,0:0:0:0:
248,130,99491,6,0,P|306:136|397:144,1,132.00000402832,4|0,0:1|0:0,0:0:0:0:
453,188,99844,5,4,0:1:0:0:
453,188,100020,1,2,0:0:0:0:
499,39,100197,2,0,P|503:78|507:118,1,80,8|2,0:0|0:0,0:0:0:0:
402,249,100550,1,2,0:0:0:0:
335,127,100726,1,2,0:0:0:0:
402,249,100903,2,0,P|405:209|410:169,1,80,8|2,0:0|0:0,0:0:0:0:
443,341,101256,5,2,0:0:0:0:
329,207,101432,1,2,0:0:0:0:
262,357,101608,2,0,P|228:364|176:339,1,80,8|2,0:0|0:0,0:0:0:0:
119,185,101961,1,2,0:0:0:0:
66,322,102138,1,2,0:0:0:0:
119,185,102314,2,0,P|124:229|131:272,1,80,8|2,0:0|0:0,0:0:0:0:
27,118,102667,6,0,P|32:162|39:205,1,80,4|2,0:1|0:0,0:0:0:0:
182,75,103020,1,8,0:0:0:0:
144,221,103197,1,2,0:0:0:0:
292,172,103373,2,0,P|247:167|198:160,1,80,2|2,0:3|0:0,0:0:0:0:
391,120,103726,1,8,0:0:0:0:
391,120,103903,1,2,0:0:0:0:
331,255,104079,5,0,0:0:0:0:
454,190,104256,1,2,0:0:0:0:
454,190,104344,1,8,0:0:0:0:
454,190,104432,1,8,0:0:0:0:
281,180,104608,5,2,0:3:0:0:
439,274,104961,5,2,0:3:0:0:
272,356,105314,1,2,0:0:0:0:
272,356,105403,1,2,0:0:0:0:
272,356,105491,6,0,P|316:353|373:348,1,80,4|2,0:1|0:0,0:0:0:0:
189,231,105844,2,0,P|196:270|205:323,1,80,8|2,0:0|0:0,0:0:0:0:
212,151,106197,1,2,0:0:0:0:
117,280,106373,1,2,0:0:0:0:
39,142,106550,2,0,P|29:178|49:235,1,80,8|2,0:0|0:0,0:0:0:0:
154,100,106903,5,2,0:0:0:0:
114,259,107079,1,2,0:0:0:0:
272,212,107256,2,0,P|227:207|178:200,1,80,8|2,0:0|0:0,0:0:0:0:
341,148,107608,1,2,0:0:0:0:
198,213,107785,1,2,0:0:0:0:
387,292,107961,2,0,P|400:251|388:208,1,80,8|2,0:0|0:0,0:0:0:0:
198,213,108314,6,0,L|214:313,1,80,2|2,0:0|0:0,0:0:0:0:
342,369,108667,2,0,P|297:364|248:357,1,80,8|2,0:0|0:0,0:0:0:0:
387,292,109020,1,2,0:0:0:0:
248,355,109197,1,2,0:0:0:0:
332,219,109373,5,8,0:0:0:0:
422,376,109550,1,2,0:0:0:0:
512,221,109726,6,0,L|496:321,1,80,2|2,0:0|0:0,0:0:0:0:
422,110,110079,2,0,L|438:210,1,80,8|2,0:0|0:0,0:0:0:0:
376,43,110432,1,2,0:0:0:0:
511,125,110608,1,2,0:0:0:0:
328,239,110785,2,0,P|312:204|326:144,1,80,8|2,0:0|0:0,0:0:0:0:
232,27,111138,6,0,P|247:63|243:102,1,80,2|2,0:0|0:0,0:0:0:0:
418,100,111491,2,0,P|381:85|333:95,1,80,8|2,0:0|0:0,0:0:0:0:
201,170,111844,2,0,P|230:183|289:170,1,80,2|2,0:0|0:0,0:0:0:0:
123,24,112197,2,0,L|137:125,1,80,8|2,0:0|0:0,0:0:0:0:
48,222,112550,6,0,L|57:142,1,80,2|2,0:0|0:0,0:0:0:0:
252,261,112903,2,0,B|220:239|220:239|127:269,1,120,8|0,0:0|0:0,0:0:0:0:
84,317,113256,5,2,0:0:0:0:
167,172,113432,1,2,0:0:0:0:
218,326,113608,5,8,0:0:0:0:
171,183,113785,1,2,0:0:0:0:
332,237,113961,6,0,P|287:242|238:247,1,80,2|2,0:0|0:0,0:0:0:0:
390,98,114314,2,0,P|402:131|381:189,1,80,8|2,0:0|0:0,0:0:0:0:
325,36,114667,1,2,0:0:0:0:
391,172,114844,1,2,0:0:0:0:
322,30,115020,5,8,0:0:0:0:
395,181,115197,1,2,0:0:0:0:
422,0,115373,5,2,0:3:0:0:
262,105,115550,1,8,0:3:0:0:
262,105,115638,1,8,0:3:0:0:
262,105,115726,6,8,P|239:101|185:92,1,53.3333333333333
114,67,115961,1,2,0:0:0:0:
114,67,116079,6,0,P|120:102|126:138,2,53.3333333333333,2|2|2,0:3|0:0|0:0,0:0:0:0:
198,161,116432,2,0,P|195:195|191:231,2,53.3333333333333,2|2|2,0:3|0:0|0:3,0:0:0:0:
102,197,116785,6,0,P|110:248|123:327,2,111.999996582031,4|2|8,0:1|0:3|0:0,0:0:0:0:
218,72,117844,2,0,P|216:110|213:154,1,55.9999982910157,2|8,0:0|0:0,0:0:0:0:
304,246,118197,5,2,0:0:0:0:
176,216,118373,1,14,0:0:0:0:
293,251,118726,5,2,0:0:0:0:
181,202,118903,2,0,P|219:197|255:193,2,55.9999982910157,8|2|2,0:0|0:3|0:0,0:0:0:0:
377,78,119608,6,0,P|396:131|373:182,2,111.999996582031,4|2|14,0:1|0:3|0:0,0:0:0:0:
224,123,120667,2,0,P|253:126|300:130,1,55.9999982910157,2|2,0:0|0:0,0:0:0:0:
80,84,121020,5,2,0:0:0:0:
46,162,121197,1,2,0:3:0:0:
159,185,121373,5,2,0:0:0:0:
176,267,121550,1,2,0:3:0:0:
46,162,121726,5,14,0:0:0:0:
114,113,121903,1,8,0:3:0:0:
159,185,122079,1,0,0:3:0:0:
92,236,122256,1,0,0:3:0:0:
122,321,122432,6,0,B|156:346|156:346|244:311,2,111.999996582031,4|2|8,0:1|0:3|0:0,0:0:0:0:
313,248,123491,2,0,P|285:245|257:243,1,55.9999982910157,2|2,0:0|0:0,0:0:0:0:
392,330,123844,5,0,0:0:0:0:
439,156,124020,2,0,P|446:198|458:281,1,111.999996582031,2|2,0:3|0:0,0:0:0:0:
353,156,124550,1,8,0:0:0:0:
353,156,124903,2,0,P|358:191|364:232,1,55.9999982910157,2|0,0:3|0:0,0:0:0:0:
180,139,125256,6,0,P|213:111|284:117,2,111.999996582031,4|2|8,0:1|0:3|0:0,0:0:0:0:
114,238,126315,2,0,P|155:230|188:223,1,55.9999982910157,2|8,0:0|0:0,0:0:0:0:
177,232,126580,1,8,0:0:0:0:
184,236,126668,5,2,0:0:0:0:
72,144,126845,1,2,0:0:0:0:
28,327,127021,2,0,P|21:276|16:225,1,102.000001945496,2|0,0:0|0:0,0:0:0:0:
56,155,127374,1,10,0:0:0:0:
141,265,127550,1,4,0:0:0:0:
208,103,127726,1,4,0:0:0:0:
208,103,128080,5,0,1:0:0:0:
411,319,129466,1,0,1:0:0:0:
53,256,130903,1,0,1:0:0:0:
462,26,132314,5,8,0:0:0:0:
448,157,132491,1,8,0:0:0:0:
255,267,133020,5,8,0:0:0:0:
233,142,133197,1,8,0:0:0:0:
384,255,133373,6,0,P|390:212|396:163,1,83.9999974365235
454,119,133726,6,0,B|418:153|418:153|294:123,1,160,4|8,1:3|0:0,0:0:0:0:
165,176,134256,1,2,0:0:0:0:
192,25,134432,2,0,P|202:80|211:130,1,80,2|0,0:0|0:0,0:0:0:0:
82,175,134785,2,0,P|125:180|188:189,1,80,8|0,0:0|0:0,0:0:0:0:
21,248,135138,5,2,0:0:0:0:
165,176,135314,1,2,0:0:0:0:
127,327,135491,2,0,P|118:280|110:234,1,80,8|0,0:0|0:0,0:0:0:0:
287,281,135844,2,0,P|254:268|181:295,1,80,2|2,0:0|0:0,0:0:0:0:
349,375,136197,1,8,0:0:0:0:
349,375,136373,1,2,0:0:0:0:
399,191,136550,6,0,B|431:213|431:213|421:334,1,160,2|8,1:2|0:0,0:0:0:0:
315,159,137079,1,2,0:0:0:0:
201,262,137256,2,0,P|244:267|307:276,1,80,2|0,0:0|0:0,0:0:0:0:
138,325,137608,1,8,0:0:0:0:
287,266,137785,1,2,0:0:0:0:
138,212,137961,5,0,1:0:0:0:
228,355,138138,1,2,0:0:0:0:
241,181,138314,5,8,1:2:0:0:
226,367,138491,1,0,0:0:0:0:
404,282,138667,6,0,P|378:285|355:289,3,40,2|2|2|2,1:2|0:0|0:0|0:0,0:0:0:0:
287,266,139020,6,0,P|344:270|439:277,1,120,8|0,1:2|0:0,0:0:0:0:
475,246,139373,6,0,P|395:255|315:263,1,160,4|8,1:1|0:0,0:0:0:0:
187,192,139903,1,0,0:0:0:0:
187,192,140079,2,0,P|223:177|262:184,1,80,2|0,0:0|0:0,0:0:0:0:
96,295,140432,1,8,0:0:0:0:
64,145,140608,1,2,0:0:0:0:
96,295,140785,6,0,P|103:255|108:215,1,80,2|2,1:2|0:0,0:0:0:0:
174,86,141138,2,0,P|179:127|184:165,1,80,8|2,0:0|0:0,0:0:0:0:
119,18,141491,1,2,0:0:0:0:
119,18,141667,1,2,0:0:0:0:
261,124,141844,2,0,P|297:129|347:102,1,80,8|2,0:0|0:0,0:0:0:0:
412,55,142197,5,2,1:2:0:0:
360,203,142373,1,2,0:0:0:0:
412,55,142550,2,0,P|419:105|427:157,1,80,8|2,0:0|0:0,0:0:0:0:
287,46,142903,5,2,1:2:0:0:
344,189,143079,1,2,0:0:0:0:
181,155,143256,2,0,P|222:148|280:137,1,80,4|2,0:1|0:0,0:0:0:0:
111,101,143608,5,2,1:2:0:0:
243,228,143785,1,8,0:0:0:0:
243,228,143873,1,8,0:0:0:0:
243,228,143961,6,0,P|251:261|228:317,1,80,6|8,1:2|0:0,0:0:0:0:
335,384,144226,1,8,0:0:0:0:
327,376,144314,6,0,P|324:348|337:305,1,54.0000002059937,8|2,1:3|0:0,0:0:0:0:
474,323,144491,1,8,1:3:0:0:
474,323,144579,1,8,0:3:0:0:
474,323,144667,6,0,P|435:328|395:332,1,54.0000002059937,8|8,1:2|0:0,0:0:0:0:
314,250,144844,2,0,P|357:255|390:259,1,54.0000002059937,8|8,0:0|0:0,0:0:0:0:
512,180,145020,6,0,P|472:183|432:187,1,80,4|2,1:0|0:0,0:0:0:0:
385,48,145373,2,0,P|379:91|370:154,1,80,4|2,0:1|0:0,0:0:0:0:
309,0,145726,1,2,0:0:0:0:
368,139,145903,1,2,0:0:0:0:
309,0,146079,2,0,P|269:-9|220:5,1,80,8|2,0:0|0:0,0:0:0:0:
106,78,146432,6,0,P|139:88|183:76,1,80,2|2,0:0|0:0,0:0:0:0:
313,163,146785,2,0,P|278:148|237:152,1,80,8|2,0:0|0:0,0:0:0:0:
367,249,147138,1,2,0:0:0:0:
367,249,147314,1,2,0:0:0:0:
187,297,147491,2,0,P|241:303|332:311,1,120,8|0,0:0|0:0,0:0:0:0:
384,353,147844,5,2,1:2:0:0:
384,353,148020,1,2,0:0:0:0:
465,217,148197,2,0,P|461:261|457:296,1,80,8|0,0:2|0:0,0:0:0:0:
371,122,148550,2,0,P|375:166|379:201,1,80,2|2,1:2|0:0,0:0:0:0:
440,66,148903,1,8,0:0:0:0:
375,210,149079,1,2,0:0:0:0:
317,48,149256,5,2,1:2:0:0:
369,219,149432,1,2,0:0:0:0:
203,166,149608,2,0,P|244:159|304:148,1,80,8|2,1:2|0:0,0:0:0:0:
130,114,149961,5,8,1:2:0:0:
284,165,150138,1,8,0:0:0:0:
95,242,150314,6,0,P|134:249|260:263,1,132.00000402832,4|2,1:1|0:0,0:0:0:0:
235,259,150667,6,0,P|180:288|210:381,1,160,4|8,0:1|0:0,0:0:0:0:
249,246,151197,1,0,0:0:0:0:
71,319,151373,2,0,P|121:327|171:333,1,80,2|2,0:0|0:0,0:0:0:0:
33,171,151726,2,0,P|27:210|21:250,1,80,8|2,0:0|0:0,0:0:0:0:
128,101,152079,6,0,P|122:140|116:180,1,80,2|2,0:3|0:0,0:0:0:0:
75,38,152432,1,8,0:0:0:0:
196,170,152608,1,2,0:0:0:0:
284,29,152785,2,0,P|295:62|283:114,1,80,2|2,0:3|0:0,0:0:0:0:
141,163,153138,2,0,P|194:170|250:173,1,80,8|0,0:0|0:0,0:0:0:0:
358,227,153491,6,0,P|305:234|249:241,1,80,2|0,1:2|0:0,0:0:0:0:
142,293,153844,2,0,P|195:300|251:307,1,80,8|2,0:0|0:0,0:0:0:0:
19,208,154197,6,0,P|23:241|54:274,1,80,2|2,1:2|0:0,0:0:0:0:
92,75,154550,2,0,P|77:104|83:161,1,80,8|2,0:0|0:0,0:0:0:0:
34,15,154903,5,2,1:2:0:0:
160,123,155079,2,0,P|217:118|268:113,1,80,10|2,0:3|0:0,0:0:0:0:
344,213,155432,1,2,0:0:0:0:
344,213,155520,1,8,0:0:0:0:
344,213,155608,2,0,P|306:209|257:205,1,80,8|2,0:0|0:0,0:0:0:0:
117,325,155961,5,2,0:0:0:0:
219,295,156138,1,2,0:0:0:0:
141,225,156314,5,4,0:1:0:0:
138,225,157726,6,0,P|142:190|149:133,2,80,2|0|0,0:3|0:0|0:0,0:0:0:0:
202,298,158785,1,2,0:3:0:0:
282,239,159138,6,0,P|323:245|412:258,2,111.999996582031,2|2|0,0:0|0:0|0:0,0:0:0:0:
199,90,160197,2,0,P|204:127|208:164,1,55.9999982910157,2|0,0:0|0:0,0:0:0:0:
66,212,160550,6,0,B|105:198|105:198|182:228,1,111.999996582031,2|2,0:0|0:0,0:0:0:0:
273,288,161079,2,0,P|242:292|203:296,1,55.9999982910157,2|2,0:3|0:0,0:0:0:0:
317,203,161432,1,2,0:3:0:0:
317,203,161608,2,0,P|286:207|247:211,1,55.9999982910157,2|0,0:0|0:0,0:0:0:0:
392,64,161961,6,0,P|413:96|388:173,2,111.999996582031,2|2|2,0:0|0:0|0:0,0:0:0:0:
116,88,163020,5,2,0:0:0:0:
179,23,163197,1,2,0:3:0:0:
241,85,163373,6,0,P|259:114|238:191,1,111.999996582031,2|2,0:0|0:0,0:0:0:0:
118,224,163903,1,0,0:0:0:0:
118,224,164079,2,0,P|156:229|191:233,1,55.9999982910157,2|2,0:0|0:3,0:0:0:0:
68,297,164432,2,0,P|106:302|141:306,1,55.9999982910157,2|2,0:0|0:3,0:0:0:0:
288,357,164785,6,0,P|250:362|150:375,1,120.000004577637,4|2,0:1|0:0,0:0:0:0:
291,268,165314,1,0,0:0:0:0:
291,268,165491,2,0,P|264:275|232:283,1,60.0000022888184,2|0,0:0|0:3,0:0:0:0:
346,371,165844,2,0,P|316:364|287:356,1,60.0000022888184,2|0,0:0|0:3,0:0:0:0:
415,210,166197,6,0,B|433:246|433:246|412:339,2,120.000004577637,2|2|2,0:3|0:0|0:3,0:0:0:0:
313,134,167079,1,0,0:0:0:0:
313,134,167256,2,0,P|320:175|325:207,1,60.0000022888184,2|0,0:0|0:0,0:0:0:0:
467,81,167608,6,0,P|425:50|356:68,1,120.000004577637,2|2,0:0|0:3,0:0:0:0:
313,134,168138,2,0,P|256:148|208:115,1,120.000004577637,2|2,0:3|0:3,0:0:0:0:
148,3,168667,2,0,P|143:33|136:70,1,60.0000022888184,2|2,0:3|0:3,0:0:0:0:
0,166,169020,6,0,P|42:135|111:153,1,120.000004577637,2|2,0:0|0:0,0:0:0:0:
162,212,169550,2,0,P|155:258|141:356,1,120.000004577637,2|2,0:3|0:3,0:0:0:0:
77,378,170079,2,0,P|41:367|8:369,1,60.0000022888184,2|2,0:0|0:0,0:0:0:0:
162,212,170432,5,4,0:1:0:0:
162,212,170608,1,2,0:0:0:0:
218,348,170785,6,0,P|223:308|227:261,1,64,2|2,0:0|0:0,0:0:0:0:
294,180,171138,2,0,P|297:220|300:266,1,64,2|2,0:3|0:0,0:0:0:0:
366,351,171491,2,0,P|368:321|372:283,1,64,2|2,0:3|0:0,0:0:0:0:
436,146,171844,5,2,0:0:0:0:
436,146,172020,1,2,0:0:0:0:
294,180,172197,6,0,P|337:185|377:188,1,64,2|0,0:3|0:0,0:0:0:0:
216,98,172550,2,0,P|259:103|306:107,1,64,2|0,0:3|0:0,0:0:0:0:
170,226,172903,2,0,P|213:231|259:235,1,64
113,317,173256,5,2,0:0:0:0:
113,317,173432,1,2,0:0:0:0:
78,178,173608,6,0,P|75:216|68:265,1,64,2|0,0:3|0:0,0:0:0:0:
0,88,173961,2,0,P|4:128|10:175,1,64,2|0,0:3|0:0,0:0:0:0:
84,3,174314,2,0,P|80:39|74:90,1,64,2|0,0:0|0:0,0:0:0:0:
251,59,174667,5,2,0:0:0:0:
164,104,174844,1,2,0:0:0:0:
261,55,175020,6,0,P|257:99|251:146,1,64,2|0,0:0|0:0,0:0:0:0:
338,186,175373,5,2,0:0:0:0:
414,129,175550,1,2,0:0:0:0:
330,194,175726,6,0,P|335:232|340:281,1,64,2|0,0:3|0:0,0:0:0:0:
264,361,176079,5,4,0:1:0:0:
264,361,176256,1,2,0:0:0:0:
194,299,176432,6,0,P|162:301|130:303,1,64,2|0,0:0|0:0,0:0:0:0:
58,144,176785,2,0,B|33:173|33:173|54:268,1,128,2|2,0:0|0:0,0:0:0:0:
130,303,177314,1,0,0:0:0:0:
213,141,177491,5,2,0:0:0:0:
213,141,177667,1,2,0:0:0:0:
151,226,177844,6,0,P|208:221|239:218,1,64,2|0,0:0|0:0,0:0:0:0:
291,45,178197,2,0,B|316:74|316:74|295:169,1,128,2|2,0:0|0:0,0:0:0:0:
347,249,178726,1,0,0:0:0:0:
276,252,178903,6,0,P|307:254|339:257,1,64,2|0,0:0|0:0,0:0:0:0:
210,168,179256,1,2,0:0:0:0:
163,353,179432,2,0,P|155:289|149:225,1,128
10,290,179961,2,0,P|53:295|89:298,1,64,2|0,0:0|0:0,0:0:0:0:
220,217,180314,6,0,P|177:222|127:228,1,71.9999978027344,8|2,0:3|0:0,0:0:0:0:
320,143,180667,5,10,1:3:0:0:
299,290,180844,1,10,0:0:0:0:
329,136,181020,5,10,1:3:0:0:
288,295,181197,1,10,0:0:0:0:
209,133,181373,5,8,1:2:0:0:
388,213,181550,1,8,0:0:0:0:
206,313,181726,6,0,P|241:308|297:301,1,80,4|2,1:3|0:0,0:0:0:0:
145,236,182079,1,8,0:0:0:0:
285,302,182256,2,0,P|298:261|286:215,1,80,2|2,1:2|0:0,0:0:0:0:
176,369,182608,1,2,0:0:0:0:
51,227,182785,2,0,P|57:273|63:328,1,80,8|2,1:2|0:0,0:0:0:0:
137,125,183138,6,0,P|135:167|130:225,1,80,2|2,1:2|0:0,0:0:0:0:
282,94,183491,2,0,P|246:77|197:84,1,80,8|0,0:0|0:0,0:0:0:0:
344,194,183844,1,2,1:2:0:0:
204,248,184020,1,2,0:0:0:0:
344,194,184197,2,0,P|300:190|248:186,1,80,8|0,1:2|0:0,0:0:0:0:
436,100,184550,6,0,P|394:107|356:112,1,80,0|0,1:2|0:0,0:0:0:0:
489,30,184903,1,8,0:0:0:0:
388,187,185079,2,0,P|380:219|401:272,1,80,2|2,1:2|0:0,0:0:0:0:
491,377,185432,1,0,0:0:0:0:
393,262,185608,2,0,P|388:311|383:358,1,80,8|0,1:2|0:0,0:0:0:0:
217,308,185961,6,0,P|247:292|298:296,1,80,2|0,1:2|0:0,0:0:0:0:
161,383,186314,1,8,0:0:0:0:
77,206,186491,2,0,B|50:225|50:225|88:356,1,160,2|2,1:2|0:0,0:0:0:0:
183,168,187020,2,0,P|178:216|173:267,1,80,8|0,0:0|0:0,0:0:0:0:
144,93,187373,5,4,0:1:0:0:
256,223,187550,1,2,1:2:0:0:
324,78,187726,2,0,P|338:114|330:153,1,80,8|2,0:0|1:2,0:0:0:0:
209,29,188079,6,0,P|239:19|275:24,2,53.3333333333333,2|2|2,1:2|0:3|1:2,0:0:0:0:
144,93,188432,2,0,P|117:93|92:83,2,53.3333333333333,8|2|2,1:2|0:3|1:3,0:0:0:0:
225,146,188785,6,0,P|251:142|277:139,2,53.3333333333333,2|0|2,1:2|1:3|1:3,0:0:0:0:
157,209,189138,2,0,P|130:207|103:204,2,53.3333333333333,8|2|2,1:2|1:3|1:3,1:2:0:0:
234,256,189491,6,0,P|260:258|286:252,2,53.3333333333333,2|2|2,1:2|1:3|1:3,1:2:0:0:
164,316,189844,1,8,1:2:0:0:
249,174,190020,1,2,0:0:0:0:
164,316,190197,6,0,P|159:276|154:228,1,80,2|2,1:2|0:0,0:0:0:0:
276,359,190550,1,8,0:0:0:0:
380,218,190726,2,0,P|392:255|377:302,1,80,2|2,1:2|0:0,0:0:0:0:
325,150,191079,1,0,0:0:0:0:
464,219,191256,5,8,1:2:0:0:
300,255,191432,1,2,0:0:0:0:
469,210,191608,5,2,1:2:0:0:
299,266,191785,1,8,0:3:0:0:
371,106,191961,2,0,P|369:153|365:209,1,80,12|0,0:0|0:0,0:0:0:0:
217,103,192314,5,8,1:2:0:0:
352,193,192491,1,8,1:2:0:0:
181,186,192667,5,8,1:2:0:0:
347,109,192844,1,8,1:2:0:0:
220,24,193020,6,0,P|229:69|239:120,1,83.9999974365235,8|0,0:3|0:0,0:0:0:0:
189,171,193373,6,0,P|140:165|84:159,1,80,8|0,0:0|0:0,0:0:0:0:
223,264,193726,2,0,P|174:258|118:252,1,80,2|2,0:0|0:0,0:0:0:0:
326,204,194079,1,8,0:0:0:0:
287,351,194256,1,2,0:0:0:0:
453,285,194432,6,0,P|413:289|373:294,1,80,2|2,0:0|0:0,0:0:0:0:
450,176,194785,1,8,0:0:0:0:
371,306,194961,1,0,0:0:0:0:
255,174,195138,2,0,P|248:213|277:266,1,80,2|0,0:0|0:0,0:0:0:0:
357,50,195491,2,0,P|352:89|348:129,1,80,8|0,0:0|0:0,0:0:0:0:
286,0,195844,5,2,0:0:0:0:
348,140,196020,1,2,0:0:0:0:
174,102,196197,2,0,P|223:95|272:86,1,80,8|0,0:0|0:0,0:0:0:0:
110,34,196550,5,2,0:0:0:0:
254,102,196726,1,2,0:0:0:0:
95,172,196903,2,0,P|134:178|174:184,1,80,8|0,0:0|0:0,0:0:0:0:
316,220,197256,6,0,P|276:225|236:232,1,80,2|0,0:0|0:0,0:0:0:0:
102,296,197608,2,0,P|139:309|182:297,1,80,8|2,0:0|0:0,0:0:0:0:
15,226,197961,5,2,0:0:0:0:
60,383,198138,1,2,0:0:0:0:
203,209,198314,2,0,P|198:257|186:343,1,120,8|0,0:0|0:0,0:0:0:0:
134,376,198667,6,0,P|207:364|310:342,1,160,4|8,0:1|0:0,0:0:0:0:
445,384,199197,1,2,0:0:0:0:
409,233,199373,2,0,P|399:288|390:338,1,80,2|0,0:0|0:0,0:0:0:0:
313,141,199726,2,0,P|323:196|332:246,1,80,8|2,0:0|0:0,0:0:0:0:
484,49,200079,6,0,P|514:89|447:173,1,160,2|8,0:0|0:0,0:0:0:0:
392,22,200608,1,0,0:0:0:0:
392,22,200785,2,0,P|402:77|411:127,1,80,2|2,0:0|0:0,0:0:0:0:
249,6,201138,1,8,0:0:0:0:
319,141,201314,1,2,0:0:0:0:
145,114,201491,6,0,P|200:103|248:95,1,80,2|2,0:0|0:0,0:0:0:0:
91,43,201844,1,8,0:0:0:0:
223,98,202020,1,2,0:0:0:0:
56,206,202197,2,0,P|40:169|54:118,1,80,2|12,0:0|0:0,0:0:0:0:
248,259,202550,5,8,0:0:0:0:
121,160,202726,1,2,0:0:0:0:
248,259,202903,6,0,P|208:264|168:271,1,80,2|2,0:0|0:0,0:0:0:0:
163,277,203167,1,8,0:0:0:0:
157,281,203256,1,2,0:0:0:0:
46,130,203432,6,0,B|23:163|23:163|65:268,1,120,6|8,0:0|0:0,0:0:0:0:
121,160,203785,6,0,B|128:130|128:130|119:95,1,46.0000008773804,8|8,0:0|0:0,0:0:0:0:
50,37,203961,2,0,B|29:64|29:64|49:143,1,102.000001945496,6|0,0:0|0:0,0:0:0:0:
122,81,204314,5,4,0:1:0:0:
122,81,205726,5,0,1:0:0:0:
274,153,206079,5,2,0:3:0:0:
222,32,206256,1,2,0:0:0:0:
222,32,206344,1,8,0:0:0:0:
222,32,206432,2,0,P|219:71|218:95,2,47.9999985351563,2|2|2,0:0|0:0|1:2,0:0:0:0:
304,209,207138,6,0,P|355:203|445:190,2,128,4|2|8,0:1|0:3|0:0,0:0:0:0:
201,121,208020,1,0,0:0:0:0:
201,121,208197,2,0,P|208:159|214:194,1,64,2|2,0:3|0:0,0:0:0:0:
186,299,208550,5,0,0:0:0:0:
60,233,208726,2,0,P|98:237|133:239,1,64,2|2,0:3|0:0,0:0:0:0:
31,149,209079,1,2,0:3:0:0:
31,149,209256,2,0,P|69:152|112:156,1,64,8|2,0:0|0:0,0:0:0:0:
218,79,209608,2,0,P|177:82|142:85,1,64,2|2,0:3|0:0,0:0:0:0:
271,172,209961,6,0,B|308:193|308:193|396:161,2,128,2|2|8,0:0|0:3|0:0,0:0:0:0:
307,13,210844,1,0,0:0:0:0:
307,13,211021,2,0,P|314:51|322:90,1,64,2|2,0:3|0:0,0:0:0:0:
433,199,211373,5,2,0:0:0:0:
444,117,211550,1,2,0:3:0:0:
511,268,211726,5,2,0:0:0:0:
461,335,211903,1,2,0:3:0:0:
366,209,212079,5,8,0:0:0:0:
450,187,212256,1,10,0:3:0:0:
504,250,212432,1,2,0:3:0:0:
488,332,212608,1,2,0:3:0:0:
400,365,212785,6,0,P|353:361|249:350,2,128,4|2|8,0:1|0:3|0:0,0:0:0:0:
253,274,213844,2,0,P|280:277|324:280,1,64,2|2,0:3|0:0,0:0:0:0:
196,203,214197,5,2,0:0:0:0:
138,372,214373,2,0,P|133:328|125:245,1,128,2|2,0:3|0:0,0:0:0:0:
19,214,214902,1,10,0:0:0:0:
19,214,215255,2,0,P|24:250|30:299,1,64,2|2,0:3|0:0,0:0:0:0:
189,172,215608,6,0,P|148:140|76:161,2,128,4|2|8,0:1|0:3|0:0,0:0:0:0:
276,252,216667,2,0,P|234:256|194:261,1,64,2|8,0:0|0:0,0:0:0:0:
205,263,216932,1,8,0:0:0:0:
199,269,217020,5,2,0:0:0:0:
316,335,217197,1,2,0:0:0:0:
351,164,217373,2,0,P|358:211|370:282,1,102.000001945496,2|0,0:3|0:0,0:0:0:0:
316,335,217726,1,8,0:3:0:0:
448,273,217902,1,2,0:3:0:0:
320,343,218079,5,2,0:3:0:0:
320,343,218432,5,0,1:0:0:0:
253,250,221256,6,0,B|307:228|353:268|353:268|416:314|480:253|480:253|441:263|397:237|397:211,1,335.999989746094,2|0,0:3|0:0,0:0:0:0:
402,226,222667,5,8,0:0:0:0:
417,128,222844,1,8,0:0:0:0:
83,59,223373,5,8,0:0:0:0:
99,157,223550,1,8,0:0:0:0:
242,51,223726,6,0,P|234:98|224:158,1,83.9999974365235,2|0,0:3|0:0,0:0:0:0:
172,185,224079,6,0,P|243:178|338:167,1,160,4|8,1:3|0:0,0:0:0:0:
473,209,224608,1,0,0:0:0:0:
429,64,224785,2,0,P|425:108|420:171,1,80,2|2,0:0|0:0,0:0:0:0:
351,278,225138,1,8,0:0:0:0:
473,209,225314,1,0,0:0:0:0:
351,278,225491,6,0,P|347:238|344:198,1,80,2|2,0:0|0:0,0:0:0:0:
186,297,225844,2,0,P|227:304|288:313,1,80,8|0,0:0|0:0,0:0:0:0:
125,243,226197,1,2,0:0:0:0:
125,243,226373,1,2,0:0:0:0:
71,384,226550,2,0,P|110:377|149:371,1,80,8|2,0:0|0:0,0:0:0:0:
7,183,226903,6,0,B|-21:215|-21:215|1:337,1,160,2|8,1:2|0:0,0:0:0:0:
87,152,227432,1,2,0:0:0:0:
140,305,227608,2,0,P|175:310|216:293,1,80,2|2,0:0|0:0,0:0:0:0:
67,251,227961,5,8,0:0:0:0:
215,293,228138,1,0,0:0:0:0:
67,356,228314,5,2,1:2:0:0:
224,291,228491,1,2,0:0:0:0:
68,169,228667,5,8,1:2:0:0:
140,305,228844,1,2,0:3:0:0:
185,126,229020,5,2,1:2:0:0:
195,139,229108,2,0,P|239:136|274:132,1,80,8|2,0:3|0:0,0:0:0:0:
297,122,229373,6,0,B|323:158|323:158|294:251,1,120,8|0,1:2|0:0,0:0:0:0:
231,268,229726,6,0,P|302:261|397:250,1,160,4|8,1:1|0:0,0:0:0:0:
485,155,230256,1,0,0:0:0:0:
485,155,230432,2,0,P|480:200|473:247,1,80,2|2,0:0|0:0,0:0:0:0:
342,330,230785,1,8,0:0:0:0:
467,265,230961,1,2,0:0:0:0:
342,330,231138,6,0,P|389:335|444:343,1,80,2|2,1:2|0:0,0:0:0:0:
253,239,231491,2,0,P|292:243|332:248,1,80,8|2,0:0|0:0,0:0:0:0:
189,316,231844,1,0,0:0:0:0:
189,316,232020,1,0,0:0:0:0:
155,162,232197,2,0,P|150:204|143:266,1,80,8|0,0:0|0:0,0:0:0:0:
189,316,232550,5,2,1:2:0:0:
64,230,232726,1,2,0:0:0:0:
237,123,232903,2,0,P|242:165|249:227,1,80,8|0,0:0|0:0,0:0:0:0:
320,74,233256,5,2,1:2:0:0:
250,208,233433,1,2,0:0:0:0:
167,62,233608,2,0,P|130:53|83:66,1,80,4|2,0:1|0:0,0:0:0:0:
228,128,233961,5,2,1:2:0:0:
68,167,234138,1,2,0:0:0:0:
234,223,234314,1,0,1:0:0:0:
62,285,234491,1,2,1:2:0:0:
62,285,234579,1,8,0:0:0:0:
62,285,234667,6,0,P|114:290|173:296,1,80,8|2,1:2|0:3,0:0:0:0:
250,352,234932,1,2,0:0:0:0:
242,366,235020,6,0,P|211:373|175:366,1,54.0000002059937,4|2,1:0|2:0,2:0:0:0:
352,310,235197,2,0,P|377:302|404:305,1,54.0000002059937,4|2,1:0|2:0,2:0:0:0:
274,265,235373,6,0,P|269:225|264:185,1,80,4|2,1:0|0:0,0:0:0:0:
369,68,235726,2,0,P|363:121|356:181,1,80,4|2,0:1|0:0,0:0:0:0:
237,50,236079,1,2,0:0:0:0:
285,194,236256,1,2,0:0:0:0:
135,149,236432,2,0,P|182:144|233:136,1,80,8|0,0:0|0:0,0:0:0:0:
36,57,236785,6,0,P|75:61|115:66,1,80,2|0,0:0|0:0,0:0:0:0:
5,207,237138,2,0,P|-9:164|15:112,1,80,8|0,0:0|0:0,0:0:0:0:
165,250,237491,1,2,0:0:0:0:
165,250,237667,1,2,0:0:0:0:
0,312,237844,2,0,B|35:290|35:290|128:323,1,120,8|0,0:0|0:0,0:0:0:0:
163,365,238197,6,0,P|122:330|190:249,1,160,2|8,1:2|0:0,0:0:0:0:
326,316,238726,1,2,0:0:0:0:
270,121,238903,2,0,P|264:165|246:293,1,160,2|8,1:2|0:0,0:0:0:0:
179,101,239432,1,2,0:0:0:0:
83,241,239608,6,0,P|132:237|192:232,1,80,2|2,1:2|0:0,0:0:0:0:
44,87,239961,2,0,P|38:136|33:190,1,80,8|0,1:2|0:0,0:0:0:0:
155,42,240314,5,2,0:0:0:0:
225,179,240491,1,8,0:3:0:0:
324,31,240667,6,0,P|354:74|320:142,1,132.00000402832,4|0,0:1|0:0,0:0:0:0:
225,179,241020,6,0,P|284:183|393:190,1,160,4|8,1:0|0:0,0:0:0:0:
476,303,241550,1,0,0:0:0:0:
384,189,241726,2,0,P|391:242|398:289,1,80,2|0,0:0|0:0,0:0:0:0:
256,317,242079,2,0,P|303:326|352:334,1,80,8|0,0:0|0:0,0:0:0:0:
169,249,242432,6,0,P|208:242|247:234,1,80,2|2,0:3|0:0,0:0:0:0:
119,176,242785,1,8,0:0:0:0:
247,234,242961,1,0,0:0:0:0:
87,335,243138,2,0,P|72:296|88:244,1,80,2|0,0:3|0:0,0:0:0:0:
186,133,243491,2,0,P|200:169|194:208,1,80,8|0,0:0|0:0,0:0:0:0:
6,119,243844,6,0,P|60:128|104:135,1,80,2|0,1:2|0:0,0:0:0:0:
181,17,244197,2,0,P|174:70|167:117,1,80,8|0,0:0|0:0,0:0:0:0:
300,147,244550,6,0,P|246:156|202:163,1,80,2|0,1:2|0:0,0:0:0:0:
397,208,244903,2,0,P|343:217|299:224,1,80,8|0,0:0|0:0,0:0:0:0:
471,158,245256,5,2,1:2:0:0:
380,293,245432,1,2,0:0:0:0:
471,158,245608,2,0,P|479:203|489:256,1,80,12|2,1:2|0:0,0:0:0:0:
297,209,245961,6,0,P|328:205|377:197,1,53.3333333333333,8|2,0:0|0:0,0:0:0:0:
418,148,246197,1,2,0:0:0:0:
418,148,246314,2,0,P|450:153|491:162,2,53.3333333333333,14|8|8,1:2|0:0|0:0,0:0:0:0:
343,95,246667,5,4,0:1:0:0:
269,247,248079,6,0,P|274:288|280:339,2,80,2|0|0,0:3|0:0|0:0,0:0:0:0:
203,183,249138,1,2,0:3:0:0:
120,236,249491,5,2,0:3:0:0:
