osu file format v14

[General]
AudioFilename: audio.mp3
AudioLeadIn: 0
PreviewTime: 223682
Countdown: 0
SampleSet: Soft
StackLeniency: 0.4
Mode: 0
LetterboxInBreaks: 0
WidescreenStoryboard: 0

[Editor]
DistanceSpacing: 1.2
BeatDivisor: 4
GridSize: 8
TimelineZoom: 1.8

[Metadata]
Title:Kotoba no Iranai Yakusoku
TitleUnicode:言葉のいらない約束
Artist:sana
ArtistUnicode:sana
Creator:Irohas
Version:Hard
Source:NARUTO-ナルト-疾風伝
Tags:mugiwarasekai 鎖那 honeyworks shippuden shippuuden ending gom oji 海賊王 shito cake atsyuk! ヤマコ
BeatmapID:1351562
BeatmapSetID:634179

[Difficulty]
HPDrainRate:5
CircleSize:4
OverallDifficulty:6
ApproachRate:7.5
SliderMultiplier:1.4
SliderTickRate:1

[Events]
//Background and Video events
0,0,"BG.jpg",0,0
//Break Periods
2,57491,59489
2,88750,93372
2,218432,220431
//Storyboard Layer 0 (Background)
//Storyboard Layer 1 (Fail)
//Storyboard Layer 2 (Pass)
//Storyboard Layer 3 (Foreground)
//Storyboard Sound Samples

[TimingPoints]
-391,352.941176470588,4,2,1,30,1,0
1020,-117.647058823529,4,2,1,30,0,0
10903,-200,4,2,1,30,0,0
11961,-200,4,2,1,40,0,0
12314,-100,4,2,1,70,0,0
23608,-117.647058823529,4,2,1,30,0,0
33491,-105.263157894737,4,2,1,50,0,0
34903,-100,4,2,1,70,0,0
42579,-100,4,2,1,5,0,0
42667,-100,4,2,1,70,0,0
46197,-133.333333333333,4,2,1,70,0,0
51844,-133.333333333333,4,2,1,70,0,0
56079,-117.647058823529,4,2,1,70,0,0
56697,-117.647058823529,4,2,1,5,0,0
56785,-117.647058823529,4,2,1,70,0,0
60314,-166.666666666667,4,2,1,25,0,0
60491,-166.666666666667,4,2,1,5,0,0
61550,-166.666666666667,4,2,1,25,0,0
61726,-100,4,2,1,70,0,0
62785,-142.857142857143,4,2,1,30,0,0
63050,-142.857142857143,4,2,1,5,0,0
63138,-100,4,2,1,80,0,1
68699,-100,4,2,1,5,0,1
68787,-100,4,2,1,80,0,1
74079,-100,4,2,1,80,0,0
74432,-100,4,2,1,80,0,1
77167,-100,4,2,1,5,0,1
77256,-100,4,2,1,80,0,1
80079,-100,4,2,1,80,0,1
85726,-100,4,2,1,70,0,0
87138,-125,4,2,1,25,0,0
88550,-100,4,2,1,50,0,0
99844,-100,4,2,1,70,0,0
113167,-100,4,2,1,5,0,0
113256,-100,4,2,1,70,0,0
116785,-133.333333333333,4,2,1,70,0,0
126667,-117.647058823529,4,2,1,70,0,0
127285,-117.647058823529,4,2,1,5,0,0
127373,-117.647058823529,4,2,1,70,0,0
128079,346.820809248555,4,2,1,70,1,0
129466,359.281437125748,4,2,1,70,1,0
130903,352.941176470588,4,2,1,70,1,0
132314,-100,4,2,1,70,0,0
133373,-142.857142857143,4,2,1,30,0,0
133638,-142.857142857143,4,2,1,5,0,0
133726,-100,4,2,1,70,0,1
139285,-100,4,2,1,5,0,1
139373,-100,4,2,1,70,0,1
144667,-100,4,2,1,70,0,0
145020,-100,4,2,1,70,0,1
147756,-100,4,2,1,5,0,1
147844,-100,4,2,1,70,0,1
150667,-100,4,2,1,70,0,1
156314,-100,4,2,1,70,0,0
157726,-125,4,2,1,25,0,0
159138,-117.647058823529,4,2,1,40,0,0
164432,-117.647058823529,4,2,1,50,0,0
170432,-111.111111111111,4,2,1,60,0,0
180314,-100,4,2,1,60,0,0
181726,-100,4,2,1,70,0,1
192844,-100,4,2,1,70,0,0
193020,-100,4,2,1,70,0,1
198579,-100,4,2,1,5,0,1
198667,-100,4,2,1,70,0,1
204314,-100,4,2,1,70,0,0
205726,-125,4,2,1,40,0,0
207138,-117.647058823529,4,2,1,60,0,0
217020,-117.647058823529,4,2,1,60,0,0
221256,-166.666666666667,4,2,1,25,0,0
221432,-166.666666666667,4,2,1,5,0,0
222491,-166.666666666667,4,2,1,25,0,0
222667,-100,4,2,1,60,0,0
223726,-142.857142857143,4,2,1,30,0,0
223991,-142.857142857143,4,2,1,5,0,0
224079,-100,4,2,1,70,0,1
229638,-100,4,2,1,5,0,1
229726,-100,4,2,1,70,0,1
235020,-100,4,2,1,70,0,0
235373,-100,4,2,1,70,0,1
238108,-100,4,2,1,5,0,1
238197,-100,4,2,1,70,0,1
241020,-100,4,2,1,70,0,1
246667,-100,4,2,1,70,0,0
248079,-125,4,2,1,25,0,0

[Colours]
Combo1 : 255,217,255
Combo2 : 255,254,193
Combo3 : 201,255,185
Combo4 : 225,245,255
Combo5 : 245,175,175

[HitObjects]
69,183,1020,6,0,P|73:227|85:327,2,119.000002269745,2|2|0,0:3|1:3|0:0,0:0:0:0:
121,117,1903,1,0,0:0:0:0:
121,117,2079,2,2,P|153:107|189:112,1,59.5000011348725,2|2,1:3|1:3,1:3:0:0:
245,159,2432,6,0,P|285:154|328:150,1,59.5000011348725,2|0,0:3|0:0,0:0:0:0:
381,119,2785,1,2,1:3:0:0:
453,159,2961,2,0,B|470:191|470:191|448:281,1,119.000002269745,2|0,1:3|0:0,0:0:0:0:
379,317,3491,2,2,P|337:313|304:310,1,59.5000011348725,2|2,1:3|1:3,1:3:0:0:
265,247,3844,6,0,P|227:221|150:252,2,119.000002269745,2|2|0,0:3|1:3|0:0,0:0:0:0:
319,311,4726,1,0,0:0:0:0:
319,311,4903,2,2,P|349:314|379:317,1,59.5000011348725,2|2,1:3|1:3,1:3:0:0:
449,272,5256,6,0,P|442:219|433:150,1,119.000002269745,2|2,0:3|1:3,0:0:0:0:
388,83,5785,1,0,0:0:0:0:
388,83,5961,2,2,P|356:73|320:78,1,59.5000011348725,0|0,0:0|0:0,1:3:0:0:
264,125,6314,2,2,P|224:120|181:116,1,59.5000011348725,2|2,1:3|1:3,1:3:0:0:
130,156,6667,6,0,P|70:161|11:166,2,119.000002269745,2|2|0,0:3|1:3|0:0,0:0:0:0:
204,118,7550,1,0,0:0:0:0:
204,118,7726,2,2,P|233:121|263:124,1,59.5000011348725,2|2,1:3|1:3,1:3:0:0:
325,180,8079,6,2,P|354:176|384:173,1,59.5000011348725,2|0,0:3|0:0,1:3:0:0:
457,212,8432,1,2,1:3:0:0:
512,150,8608,2,0,B|529:118|529:118|507:28,1,119.000002269745,2|0,1:3|0:0,0:0:0:0:
427,19,9138,2,2,P|391:27|362:33,1,59.5000011348725,2|2,1:3|1:3,1:3:0:0:
302,82,9491,6,0,P|272:75|243:69,2,59.5000011348725,2|0|2,0:3|0:0|1:3,0:0:0:0:
378,116,10020,2,0,P|407:109|436:103,2,59.5000011348725,2|0|0,1:3|0:0|0:0,0:0:0:0:
310,165,10550,2,0,P|280:158|251:152,1,59.5000011348725,2|2,1:3|1:3,0:0:0:0:
177,192,10903,5,2,0:3:0:0:
23,113,12314,6,0,P|57:72|142:88,1,140,4|8,0:1|0:0,0:0:0:0:
195,142,12844,1,0,0:0:0:0:
264,94,13020,2,0,P|301:99|333:103,1,70,2|0,0:0|0:0,0:0:0:0:
374,111,13285,1,8,0:0:0:0:
374,111,13373,2,0,P|386:143|371:191,1,70,2|8,0:0|0:0,0:0:0:0:
407,274,13726,6,0,B|372:250|372:250|268:278,1,140,2|8,0:0|0:0,0:0:0:0:
204,317,14256,1,0,0:0:0:0:
138,266,14432,2,0,P|143:227|149:179,1,70,2|0,0:0|0:0,0:0:0:0:
180,171,14697,1,8,0:0:0:0:
180,171,14785,2,0,P|175:132|169:84,1,70,2|8,0:0|0:0,0:0:0:0:
237,29,15138,6,0,P|268:71|360:49,1,140,4|8,0:1|0:0,0:0:0:0:
410,6,15667,1,0,0:0:0:0:
479,53,15844,2,0,P|474:92|468:140,1,70,2|0,0:0|0:0,0:0:0:0:
444,155,16109,1,8,0:0:0:0:
444,155,16197,2,0,P|449:194|455:242,1,70,2|8,0:0|0:0,0:0:0:0:
395,285,16550,6,0,P|364:274|321:280,1,70,2|2,0:0|0:0,0:0:0:0:
275,344,16903,2,0,P|240:347|207:336,1,70,8|0,0:0|0:0,0:0:0:0:
136,290,17256,1,2,0:0:0:0:
188,225,17432,1,0,0:0:0:0:
130,164,17608,2,0,P|102:154|52:160,1,70,8|0,0:0|0:0,0:0:0:0:
182,87,17961,6,0,P|229:84|326:78,1,140,4|8,0:1|0:0,0:0:0:0:
395,37,18491,1,0,0:0:0:0:
462,86,18667,2,0,P|457:125|451:173,1,70,2|0,0:0|0:0,0:0:0:0:
417,183,18932,1,8,0:0:0:0:
417,183,19020,2,0,P|422:222|428:270,1,70,2|8,0:0|0:0,0:0:0:0:
384,326,19373,6,0,P|336:291|251:318,1,140,2|8,0:0|0:0,0:0:0:0:
197,362,19903,1,0,0:0:0:0:
127,315,20079,2,0,P|132:276|138:228,1,70,2|0,0:0|0:0,0:0:0:0:
174,220,20344,1,8,0:0:0:0:
174,220,20432,2,0,P|169:181|163:133,1,70,2|8,0:0|0:0,0:0:0:0:
185,68,20785,6,0,P|229:73|269:79,1,70,2|0,0:0|0:0,0:0:0:0:
315,135,21138,2,0,P|349:130|384:126,1,70,8|0,0:0|0:0,0:0:0:0:
463,156,21491,2,0,P|458:195|452:243,1,70,2|2,0:0|0:0,0:0:0:0:
446,267,21756,1,8,0:0:0:0:
446,267,21844,2,0,P|413:253|362:259,1,70,2|8,0:0|0:0,0:0:0:0:
298,326,22197,5,2,0:0:0:0:
225,283,22373,1,2,0:0:0:0:
152,325,22550,2,0,P|117:318|73:312,1,70,10|0,0:0|0:0,0:0:0:0:
17,260,22903,2,0,P|26:222|35:189,1,70,2|2,0:3|0:0,0:0:0:0:
65,164,23167,1,8,0:0:0:0:
65,164,23256,2,0,P|56:126|47:93,1,70,2|2,0:2|0:0,0:0:0:0:
54,54,23520,1,8,0:0:0:0:
54,54,23608,6,0,B|87:33|87:33|178:49,1,119.000002269745,2|2,0:3|1:3,0:0:0:0:
239,97,24138,1,2,1:3:0:0:
239,97,24314,2,0,P|278:93|323:89,1,59.5000011348725
355,30,24667,2,2,P|384:32|414:35,1,59.5000011348725,2|2,1:3|1:3,1:3:0:0:
481,85,25020,6,0,P|476:134|467:213,1,119.000002269745,2|2,0:3|1:3,0:0:0:0:
407,261,25550,1,2,1:3:0:0:
407,261,25726,2,0,P|376:252|344:254,1,59.5000011348725
278,294,26079,2,2,P|284:333|292:372,1,59.5000011348725,2|2,1:3|1:3,1:3:0:0:
207,376,26432,6,0,P|201:346|197:317,1,59.5000011348725,2|0,0:3|0:0,0:0:0:0:
152,247,26785,1,2,1:3:0:0:
75,278,26961,1,2,1:3:0:0:
75,278,27314,1,0,0:0:0:0:
26,212,27491,2,2,P|33:177|38:139,1,59.5000011348725,2|2,1:3|1:3,1:3:0:0:
100,100,27844,6,0,P|156:107|235:116,1,119.000002269745,2|2,0:3|1:3,0:0:0:0:
289,71,28373,1,2,1:3:0:0:
289,71,28550,2,0,P|319:60|353:63,1,59.5000011348725
418,102,28903,2,2,P|413:144|407:189,1,59.5000011348725,2|2,1:3|1:3,1:3:0:0:
338,202,29256,6,0,P|343:252|354:339,2,119.000002269745,2|2|0,0:3|1:3|0:0,0:0:0:0:
278,142,30138,1,0,0:0:0:0:
278,142,30314,2,2,P|240:150|209:156,1,59.5000011348725,2|2,1:3|1:3,1:3:0:0:
140,127,30667,6,0,P|116:75|148:28,2,119.000002269745,2|2|0,0:3|1:3|0:0,0:0:0:0:
219,153,31550,1,0,0:0:0:0:
219,153,31726,2,2,P|214:189|209:227,1,59.5000011348725,2|2,1:3|1:3,1:3:0:0:
184,291,32079,6,0,B|150:270|150:270|65:287,2,119.000002269745,2|2|0,0:3|1:3|0:0,0:0:0:0:
247,345,32961,1,0,0:0:0:0:
247,345,33138,2,2,P|291:340|327:336,1,59.5000011348725,2|2,1:3|1:3,1:3:0:0:
374,261,33491,5,2,0:0:0:0:
414,344,33667,2,0,P|421:282|428:203,1,132.999996448517,2|2,0:3|0:3,0:0:0:0:
393,138,34197,2,0,P|360:125|318:131,1,66.4999982242585,2|2,0:0|0:0,0:0:0:0:
253,153,34550,2,0,P|207:144|166:136,1,66.4999982242585,2|0,0:3|0:0,0:0:0:0:
125,50,34903,6,0,P|160:85|109:169,1,140,4|8,0:1|0:0,0:0:0:0:
60,129,35432,1,0,0:0:0:0:
12,198,35608,2,0,P|21:243|30:287,1,70,2|2,0:0|0:0,0:0:0:0:
61,342,35961,2,0,P|100:324|139:328,1,70,8|0,0:0|0:0,0:0:0:0:
195,276,36314,6,0,P|245:280|284:286,1,70,2|0,0:0|0:0,0:0:0:0:
320,345,36667,2,0,P|354:341|394:335,1,70,10|0,0:0|0:0,0:0:0:0:
469,309,37020,1,2,0:0:0:0:
411,246,37197,1,8,0:0:0:0:
475,192,37373,2,0,P|469:151|464:116,1,70,8|0,0:0|0:0,0:0:0:0:
436,27,37726,6,0,B|400:58|400:58|298:40,1,140,2|8,0:0|0:0,0:0:0:0:
230,9,38256,1,0,0:0:0:0:
154,44,38432,2,0,P|143:77|152:119,1,70,2|2,0:0|0:0,0:0:0:0:
224,146,38785,2,0,P|219:186|212:231,1,70,8|0,0:0|0:0,0:0:0:0:
135,245,39138,5,0,0:0:0:0:
185,312,39314,1,2,0:0:0:0:
132,378,39491,2,0,P|161:346|263:366,1,140,8|2,0:0|0:0,0:0:0:0:
308,291,40020,1,8,0:0:0:0:
377,337,40197,2,0,P|424:329|468:322,1,70,8|0,0:0|0:0,0:0:0:0:
512,234,40550,6,0,P|477:239|442:245,1,70,2|2,0:0|0:0,0:0:0:0:
362,220,40903,2,0,P|333:163|370:104,1,140,8|2,0:0|0:0,0:0:0:0:
429,44,41432,1,0,0:0:0:0:
348,21,41608,2,0,P|305:27|265:32,1,70,8|0,0:0|0:0,0:0:0:0:
220,90,41961,6,0,P|185:85|150:80,1,70,2|2,0:0|0:0,0:0:0:0:
68,63,42314,2,0,B|40:96|40:96|64:195,1,140,8|2,0:0|0:0,0:0:0:0:
143,163,42844,1,8,0:0:0:0:
187,234,43020,2,0,P|183:270|177:313,1,70,8|0,0:0|0:0,0:0:0:0:
264,381,43373,6,0,P|319:337|395:366,1,140,2|8,0:0|0:0,0:0:0:0:
460,383,43903,1,0,0:0:0:0:
501,310,44079,2,0,P|496:275|492:240,1,70,2|2,0:0|0:0,0:0:0:0:
431,182,44432,1,8,0:0:0:0:
480,114,44608,1,0,0:0:0:0:
399,47,44785,6,0,P|350:56|310:63,1,70,4|8,1:0|0:0,0:0:0:0:
264,112,45138,1,8,0:0:0:0:
208,48,45314,1,2,0:0:0:0:
208,48,45403,1,8,0:0:0:0:
208,48,45491,6,0,P|175:39|128:50,1,70,8|2,1:2|0:0,0:0:0:0:
65,83,45844,2,0,P|72:125|81:167,1,70,2|2,0:0|0:0,0:0:0:0:
105,183,46108,1,0,0:0:0:0:
105,183,46197,6,0,P|100:225|86:345,1,157.500006008148,4|2,0:1|0:0,0:0:0:0:
162,375,46903,1,8,0:0:0:0:
162,375,47256,2,0,P|197:372|237:365,1,52.5000020027161,0|2,0:0|0:0,0:0:0:0:
282,320,47608,5,2,0:0:0:0:
363,341,47785,1,8,0:0:0:0:
363,341,48138,5,2,0:0:0:0:
420,277,48314,2,0,P|413:231|400:151,1,105.000004005432,8|2,0:0|0:0,0:0:0:0:
339,117,48844,1,8,0:0:0:0:
339,117,48932,1,8,0:0:0:0:
339,117,49020,6,0,B|284:136|284:136|239:117|239:117|187:134,1,157.500006008148,4|2,0:1|0:0,0:0:0:0:
130,191,49726,1,8,0:0:0:0:
130,191,50079,2,0,P|135:225|142:267,1,52.5000020027161,0|2,0:0|0:0,0:0:0:0:
72,303,50432,6,0,P|43:294|5:300,2,52.5000020027161,2|0|2,0:0|0:0|0:0,0:0:0:0:
138,354,50961,1,2,0:0:0:0:
209,309,51138,2,0,P|261:314|330:321,1,105.000004005432,12|4,0:0|0:0,0:0:0:0:
389,355,51667,1,0,0:0:0:0:
455,286,51844,6,0,B|486:197|416:220|459:127,1,157.500006008148,4|2,0:1|0:0,0:0:0:0:
391,80,52550,1,8,0:0:0:0:
391,80,52903,2,0,P|357:86|327:91,1,52.5000020027161,0|2,0:0|0:0,0:0:0:0:
267,138,53256,5,2,0:0:0:0:
220,68,53432,2,0,P|175:51|120:70,1,105.000004005432,2|2,0:0|0:0,0:0:0:0:
48,107,53961,1,8,0:0:0:0:
48,107,54314,2,0,P|56:148|64:177,1,52.5000020027161,0|2,0:0|0:0,0:0:0:0:
129,203,54667,6,0,P|123:247|113:319,1,105.000004005432,4|2,0:1|0:0,0:0:0:0:
174,367,55197,1,0,0:0:0:0:
250,333,55373,1,8,0:0:0:0:
250,333,55726,2,0,P|292:336|327:339,1,52.5000020027161,2|2,0:0|0:0,0:0:0:0:
342,351,55991,1,0,0:0:0:0:
342,351,56079,6,0,P|368:348|420:343,1,59.5000011348725,2|2,0:0|0:0,0:0:0:0:
471,299,56432,2,0,P|464:258|457:219,1,59.5000011348725,2|2,0:0|0:0,0:0:0:0:
410,134,56785,6,0,P|404:163|399:192,1,59.5000011348725,8|6,0:0|0:0,0:0:0:0:
339,251,57138,1,0,0:0:0:0:
131,277,60314,6,0,P|98:290|138:175,1,293.999991027832,2|0,0:3|0:0,0:0:0:0:
202,219,61726,5,8,0:0:0:0:
240,136,61903,1,8,0:0:0:0:
68,43,62432,5,8,0:0:0:0:
82,132,62608,1,8,0:0:0:0:
82,132,63138,6,0,P|142:128|244:119,1,140,4|8,1:3|0:0,0:0:0:0:
290,73,63667,1,0,0:0:0:0:
364,111,63844,2,0,P|360:148|355:203,1,70,2|0,0:0|0:0,0:0:0:0:
351,264,64197,2,0,P|318:251|275:257,1,70,8|0,0:0|0:0,0:0:0:0:
200,264,64550,6,0,P|210:308|218:348,1,70,2|0,0:0|0:0,0:0:0:0:
139,369,64903,2,0,P|131:334|124:300,1,70,8|0,0:0|0:0,0:0:0:0:
59,247,65256,1,2,0:0:0:0:
110,181,65432,1,0,0:0:0:0:
70,107,65608,2,0,P|35:104|4:117,1,70,8|0,0:0|0:0,0:0:0:0:
137,40,65961,6,0,P|210:46|285:53,1,140,2|8,1:3|0:0,0:0:0:0:
354,19,66491,1,0,0:0:0:0:
428,56,66667,2,0,P|439:93|423:137,1,70,2|0,0:0|0:0,0:0:0:0:
354,155,67020,2,0,P|360:195|366:235,1,70,8|0,0:0|0:0,0:0:0:0:
315,314,67373,6,0,P|282:302|232:304,1,70,2|0,1:2|0:0,0:0:0:0:
251,216,67726,2,0,P|216:220|177:244,1,70,8|0,1:2|0:0,0:0:0:0:
108,203,68079,1,2,1:3:0:0:
35,245,68256,1,2,0:0:0:0:
57,325,68432,1,8,1:2:0:0:
57,325,68785,6,0,P|114:321|212:314,1,140,4|8,0:1|0:0,0:0:0:0:
252,252,69314,1,0,0:0:0:0:
252,252,69491,2,0,P|287:243|333:253,1,70,2|0,0:0|0:0,0:0:0:0:
390,200,69844,1,8,0:0:0:0:
458,247,70020,1,0,0:0:0:0:
511,181,70197,6,0,P|507:236|498:337,1,140,2|8,1:2|0:0,0:0:0:0:
313,174,70903,2,0,P|317:216|322:261,1,70,2|0,0:0|0:0,0:0:0:0:
269,310,71256,2,0,P|234:297|185:305,1,70,8|0,0:0|0:0,0:0:0:0:
130,342,71608,5,2,1:2:0:0:
130,342,71785,1,2,0:0:0:0:
56,301,71961,2,0,B|37:271|37:271|65:171,1,140,8|2,0:0|0:0,0:0:0:0:
18,99,72491,1,0,0:0:0:0:
80,43,72667,2,0,P|127:50|169:56,1,70,4|0,0:1|0:0,0:0:0:0:
229,109,73020,5,2,1:3:0:0:
283,44,73197,2,0,P|278:12|275:-11,2,35,8|8|10,0:0|0:0|0:3,0:0:0:0:
328,115,73550,2,0,P|325:132|322:149,2,35,8|8|2,0:0|0:0|0:0,0:0:0:0:
379,48,73903,5,2,0:3:0:0:
447,115,74079,2,0,P|443:162|439:199,1,70,4|2,0:1|0:0,0:0:0:0:
384,260,74432,6,0,P|347:225|257:248,1,140,4|4,1:0|0:1,0:0:0:0:
208,301,74961,1,0,0:0:0:0:
136,257,75138,2,0,P|96:263|49:272,1,70,2|0,0:0|0:0,0:0:0:0:
11,204,75491,2,0,P|15:160|22:117,1,70,8|0,0:0|0:0,0:0:0:0:
67,65,75844,6,0,B|101:97|101:97|207:71,1,140,2|8,0:0|0:0,0:0:0:0:
267,112,76373,1,0,0:0:0:0:
321,48,76550,2,0,P|353:36|397:42,1,70,2|0,0:0|0:0,0:0:0:0:
455,89,76903,2,0,P|451:130|447:175,1,70,8|0,0:0|0:0,0:0:0:0:
490,231,77256,5,2,1:2:0:0:
423,281,77432,1,2,0:0:0:0:
352,235,77608,2,0,P|296:231|205:225,1,140,8|2,0:0|1:2,0:0:0:0:
137,265,78138,1,0,0:0:0:0:
77,206,78314,2,0,P|85:170|92:126,1,70,8|0,0:0|0:0,0:0:0:0:
125,53,78667,6,0,P|165:46|203:59,1,70,2|0,1:3|0:0,0:0:0:0:
260,102,79020,2,0,P|306:98|339:94,1,70,8|0,1:2|0:0,0:0:0:0:
406,60,79373,1,2,0:0:0:0:
463,121,79550,1,8,0:0:0:0:
422,194,79726,1,12,0:0:0:0:
422,194,80079,6,0,P|428:235|447:336,1,140,4|8,0:1|0:0,0:0:0:0:
368,364,80608,1,0,0:0:0:0:
368,364,80785,2,0,P|332:353|286:363,1,70,2|0,0:0|0:0,0:0:0:0:
220,328,81138,2,0,P|179:335|143:341,1,70,8|0,0:0|0:0,0:0:0:0:
66,333,81491,6,0,B|42:299|42:299|68:199,1,140,2|8,1:3|0:0,0:0:0:0:
16,136,82020,1,0,0:0:0:0:
69,70,82197,2,0,P|112:76|162:81,1,70,2|0,0:3|0:0,0:0:0:0:
205,27,82550,2,0,P|238:20|277:32,1,70,8|0,0:0|0:0,0:0:0:0:
346,69,82903,6,0,P|342:108|336:164,1,70,2|0,1:3|0:0,0:0:0:0:
419,163,83256,2,0,P|409:198|399:230,1,70,8|0,0:0|0:0,0:0:0:0:
339,289,83608,2,0,P|301:276|255:283,1,70,2|0,1:3|0:0,0:0:0:0:
281,193,83961,2,0,P|240:194|200:217,1,70,8|0,0:0|0:0,0:0:0:0:
138,268,84314,5,2,1:2:0:0:
73,191,84491,2,0,P|86:247|106:339,1,140,8|2,0:0|0:0,0:0:0:0:
133,357,84932,1,8,0:0:0:0:
133,357,85020,2,0,P|169:344|207:351,1,70,8|2,0:0|0:0,0:0:0:0:
275,384,85373,2,0,P|309:380|344:376,1,70,2|2,0:0|0:0,0:0:0:0:
420,325,85726,5,4,0:1:0:0:
420,325,87138,6,0,P|443:275|412:220,2,112,2|0|0,0:3|0:3|0:0,0:0:0:0:
338,366,88197,1,0,0:0:0:0:
260,320,88550,5,2,0:0:0:0:
68,66,94197,6,0,P|37:83|58:172,1,140,4|8,0:1|0:0,0:0:0:0:
54,170,94903,2,0,P|84:177|122:165,1,70,2|2,0:0|0:0,0:0:0:0:
202,144,95256,2,0,P|199:189|195:268,1,105,8|0,0:0|0:0,0:0:0:0:
225,278,95608,6,0,P|230:206|232:115,1,140,2|8,0:0|0:0,0:0:0:0:
330,23,96314,2,0,P|334:65|338:111,1,70,2|2,0:0|0:0,0:0:0:0:
381,163,96667,2,0,P|414:138|480:153,1,105,8|0,0:0|0:0,0:0:0:0:
505,175,97020,6,0,P|501:214|497:260,1,70,2|2,0:0|0:0,0:0:0:0:
443,308,97373,1,8,0:0:0:0:
443,308,97726,2,0,P|403:294|359:304,1,70,2|2,0:0|0:0,0:0:0:0:
315,355,98079,2,0,P|259:349|222:344,1,70,12|0,0:0|0:0,0:0:0:0:
172,286,98432,6,0,P|128:290|91:295,1,70,8|0,0:0|0:0,0:0:0:0:
85,286,98697,1,8,0:0:0:0:
70,276,98785,2,0,P|76:233|80:189,1,70,2|2,0:0|0:0,0:0:0:0:
89,192,99050,1,8,0:0:0:0:
97,176,99138,6,0,P|93:136|91:115,3,35,8|2|2|2,0:3|0:0|0:0|0:0,0:0:0:0:
112,103,99491,1,12,0:0:0:0:
112,103,99844,6,0,P|153:89|192:97,1,70,2|2,0:0|0:0,0:0:0:0:
240,149,100197,2,0,P|283:143|331:136,1,70,8|0,0:0|0:0,0:0:0:0:
387,107,100550,1,2,0:0:0:0:
432,177,100726,1,2,0:0:0:0:
370,234,100903,2,0,P|360:272|379:318,1,70,8|0,0:0|0:0,0:0:0:0:
296,346,101256,6,0,P|257:342|217:338,1,70,2|2,0:0|0:0,0:0:0:0:
192,262,101608,2,0,P|155:225|75:247,1,140,8|2,0:0|0:0,0:0:0:0:
22,309,102138,1,2,0:0:0:0:
75,373,102314,1,8,0:0:0:0:
75,373,102667,6,0,P|144:366|239:353,1,140,4|8,0:1|0:0,0:0:0:0:
296,378,103197,1,0,0:0:0:0:
361,326,103373,2,0,P|353:286|346:243,1,70,8|0,0:0|0:0,0:0:0:0:
273,217,103726,2,0,P|281:177|288:134,1,70,8|2,0:0|0:0,0:0:0:0:
251,71,104079,6,0,P|214:60|169:73,1,70,2|0,0:0|0:0,0:0:0:0:
153,96,104344,1,8,0:0:0:0:
153,96,104432,1,8,0:0:0:0:
59,31,104608,5,2,0:0:0:0:
59,31,104961,1,2,0:0:0:0:
0,149,105314,5,2,0:0:0:0:
0,149,105403,1,8,0:0:0:0:
0,149,105491,2,0,P|12:223|24:296,1,140,4|8,0:1|0:0,0:0:0:0:
85,343,106020,1,0,0:0:0:0:
139,279,106197,2,0,P|172:271|216:283,1,70,2|0,0:0|0:0,0:0:0:0:
264,339,106550,2,0,P|313:334|356:330,1,70,8|0,0:0|0:0,0:0:0:0:
416,319,106903,6,0,P|427:281|418:244,1,70,2|0,0:0|0:0,0:0:0:0:
349,208,107256,2,0,P|354:171|359:131,1,70,8|0,0:0|0:0,0:0:0:0:
334,58,107608,1,2,0:0:0:0:
264,104,107785,1,2,0:0:0:0:
190,64,107961,2,0,P|156:70|113:77,1,70,8|0,0:0|0:0,0:0:0:0:
50,16,108314,6,0,P|90:42|59:119,1,140,2|8,0:0|0:0,0:0:0:0:
0,171,108844,1,0,0:0:0:0:
69,217,109020,2,0,P|108:213|162:206,1,70,2|0,0:0|0:0,0:0:0:0:
221,193,109373,2,0,P|214:236|210:282,1,70,8|0,0:0|0:0,0:0:0:0:
261,329,109726,5,2,0:0:0:0:
337,294,109903,1,2,0:0:0:0:
380,365,110079,2,0,P|385:322|394:208,1,140,8|2,0:0|0:0,0:0:0:0:
448,162,110608,1,0,0:0:0:0:
385,105,110785,2,0,P|349:96|306:108,1,70,8|0,0:0|0:0,0:0:0:0:
220,33,111138,6,0,P|225:72|231:119,1,70,2|0,0:0|0:0,0:0:0:0:
149,129,111491,2,0,B|129:165|129:165|167:272,1,140,8|2,0:0|0:0,0:0:0:0:
138,339,112020,1,0,0:0:0:0:
213,375,112197,2,0,P|257:363|295:352,1,70,8|0,0:0|0:0,0:0:0:0:
357,321,112550,6,0,P|309:316|217:308,1,140,2|8,0:0|0:0,0:0:0:0:
138,339,113079,1,0,0:0:0:0:
72,285,113256,2,0,P|64:251|80:208,1,70,2|0,0:0|0:0,0:0:0:0:
11,161,113608,2,0,P|36:137|81:129,1,70,8|0,0:0|0:0,0:0:0:0:
135,57,113961,6,0,P|182:61|284:67,1,140,2|8,0:0|0:0,0:0:0:0:
347,22,114491,1,0,0:0:0:0:
415,70,114667,2,0,P|410:114|403:157,1,70
340,192,115020,1,8,0:0:0:0:
381,265,115197,1,0,0:0:0:0:
319,337,115373,6,0,P|269:333|228:330,1,70,2|0,0:0|0:0,0:0:0:0:
210,315,115638,1,0,0:0:0:0:
210,315,115726,6,0,P|179:317|146:328,2,46.6666666666667,8|8|0,0:0|0:0|0:0,0:0:0:0:
158,292,116079,2,0,P|132:305|106:328,2,46.6666666666667,10|8|2,0:3|0:0|0:0,0:0:0:0:
103,278,116432,2,0,P|78:298|61:319,2,46.6666666666667,10|2|2,0:3|0:0|0:0,0:0:0:0:
65,258,116785,6,0,P|58:188|49:81,1,157.500006008148,4|2,0:1|0:0,0:0:0:0:
107,38,117491,1,8,0:0:0:0:
107,38,117844,2,0,P|144:44|174:47,1,52.5000020027161,0|2,0:0|0:0,0:0:0:0:
228,92,118197,5,2,0:0:0:0:
307,66,118373,1,8,0:0:0:0:
307,66,118726,5,2,0:0:0:0:
374,116,118903,2,0,P|364:185|357:239,1,105.000004005432,8|2,0:0|0:0,0:0:0:0:
351,338,119608,6,0,P|306:294|210:330,1,157.500006008148,4|2,0:1|0:0,0:0:0:0:
153,365,120314,1,8,0:0:0:0:
153,365,120667,2,0,P|117:360|80:355,1,52.5000020027161,0|2,0:0|0:0,0:0:0:0:
52,289,121020,6,0,P|25:292|-1:296,2,52.5000020027161,2|0|2,0:0|0:0|0:0,0:0:0:0:
117,235,121550,1,2,0:0:0:0:
190,277,121726,2,0,P|243:271|317:261,1,105.000004005432,8|0,0:0|0:0,0:0:0:0:
368,304,122256,1,0,0:0:0:0:
442,240,122432,6,0,B|407:198|407:198|442:91,1,157.500006008148,4|2,0:1|0:0,0:0:0:0:
357,79,123138,1,8,0:0:0:0:
357,79,123491,2,0,P|318:84|284:89,1,52.5000020027161,0|2,0:0|0:0,0:0:0:0:
235,38,123844,5,0,0:0:0:0:
161,77,124020,2,0,B|146:108|146:108|167:181,1,105.000004005432,2|0,0:0|0:0,0:0:0:0:
93,220,124550,1,8,0:0:0:0:
93,220,124903,2,0,P|102:259|108:287,1,52.5000020027161,0|2,0:0|0:0,0:0:0:0:
142,346,125256,6,0,P|182:320|247:332,1,105.000004005432,4|2,0:1|0:0,0:0:0:0:
305,376,125785,1,2,0:0:0:0:
377,333,125961,1,8,0:0:0:0:
377,333,126314,2,0,P|372:297|369:270,1,52.5000020027161
346,245,126579,1,0,0:0:0:0:
346,245,126667,6,0,P|351:209|356:176,1,59.5000011348725,2|2,0:0|0:0,0:0:0:0:
431,154,127020,2,0,P|426:118|421:85,1,59.5000011348725,2|2,0:0|0:0,0:0:0:0:
290,41,127373,6,0,P|334:48|359:53,1,59.5000011348725,8|2,0:0|0:3,0:0:0:0:
425,17,127726,1,0,0:0:0:0:
425,17,128079,5,2,1:3:0:0:
422,95,129466,1,2,1:3:0:0:
415,174,130903,1,0,1:3:0:0:
415,174,132314,5,8,0:0:0:0:
325,191,132491,1,8,0:0:0:0:
159,288,133020,5,8,0:0:0:0:
249,305,133197,1,8,0:0:0:0:
249,305,133726,6,0,P|245:253|236:162,1,140,4|8,1:3|0:0,0:0:0:0:
296,106,134256,1,0,0:0:0:0:
239,44,134432,2,0,P|205:34|164:42,1,70,2|0,0:0|0:0,0:0:0:0:
92,86,134785,2,0,P|99:126|106:163,1,70,8|0,0:0|0:0,0:0:0:0:
182,187,135138,6,0,P|175:227|168:264,1,70,2|0,0:0|0:0,0:0:0:0:
213,327,135491,2,0,P|247:317|288:325,1,70,8|0,0:0|0:0,0:0:0:0:
347,373,135844,1,2,0:0:0:0:
416,325,136020,1,0,0:0:0:0:
376,250,136197,2,0,P|386:200|394:169,1,70,8|0,0:0|0:0,0:0:0:0:
437,87,136550,6,0,P|417:128|321:124,1,140,2|8,1:3|0:0,0:0:0:0:
280,65,137079,1,0,0:0:0:0:
210,111,137256,2,0,P|171:105|133:100,1,70,2|0,0:0|0:0,0:0:0:0:
57,109,137608,2,0,P|41:141|54:188,1,70,8|0,0:0|0:0,0:0:0:0:
172,251,137961,6,0,P|133:245|95:240,1,70,2|0,1:2|0:0,0:0:0:0:
28,280,138314,2,0,P|67:274|105:269,1,70,8|0,1:2|0:0,0:0:0:0:
153,333,138667,1,2,0:0:0:0:
153,333,138756,2,0,P|200:337|248:294,1,105,8|8,0:0|0:0,0:0:0:0:
213,224,139197,1,2,0:0:0:0:
254,307,139373,6,0,B|289:286|289:286|414:317,1,140,4|8,0:1|0:0,0:0:0:0:
467,288,139903,1,0,0:0:0:0:
467,288,140079,2,0,P|477:250|465:212,1,70,2|0,0:0|0:0,0:0:0:0:
395,178,140432,1,8,0:0:0:0:
430,102,140608,1,0,0:0:0:0:
361,52,140785,6,0,P|317:58|218:70,1,140,2|8,1:3|0:0,0:0:0:0:
58,36,141491,2,0,P|47:70|58:112,1,70,2|0,0:0|0:0,0:0:0:0:
129,138,141844,2,0,P|140:172|129:214,1,70,8|0,0:0|0:0,0:0:0:0:
62,249,142197,5,2,1:2:0:0:
62,249,142373,1,2,0:0:0:0:
114,314,142550,2,0,B|145:339|145:339|274:304,1,140,8|2,0:0|0:0,0:0:0:0:
314,354,143079,1,0,0:0:0:0:
388,315,143256,2,0,P|398:280|382:234,1,70,4|0,0:1|0:0,0:0:0:0:
399,144,143608,5,2,1:3:0:0:
325,192,143785,2,0,P|307:192|290:194,2,35,8|8|10,0:0|0:0|0:3,0:0:0:0:
280,120,144138,2,0,P|266:120|229:125,2,35,8|8|2,0:0|0:0|0:0,0:0:0:0:
254,39,144491,5,2,0:3:0:0:
161,73,144667,2,0,P|138:75|113:80,3,35,8|8|8|2,0:3|0:0|0:0|0:0,0:0:0:0:
86,63,145020,6,0,B|62:100|62:100|92:207,1,140,4|4,1:0|0:1,0:0:0:0:
29,254,145550,1,0,0:0:0:0:
75,323,145726,2,0,P|112:316|151:312,1,70,2|0,0:0|0:0,0:0:0:0:
203,252,146079,2,0,P|237:255|272:262,1,70,8|0,0:0|0:0,0:0:0:0:
327,326,146432,6,0,P|293:283|342:218,1,140,2|8,0:0|0:0,0:0:0:0:
409,257,146961,1,0,0:0:0:0:
473,203,147138,2,0,P|481:167|470:130,1,70,2|0,0:0|0:0,0:0:0:0:
499,55,147491,2,8,P|460:47|420:60,1,70,8|2,0:0|0:0,0:0:0:0:
351,27,147844,5,2,1:2:0:0:
282,75,148020,1,0,0:0:0:0:
199,33,148197,2,0,P|148:41|57:52,1,140,8|2,0:0|1:2,0:0:0:0:
0,110,148726,1,0,0:0:0:0:
48,178,148903,2,0,P|40:217|31:261,1,70,8|0,0:0|0:0,0:0:0:0:
98,315,149256,6,0,P|134:303|175:310,1,70,2|0,1:2|0:0,0:0:0:0:
162,222,149609,2,0,P|198:223|240:250,1,70,8|0,1:2|0:0,0:0:0:0:
300,198,149962,1,2,1:3:0:0:
375,234,150139,1,2,0:0:0:0:
352,314,150315,1,12,1:2:0:0:
352,314,150667,6,0,P|295:310|197:303,1,140,4|8,0:1|0:0,0:0:0:0:
128,289,151197,1,0,0:0:0:0:
128,289,151373,2,0,P|118:251|130:213,1,70,2|0,0:0|0:0,0:0:0:0:
198,181,151726,2,0,P|188:136|179:94,1,70,8|0,0:0|0:0,0:0:0:0:
241,51,152079,6,0,B|275:83|275:83|381:57,1,140,2|8,1:2|0:0,0:0:0:0:
426,2,152608,1,0,0:0:0:0:
488,61,152785,2,0,P|484:97|477:141,1,70,2|0,0:3|0:0,0:0:0:0:
403,167,153138,2,0,P|407:203|414:247,1,70,8|0,0:0|0:0,0:0:0:0:
362,304,153491,6,0,P|322:292|291:297,1,70,2|0,1:2|0:0,0:0:0:0:
238,359,153844,2,0,P|203:362|171:349,1,70,8|0,0:0|0:0,0:0:0:0:
156,266,154197,2,0,P|114:271|74:278,1,70,2|0,1:2|0:0,0:0:0:0:
5,254,154550,2,0,P|47:259|87:266,1,70,8|0,0:0|0:0,0:0:0:0:
156,188,154903,5,2,1:3:0:0:
77,158,155079,2,0,B|57:127|57:127|98:26,1,140,8|8,0:0|0:0,0:0:0:0:
137,21,155520,1,8,0:0:0:0:
137,21,155608,2,0,P|175:26|228:31,1,70,2|2,0:0|0:0,0:0:0:0:
269,85,155961,2,0,P|303:81|338:76,1,70,8|2,0:3|0:0,0:0:0:0:
417,106,156314,5,4,0:1:0:0:
417,106,157726,6,0,P|451:83|524:96,2,112,2|0|0,0:3|0:0|0:0,0:0:0:0:
362,178,158785,1,0,0:0:0:0:
279,131,159138,6,0,P|237:137|145:152,2,119.000002269745,2|2|0,0:0|0:0|0:0,0:0:0:0:
279,131,160197,2,0,P|310:116|355:119,1,59.5000011348725,2|0,0:0|0:0,0:0:0:0:
407,155,160550,6,0,P|404:210|395:292,1,119.000002269745,2|2,0:0|0:0,0:0:0:0:
333,326,161079,2,0,P|279:295|213:316,1,119.000002269745,2|0,0:3|0:0,0:0:0:0:
154,351,161608,1,2,0:0:0:0:
50,259,161961,6,0,P|60:205|71:128,2,119.000002269745,2|2|2,0:0|0:0|0:0,0:0:0:0:
170,113,163020,2,0,P|175:146|182:187,1,59.5000011348725
272,219,163373,6,0,P|262:165|252:83,2,119.000002269745,2|2|2,0:0|0:0|0:0,0:0:0:0:
441,296,164432,2,0,P|407:302|371:307,1,59.5000011348725,2|2,0:0|0:0,0:0:0:0:
294,353,164785,6,0,B|259:337|259:337|169:359,1,119.000002269745,4|2,0:1|0:0,0:0:0:0:
103,325,165314,1,0,0:0:0:0:
103,325,165491,2,0,P|111:282|116:252,1,59.5000011348725,2|0,0:0|0:0,0:0:0:0:
189,231,165844,2,0,P|181:188|176:158,1,59.5000011348725,2|0,0:0|0:0,0:0:0:0:
230,104,166197,6,0,P|278:76|343:100,1,119.000002269745,2|2,0:0|0:0,0:0:0:0:
402,142,166726,1,0,0:0:0:0:
402,142,166903,2,0,P|394:201|384:259,1,119.000002269745,2|2,0:0|0:0,0:0:0:0:
432,328,167432,1,0,0:0:0:0:
344,368,167608,6,0,P|300:360|204:344,2,119.000002269745,2|2|2,0:0|0:0|0:0,0:0:0:0:
193,266,168667,2,0,P|156:269|120:272,1,59.5000011348725,2|0,0:0|0:0,0:0:0:0:
17,210,169020,6,0,P|43:181|122:190,2,119.000002269745,2|2|2,0:0|0:0|0:0,0:0:0:0:
192,266,170079,2,0,P|197:231|202:196,1,59.5000011348725,2|0,0:0|0:0,0:0:0:0:
248,86,170432,6,0,P|252:117|259:154,1,62.9999980773926,2|2,0:0|0:0,0:0:0:0:
327,191,170785,2,0,B|360:171|360:171|471:193,2,125.999996154785,2|2|0,0:0|0:3|0:0,0:0:0:0:
257,148,171667,1,0,0:0:0:0:
193,200,171844,6,0,P|156:196|124:193,1,62.9999980773926,2|2,0:0|0:0,0:0:0:0:
49,207,172197,2,0,P|58:254|77:357,2,125.999996154785,2|2|2,0:0|0:3|0:0,0:0:0:0:
1,139,173079,1,0,0:0:0:0:
65,87,173256,6,0,P|99:94|132:101,1,62.9999980773926,2|2,0:0|0:0,0:0:0:0:
192,51,173608,2,0,P|244:24|301:54,2,125.999996154785,2|2|2,0:0|0:3|0:0,0:0:0:0:
148,120,174491,1,0,0:0:0:0:
209,174,174667,5,0,0:0:0:0:
142,222,174844,2,0,P|198:215|288:204,1,125.999996154785,2|2,0:0|0:0,0:0:0:0:
335,240,175373,2,0,P|332:283|329:317,1,62.9999980773926,2|2,0:0|0:0,0:0:0:0:
407,330,175726,2,0,P|409:298|411:267,1,62.9999980773926,2|2,0:0|0:0,0:0:0:0:
457,143,176079,6,0,P|461:174|466:205,1,62.9999980773926,4|2,0:1|0:0,0:0:0:0:
411,267,176432,1,2,0:0:0:0:
411,267,176785,2,0,P|374:237|296:261,1,125.999996154785,2|2,0:3|0:0,0:0:0:0:
243,310,177314,1,0,0:0:0:0:
181,255,177491,6,0,P|134:263|109:270,1,62.9999980773926,2|2,0:0|0:0,0:0:0:0:
43,234,177844,1,2,0:0:0:0:
43,234,178197,2,0,B|24:196|24:196|56:110,1,125.999996154785,2|2,0:3|0:0,0:0:0:0:
12,46,178726,1,0,0:0:0:0:
88,16,178903,6,0,P|144:26|223:37,1,125.999996154785,2|2,0:0|0:0,0:0:0:0:
294,27,179432,1,0,0:0:0:0:
294,27,179608,2,0,P|321:54|280:136,1,125.999996154785,2|2,0:3|0:0,0:0:0:0:
223,166,180138,1,0,0:0:0:0:
163,97,180314,6,0,P|174:152|194:243,1,140,8|2,0:0|1:2,0:0:0:0:
134,296,180844,1,0,0:0:0:0:
197,350,181020,2,0,P|240:343|284:336,1,70,8|2,1:2|0:0,0:0:0:0:
333,288,181373,1,8,1:2:0:0:
407,327,181550,1,8,0:0:0:0:
483,275,181726,6,0,P|430:282|338:294,1,140,4|8,1:3|0:0,0:0:0:0:
294,224,182256,1,2,1:3:0:0:
294,224,182432,2,0,P|263:210|221:215,1,70,2|0,0:0|0:0,0:0:0:0:
172,275,182785,2,0,P|134:269|94:260,1,70,8|0,1:2|0:0,0:0:0:0:
19,257,183138,6,0,B|-1:223|-1:223|31:119,1,140,2|8,1:2|0:0,0:0:0:0:
85,64,183667,1,0,0:0:0:0:
85,64,183844,2,0,P|118:60|158:72,1,70,2|0,1:2|0:0,0:0:0:0:
203,1,184197,2,0,P|232:13|260:55,1,70,8|0,1:2|0:0,0:0:0:0:
336,69,184550,6,0,P|329:119|312:216,1,140,2|8,1:3|0:0,0:0:0:0:
347,284,185079,1,2,1:3:0:0:
347,284,185256,2,0,P|389:278|437:275,1,70,2|0,0:0|0:0,0:0:0:0:
458,348,185608,2,0,P|423:353|388:356,1,70,8|0,1:2|0:0,0:0:0:0:
347,284,185961,6,0,P|302:253|219:280,1,140,2|8,1:2|0:0,0:0:0:0:
162,331,186491,1,0,1:0:0:0:
98,276,186667,2,0,P|105:221|119:132,1,140,2|8,1:3|0:0,0:0:0:0:
53,82,187197,1,0,0:0:0:0:
115,5,187373,6,0,P|153:13|196:19,1,70,4|0,1:0|1:0,0:0:0:0:
257,59,187726,2,0,P|291:53|329:48,1,70,8|2,1:2|1:3,0:0:0:0:
409,63,188079,6,0,P|407:24|405:0,2,46.6666666666667,2|2|2,1:2|1:3|1:3,0:0:0:0:
429,115,188432,2,0,P|431:76|433:52,2,46.6666666666667,8|0|0,1:2|1:0|1:0,0:0:0:0:
452,165,188785,6,0,P|458:126|463:102,2,46.6666666666667,2|0|0,1:2|1:0|1:0,0:0:0:0:
466,219,189138,2,0,P|478:182|487:159,2,46.6666666666667,8|0|0,1:2|1:0|1:0,0:0:0:0:
489,269,189491,2,0,L|503:208,2,46.6666666666667,2|2|2,1:2|1:3|1:3,0:0:0:0:
511,320,189844,2,0,P|477:308|435:314,1,70,8|0,1:2|0:0,0:0:0:0:
364,284,190197,6,0,P|320:289|213:301,1,140,2|8,1:2|0:0,0:0:0:0:
143,276,190726,1,2,1:3:0:0:
143,276,190903,2,0,P|133:239|153:193,1,70,2|0,0:0|0:0,0:0:0:0:
212,164,191256,2,0,P|219:130|209:97,1,70,8|0,1:2|0:0,0:0:0:0:
145,43,191608,5,2,1:2:0:0:
75,89,191785,1,10,0:3:0:0:
16,22,191961,2,0,P|25:72|47:171,1,140,12|12,0:0|1:2,0:0:0:0:
15,238,192491,1,12,1:2:0:0:
73,298,192667,1,12,1:2:0:0:
154,278,192844,1,12,1:2:0:0:
167,195,193020,6,0,P|196:161|291:184,1,140,2|8,0:0|0:0,0:0:0:0:
330,243,193550,1,0,0:0:0:0:
394,189,193726,2,0,P|433:191|480:195,1,70,2|0,0:0|0:0,0:0:0:0:
512,127,194079,2,0,P|507:91|494:41,1,70,8|0,0:0|0:0,0:0:0:0:
420,25,194432,6,0,P|386:16|344:25,1,70,2|0,0:0|0:0,0:0:0:0:
286,74,194785,1,8,0:0:0:0:
211,36,194961,1,0,0:0:0:0:
146,90,195138,2,0,P|155:137|162:173,1,70,2|0,0:0|0:0,0:0:0:0:
223,212,195491,2,0,P|214:259|207:295,1,70,8|0,0:0|0:0,0:0:0:0:
141,330,195844,5,2,0:0:0:0:
141,330,196020,1,2,0:0:0:0:
216,366,196197,2,0,P|276:360|371:347,1,140,8|2,0:0|0:0,0:0:0:0:
435,374,196726,1,2,0:0:0:0:
486,307,196903,2,0,P|475:264|467:230,1,70,8|0,0:0|0:0,0:0:0:0:
396,196,197256,6,0,P|407:153|415:119,1,70,2|0,0:0|0:0,0:0:0:0:
378,51,197608,2,0,P|386:85|394:118,1,70,8|0,0:0|0:0,0:0:0:0:
328,170,197961,1,2,0:0:0:0:
251,133,198138,1,0,0:0:0:0:
177,172,198314,2,0,P|131:167|97:161,1,70,8|0,0:0|0:0,0:0:0:0:
28,97,198667,6,0,P|69:129|38:212,1,140,4|8,0:1|0:0,0:0:0:0:
6,278,199197,1,0,0:0:0:0:
74,329,199373,2,0,P|119:324|151:321,1,70,2|0,0:0|0:0,0:0:0:0:
219,285,199726,1,8,0:0:0:0:
292,325,199903,1,0,0:0:0:0:
368,291,200079,6,0,P|381:257|370:219,1,70,2|0,0:0|0:0,0:0:0:0:
303,178,200432,2,0,P|295:144|308:112,1,70,8|0,0:0|0:0,0:0:0:0:
268,38,200785,2,0,P|225:43|183:49,1,70,2|0,0:0|0:0,0:0:0:0:
118,74,201138,1,8,0:0:0:0:
160,146,201314,1,0,0:0:0:0:
106,210,201491,6,0,P|71:205|36:201,1,70,2|0,0:0|0:0,0:0:0:0:
16,283,201844,2,0,P|50:286|85:291,1,70,8|2,0:0|0:0,0:0:0:0:
166,270,202197,1,2,0:0:0:0:
229,324,202373,1,12,0:0:0:0:
297,275,202550,2,0,P|331:270|370:265,1,70,8|2,0:0|0:0,0:0:0:0:
433,198,202903,5,12,0:0:0:0:
508,250,203079,1,2,0:0:0:0:
508,250,203167,1,8,0:0:0:0:
508,250,203256,6,0,P|502:281|498:305,3,35,6|8|10|2,0:0|0:0|0:3|0:0,0:0:0:0:
465,306,203608,2,0,P|471:337|475:361,3,35,6|8|10|2,0:0|0:0|0:3|0:0,0:0:0:0:
435,362,203961,2,0,P|397:357|345:352,1,70,12|0,0:0|0:0,0:0:0:0:
283,366,204314,5,4,0:1:0:0:
283,367,205726,6,0,P|236:343|170:368,1,112,2|2,1:3|0:3,0:0:0:0:
100,331,206256,2,0,L|73:336,2,28,8|8|8,0:3|0:3|0:0,0:0:0:0:
160,273,206608,1,2,0:0:0:0:
160,273,206785,2,0,P|153:241|146:203,1,56,2|2,0:0|0:0,0:0:0:0:
52,164,207138,6,0,B|94:201|94:201|151:176|218:152,1,178.500003404617,4|2,0:1|0:0,0:0:0:0:
287,181,207844,1,8,0:0:0:0:
287,181,208197,2,0,P|324:175|364:168,1,59.5000011348725,0|2,0:0|0:0,0:0:0:0:
422,205,208550,5,0,0:0:0:0:
485,151,208726,2,0,P|471:89|458:15,1,119.000002269745,8|2,0:0|0:0,0:0:0:0:
384,17,209256,2,0,P|347:21|307:24,1,59.5000011348725,8|0,0:0|0:0,0:0:0:0:
252,64,209608,2,0,P|222:61|192:58,1,59.5000011348725,2|0,0:0|0:0,0:0:0:0:
112,82,209961,5,2,0:0:0:0:
112,82,210138,2,0,P|80:128|114:185,1,119.000002269745,2|2,0:0|0:0,0:0:0:0:
187,165,210667,2,0,P|182:206|171:295,1,119.000002269745,8|2,0:0|0:0,0:0:0:0:
241,331,211197,1,0,0:0:0:0:
169,371,211373,6,0,P|128:365|86:359,2,59.5000011348725,2|0|2,0:0|0:0|0:0,0:0:0:0:
241,331,211903,1,2,0:0:0:0:
316,366,212079,2,0,P|357:360|399:354,1,59.5000011348725,8|2,0:0|0:3,0:0:0:0:
458,354,212432,2,0,P|446:318|436:290,1,59.5000011348725,2|0,0:0|0:0,0:0:0:0:
358,244,212785,6,0,P|367:174|382:60,1,178.500003404617,4|2,0:1|0:0,0:0:0:0:
308,25,213491,1,8,0:0:0:0:
308,25,213844,2,0,P|266:30|238:32,1,59.5000011348725,0|2,0:0|0:0,0:0:0:0:
181,73,214197,5,0,0:0:0:0:
98,62,214373,2,0,B|79:93|79:93|111:186,1,119.000002269745,8|2,0:0|0:0,0:0:0:0:
71,247,214903,1,8,0:0:0:0:
71,247,215256,2,0,P|67:287|63:328,1,59.5000011348725,0|2,0:0|0:0,0:0:0:0:
126,362,215608,6,0,B|153:343|153:343|249:359,1,119.000002269745,2|2,0:0|0:0,0:0:0:0:
319,377,216138,1,0,0:0:0:0:
372,313,216314,1,8,0:0:0:0:
372,313,216667,2,0,P|367:272|364:241,1,59.5000011348725,0|2,0:0|0:0,0:0:0:0:
311,193,217020,6,0,P|281:185|244:192,1,59.5000011348725,2|2,0:0|0:0,0:0:0:0:
183,234,217373,2,0,P|186:263|189:293,1,59.5000011348725,0|2,0:0|0:0,0:0:0:0:
124,169,217726,6,0,P|127:139|130:109,1,59.5000011348725,0|2,0:0|0:0,0:0:0:0:
177,40,218079,1,0,0:0:0:0:
307,127,221256,6,0,B|278:170|298:205|298:205|323:242|298:294|298:294|327:252|355:247|381:254|400:266|407:281,1,293.999991027832,2|0,0:3|0:0,0:0:0:0:
482,236,222667,5,8,0:0:0:0:
444,153,222844,1,8,0:0:0:0:
321,38,223373,5,8,0:0:0:0:
307,127,223549,1,8,0:0:0:0:
307,127,224079,6,0,P|247:123|145:114,1,140,4|8,1:3|0:0,0:0:0:0:
99,68,224608,1,0,0:0:0:0:
34,122,224785,2,0,P|38:159|43:214,1,70,2|0,0:0|0:0,0:0:0:0:
38,275,225138,2,0,P|71:262|114:268,1,70,8|0,0:0|0:0,0:0:0:0:
189,259,225491,6,0,P|179:303|171:343,1,70,2|0,0:0|0:0,0:0:0:0:
250,364,225844,2,0,P|258:329|265:295,1,70,8|0,0:0|0:0,0:0:0:0:
320,232,226197,1,2,0:0:0:0:
393,272,226373,1,0,0:0:0:0:
446,207,226549,2,0,P|481:204|512:217,1,70,8|0,0:0|0:0,0:0:0:0:
320,232,226903,6,0,P|326:179|338:67,1,140,2|8,1:3|0:0,0:0:0:0:
405,45,227432,1,0,0:0:0:0:
326,15,227608,2,0,P|287:19|244:24,1,70,2|0,0:0|0:0,0:0:0:0:
203,88,227961,2,0,P|168:84|133:80,1,70,8|0,0:0|0:0,0:0:0:0:
29,123,228314,6,0,P|16:157|26:197,1,70,2|0,1:2|0:0,0:0:0:0:
100,218,228667,2,0,P|105:252|92:284,1,70,8|0,1:2|0:0,0:0:0:0:
28,339,229020,1,2,0:0:0:0:
28,339,229108,2,0,P|80:333|158:323,1,105,8|8,0:3|0:0,0:0:0:0:
211,356,229550,1,2,0:0:0:0:
238,268,229726,6,0,P|268:244|362:296,1,140,4|8,0:1|0:0,0:0:0:0:
439,281,230256,1,0,0:0:0:0:
439,281,230432,2,0,P|443:241|449:190,1,70,2|0,0:0|0:0,0:0:0:0:
389,149,230785,1,8,0:0:0:0:
442,84,230961,1,2,0:0:0:0:
380,26,231138,6,0,B|345:13|345:13|237:44,1,140,2|8,1:2|0:0,0:0:0:0:
42,76,231844,2,0,P|87:82|125:88,1,70,2|0,0:0|0:0,0:0:0:0:
195,91,232197,2,0,P|148:99|112:103,1,70,8|0,0:0|0:0,0:0:0:0:
63,158,232550,5,2,1:2:0:0:
63,158,232726,1,2,0:0:0:0:
137,198,232903,2,0,P|129:245|114:344,1,140,8|2,0:0|1:2,0:0:0:0:
189,375,233432,1,0,0:0:0:0:
242,310,233608,2,0,P|278:302|318:314,1,70,4|0,0:1|0:0,0:0:0:0:
394,367,233961,5,10,1:3:0:0:
462,318,234138,1,10,1:3:0:0:
457,234,234314,1,10,1:3:0:0:
378,203,234491,2,0,P|348:210|327:215,2,35,2|8|8,0:0|0:0|1:2,0:0:0:0:
457,234,234844,5,0,1:2:0:0:
504,155,235020,2,0,P|496:116|487:75,1,70,4|0,0:1|0:0,0:0:0:0:
423,23,235373,6,0,P|398:67|310:64,1,140,4|8,0:1|0:0,0:0:0:0:
251,13,235903,1,0,0:0:0:0:
184,64,236079,2,0,P|142:60|106:56,1,70,2|0,0:0|0:0,0:0:0:0:
30,69,236432,2,0,P|40:112|46:154,1,70,8|0,0:0|0:0,0:0:0:0:
116,180,236785,6,0,P|109:231|94:328,1,140,2|8,0:3|0:0,0:0:0:0:
152,380,237314,1,0,0:0:0:0:
220,330,237491,2,0,P|260:336|314:343,1,70,2|0,0:0|0:0,0:0:0:0:
363,379,237844,2,0,P|397:374|432:369,1,70,8|0,0:0|0:0,0:0:0:0:
491,308,238197,5,2,1:2:0:0:
439,242,238373,1,2,0:0:0:0:
502,174,238550,2,0,P|496:133|487:88,1,70,8|0,0:0|0:0,0:0:0:0:
437,39,238903,2,0,P|372:21|319:65,1,140,2|8,1:2|0:0,0:0:0:0:
361,136,239432,1,0,0:0:0:0:
286,173,239608,6,0,P|238:165|194:160,1,70,2|0,1:2|0:0,0:0:0:0:
225,78,239961,2,0,P|190:82|155:88,1,70,8|0,1:2|0:0,0:0:0:0:
79,53,240314,1,2,1:2:0:0:
24,117,240491,1,12,0:0:0:0:
74,183,240667,1,8,0:0:0:0:
74,183,241020,6,0,P|68:224|49:325,1,140,4|8,0:1|0:0,0:0:0:0:
124,360,241549,1,0,0:0:0:0:
124,360,241726,2,0,P|160:349|206:359,1,70,2|0,0:0|0:0,0:0:0:0:
269,320,242079,2,0,P|310:327|346:333,1,70,8|0,0:0|0:0,0:0:0:0:
422,326,242432,6,0,B|446:292|446:292|420:192,1,140,2|8,1:3|0:0,0:0:0:0:
473,131,242961,1,0,0:0:0:0:
424,62,243138,2,0,P|381:68|331:73,1,70,2|0,0:3|0:0,0:0:0:0:
290,16,243491,2,0,P|257:9|218:21,1,70,8|0,0:0|0:0,0:0:0:0:
150,58,243844,6,0,P|154:97|160:153,1,70,2|0,1:3|0:0,0:0:0:0:
75,148,244197,2,0,P|85:183|95:215,1,70,8|0,0:0|0:0,0:0:0:0:
152,275,244550,2,0,P|187:261|236:269,1,70,2|0,1:3|0:0,0:0:0:0:
270,329,244903,2,0,P|304:330|336:316,1,70,8|0,0:0|0:0,0:0:0:0:
420,321,245256,5,2,0:0:0:0:
420,321,245432,1,2,0:0:0:0:
364,232,245608,2,0,P|369:197|373:162,1,70,12|0,0:0|0:0,0:0:0:0:
335,87,245961,6,0,P|301:97|271:93,2,46.6666666666667,8|8|8,0:0|0:0|0:0,0:0:0:0:
385,62,246314,2,0,P|408:63|429:71,2,46.6666666666667,10|8|8,0:3|0:0|0:0,0:0:0:0:
339,29,246667,5,4,0:1:0:0:
339,29,248079,6,0,P|394:35|460:41,2,112,2|0|0,0:3|0:0|0:0,0:0:0:0:
260,74,249138,1,0,0:0:0:0:
183,26,249491,5,0,0:0:0:0:
