osu file format v14

[General]
AudioFilename: audio.mp3
AudioLeadIn: 0
PreviewTime: 223682
Countdown: 0
SampleSet: Soft
StackLeniency: 0.4
Mode: 0
LetterboxInBreaks: 0
WidescreenStoryboard: 0

[Editor]
Bookmarks: 68638
DistanceSpacing: 1
BeatDivisor: 4
GridSize: 8
TimelineZoom: 1.8

[Metadata]
Title:Kotoba no Iranai Yakusoku
TitleUnicode:言葉のいらない約束
Artist:sana
ArtistUnicode:sana
Creator:Irohas
Version:Easy
Source:NARUTO-ナルト-疾風伝
Tags:mugiwarasekai 鎖那 honeyworks shippuden shippuuden ending gom oji 海賊王 shito cake atsyuk! ヤマコ
BeatmapID:1346542
BeatmapSetID:634179

[Difficulty]
HPDrainRate:2
CircleSize:3
OverallDifficulty:2
ApproachRate:3
SliderMultiplier:0.9
SliderTickRate:1

[Events]
//Background and Video events
0,0,"BG.jpg",0,0
//Break Periods
2,57491,60286
2,88750,92757
2,127932,130874
2,218432,221227
//Storyboard Layer 0 (Background)
//Storyboard Layer 1 (Fail)
//Storyboard Layer 2 (Pass)
//Storyboard Layer 3 (Foreground)
//Storyboard Sound Samples

[TimingPoints]
-391,352.941176470588,4,2,1,30,1,0
1020,-100,4,2,1,30,0,0
6667,-100,4,2,1,40,0,0
12314,-100,4,2,1,70,0,0
23608,-100,4,2,1,40,0,0
33491,-100,4,2,1,50,0,0
34903,-100,4,2,1,70,0,0
63138,-100,4,2,1,80,0,1
74079,-100,4,2,1,80,0,0
74256,-100,4,2,1,80,0,0
74432,-100,4,2,1,80,0,1
85726,-100,4,2,1,70,0,0
87138,-100,4,2,1,40,0,0
88550,-100,4,2,1,70,0,0
116785,-100,4,2,1,70,0,0
128079,346.820809248555,4,2,1,70,1,0
129466,359.281437125748,4,2,1,70,1,0
130903,352.941176470588,4,2,1,70,1,0
133726,-100,4,2,1,70,0,1
144314,-100,4,2,1,70,0,1
144667,-100,4,2,1,70,0,0
145020,-100,4,2,1,70,0,1
156314,-100,4,2,1,70,0,0
157726,-100,4,2,1,40,0,0
159138,-100,4,2,3,40,0,0
163373,-100,4,2,3,50,0,0
170432,-100,4,2,1,60,0,0
181726,-100,4,2,1,70,0,1
192844,-100,4,2,1,70,0,0
193020,-100,4,2,1,70,0,1
204314,-100,4,2,1,70,0,0
205726,-100,4,2,1,40,0,0
207138,-100,4,2,1,60,0,0
217020,-100,4,2,1,40,0,0
222667,-100,4,2,1,60,0,0
224079,-100,4,2,1,70,0,1
235020,-100,4,2,1,70,0,0
235373,-100,4,2,1,70,0,1
246667,-100,4,2,1,70,0,0
248079,-100,4,2,1,40,0,0

[Colours]
Combo1 : 255,217,255
Combo2 : 255,254,193
Combo3 : 201,255,185
Combo4 : 225,245,255
Combo5 : 245,175,175

[HitObjects]
44,40,1020,6,0,P|0:111|55:187,1,180,2|0,0:3|0:0,0:0:0:0:
131,152,2079,1,2,1:3:0:0:
199,210,2432,2,0,P|195:244|186:313,1,90,2|2,0:3|1:3,0:0:0:0:
261,351,3138,2,0,P|299:332|359:337,1,90,0|2,0:0|1:3,0:0:0:0:
429,365,3844,6,0,B|456:322|456:322|445:283|427:196,1,180,2|0,0:3|0:0,0:0:0:0:
485,127,4903,1,2,1:3:0:0:
421,63,5256,2,0,P|380:69|323:78,1,90,2|2,0:3|1:3,0:0:0:0:
255,123,5961,2,0,P|210:116|166:109,1,90,0|2,0:0|1:3,0:0:0:0:
83,72,6667,6,0,P|149:129|118:210,1,180,2|0,0:3|0:0,0:0:0:0:
39,243,7726,1,2,1:3:0:0:
76,325,8079,2,0,P|116:321|185:312,1,90,2|2,0:3|1:3,0:0:0:0:
222,244,8785,2,0,P|265:230|319:244,1,90,0|2,0:0|1:3,0:0:0:0:
342,321,9491,6,0,P|387:334|436:318,1,90,2|2,0:3|1:3,0:0:0:0:
497,266,10197,2,0,P|488:224|475:162,1,90,0|2,0:0|1:3,0:0:0:0:
419,109,10903,1,2,0:3:0:0:
419,109,12314,6,0,B|447:169|447:169|422:243,2,135,4|2|2,0:1|0:0|0:0,0:0:0:0:
338,67,13726,2,0,P|291:55|247:68,1,90,2|8,0:0|0:0,0:0:0:0:
171,106,14432,2,0,P|131:101|66:94,1,90,2|8,0:0|0:0,0:0:0:0:
49,179,15138,6,0,P|93:184|191:193,2,135,4|2|2,0:1|0:0|0:0,0:0:0:0:
0,255,16550,2,0,P|23:289|22:345,1,90,2|8,1:2|0:0,0:0:0:0:
107,373,17256,1,2,0:3:0:0:
188,336,17608,1,8,1:2:0:0:
273,364,17961,6,0,P|334:353|412:337,2,135,4|2|2,0:1|0:0|0:0,0:0:0:0:
188,336,19373,2,0,B|161:293|161:293|172:254|190:167,1,180,2|2,0:0|0:0,0:0:0:0:
146,87,20432,1,8,1:2:0:0:
222,39,20785,6,0,P|266:27|313:40,1,90,2|8,0:0|1:2,0:0:0:0:
372,100,21491,2,0,P|369:142|364:207,1,90,2|8,0:0|0:0,0:0:0:0:
418,262,22197,2,0,P|459:245|509:254,2,90,2|8|2,0:0|0:0|1:2,0:0:0:0:
354,325,23256,1,8,1:2:0:0:
284,267,23608,6,0,B|232:255|232:255|161:283|161:283|102:265,1,180,4|0,0:1|0:0,0:0:0:0:
32,227,24667,1,2,1:3:0:0:
68,144,25020,2,0,P|62:102|54:44,1,90,2|2,0:3|1:3,0:0:0:0:
136,15,25726,2,0,P|142:59|148:104,1,90,0|2,0:0|1:3,0:0:0:0:
160,193,26432,6,0,B|209:164|209:164|335:201,1,180,2|0,0:3|0:0,0:0:0:0:
406,154,27491,1,2,1:3:0:0:
463,223,27844,2,0,P|456:272|445:328,2,90,2|2|0,0:3|1:3|0:0,0:0:0:0:
495,138,28903,1,2,1:3:0:0:
433,73,29256,6,0,B|380:59|345:94|345:94|300:125|251:104,1,180,2|0,0:3|0:0,0:0:0:0:
184,67,30314,1,2,1:3:0:0:
100,99,30667,2,0,P|86:143|103:194,1,90,2|2,0:3|1:3,0:0:0:0:
177,225,31373,2,0,P|191:269|174:320,1,90,0|2,0:0|1:3,0:0:0:0:
102,356,32079,6,0,B|133:336|133:336|286:367,1,180,2|0,0:3|0:0,0:0:0:0:
363,373,33138,1,2,1:3:0:0:
398,290,33491,2,0,P|447:247|514:259,2,135,2|2|2,1:2|0:3|0:3,0:0:0:0:
309,274,34903,6,0,B|282:231|282:231|293:192|311:105,1,180,4|2,0:1|0:0,0:0:0:0:
281,19,35961,1,8,0:0:0:0:
225,89,36314,2,0,P|158:114|73:44,1,180,2|2,0:0|0:0,0:0:0:0:
161,25,37373,1,8,0:0:0:0:
225,89,37726,6,0,P|221:142|216:197,1,90,2|8,0:0|0:0,0:0:0:0:
132,195,38432,2,0,P|136:248|141:303,1,90,2|8,0:0|0:0,0:0:0:0:
166,370,39138,2,0,P|205:348|265:356,1,90,2|8,0:0|0:0,0:0:0:0:
335,376,39844,1,2,0:0:0:0:
421,350,40197,1,8,0:0:0:0:
505,318,40550,6,0,P|487:230|470:137,1,180,2|2,0:0|0:0,0:0:0:0:
398,88,41608,1,8,0:0:0:0:
334,151,41961,2,0,B|293:191|293:191|260:185|165:167,1,180,2|2,0:0|0:0,0:0:0:0:
95,121,43020,1,8,0:0:0:0:
38,190,43373,6,0,P|44:232|56:296,1,90,2|8,0:0|0:0,0:0:0:0:
109,348,44079,2,0,P|148:326|208:334,1,90,2|8,0:0|0:0,0:0:0:0:
273,288,44785,2,0,P|362:297|421:302,2,135,4|8|2,1:0|0:0|0:0,0:0:0:0:
188,251,46197,6,0,P|153:173|204:96,2,180,4|8|2,1:0|0:0|0:0,0:0:0:0:
243,180,47961,1,2,0:0:0:0:
312,236,48314,2,0,P|365:229|420:222,1,90,8|2,0:0|0:0,0:0:0:0:
482,263,49020,6,0,B|500:216|476:177|476:177|444:123|479:77,2,180,4|8|2,0:1|0:0|0:0,0:0:0:0:
415,323,50785,1,2,0:0:0:0:
334,283,51138,2,0,P|298:288|233:297,1,90,12|2,0:0|0:0,0:0:0:0:
185,227,51844,6,0,P|121:169|30:199,2,180,4|8|2,0:1|0:0|0:0,0:0:0:0:
244,295,53608,1,2,0:0:0:0:
169,345,53961,2,0,P|136:340|72:331,1,90,8|2,0:0|0:0,0:0:0:0:
18,266,54667,6,0,B|-8:223|-8:223|29:95,1,180,4|8,0:1|0:0,0:0:0:0:
101,45,55726,1,2,0:0:0:0:
176,94,56079,2,0,P|223:87|265:81,2,90,2|2|12,1:2|0:0|0:0,0:0:0:0:
107,152,57138,1,2,0:0:0:0:
238,344,61726,5,8,0:0:0:0:
205,166,62432,1,8,0:0:0:0:
61,274,63138,6,0,P|122:267|253:250,1,180,4|2,1:3|0:0,0:0:0:0:
319,294,64197,1,8,0:0:0:0:
395,246,64550,2,0,P|406:199|387:148,1,90,2|8,0:0|0:0,0:0:0:0:
324,103,65256,2,0,P|282:109|233:116,1,90,2|8,0:0|0:0,0:0:0:0:
159,66,65961,6,0,P|210:132|156:208,1,180,2|2,1:2|0:0,0:0:0:0:
89,254,67020,1,8,0:0:0:0:
160,308,67373,2,0,P|201:304|262:298,2,90,2|8|2,1:3|1:2|1:2,0:0:0:0:
86,360,68432,1,8,0:0:0:0:
12,308,68785,6,0,P|-2:264|14:207,1,90,4|8,0:1|0:0,0:0:0:0:
85,179,69491,2,0,P|92:135|78:92,1,90,2|8,0:0|0:0,0:0:0:0:
145,31,70197,2,0,P|206:37|342:49,1,180,2|2,1:2|0:0,0:0:0:0:
407,12,71256,1,8,0:0:0:0:
484,57,71608,6,0,B|513:106|513:106|481:224,1,180,2|2,1:2|1:2,0:0:0:0:
418,289,72667,1,4,0:1:0:0:
349,231,73020,2,0,P|302:219|255:234,1,90,2|8,1:3|0:0,0:0:0:0:
218,308,73726,2,0,P|171:320|123:303,1,90,8|12,1:2|0:0,0:0:0:0:
52,265,74432,6,0,B|74:211|74:211|46:143|46:143|66:79,1,180,4|2,1:0|0:0,0:0:0:0:
120,30,75491,1,8,0:0:0:0:
199,71,75844,2,0,P|249:66|305:60,1,90,2|8,0:3|0:0,0:0:0:0:
376,42,76550,2,0,P|370:92|366:145,1,90,2|8,0:0|0:0,0:0:0:0:
280,158,77256,6,0,P|295:247|314:349,1,180,2|2,1:2|1:2,0:0:0:0:
393,372,78314,1,8,0:0:0:0:
453,302,78667,2,0,P|490:285|545:295,2,90,2|8|2,1:3|1:2|1:3,0:0:0:0:
365,280,79726,1,12,0:0:0:0:
397,196,80079,6,0,P|390:152|382:90,1,90,4|8,0:1|0:0,0:0:0:0:
320,42,80785,2,0,P|277:32|230:48,1,90,2|8,0:0|0:0,0:0:0:0:
162,99,81491,2,0,B|191:144|191:144|152:283,1,180,2|2,1:2|0:3,0:0:0:0:
94,331,82550,1,8,0:0:0:0:
176,366,82903,6,0,P|267:357|367:345,1,180,2|2,1:3|1:2,0:0:0:0:
442,367,83961,1,8,0:0:0:0:
506,303,84314,2,0,B|518:258|518:258|501:209,1,90,2|2,1:2|0:0,0:0:0:0:
421,180,85020,2,0,B|409:135|409:135|426:86,1,90,8|2,0:0|0:0,0:0:0:0:
494,38,85726,5,4,0:1:0:0:
420,181,87138,2,0,B|335:212|334:132|248:168,1,180,2|0,0:3|0:0,0:0:0:0:
185,233,88197,1,0,0:0:0:0:
111,181,88550,1,2,0:0:0:0:
112,307,94197,6,0,P|201:315|308:323,1,180,4|2,0:1|0:0,0:0:0:0:
371,362,95256,1,8,0:0:0:0:
433,298,95608,2,0,P|428:251|421:194,1,90,2|8,0:0|0:0,0:0:0:0:
339,173,96314,2,0,P|344:126|351:69,1,90,2|8,0:0|0:0,0:0:0:0:
270,38,97020,6,0,P|252:90|139:99,1,180,2|2,0:0|0:0,0:0:0:0:
70,44,98079,1,8,0:0:0:0:
15,118,98432,2,0,P|24:170|34:223,1,90,8|8,0:0|0:0,0:0:0:0:
92,272,99138,2,0,P|128:249|191:255,1,90,2|12,0:0|0:0,0:0:0:0:
259,278,99844,6,0,P|250:330|240:383,1,90,2|8,0:0|0:0,0:0:0:0:
332,378,100550,2,0,P|340:333|347:289,1,90,2|8,0:0|0:0,0:0:0:0:
409,223,101256,2,0,P|453:223|491:246,2,90,2|8|2,0:0|0:0|0:0,0:0:0:0:
325,190,102314,1,8,0:0:0:0:
248,237,102667,6,0,P|158:224|54:207,1,180,4|8,0:1|0:0,0:0:0:0:
12,140,103726,1,8,0:0:0:0:
80,81,104079,2,0,B|121:67|121:67|217:112,1,135,2|2,0:0|3:0,0:0:0:0:
279,154,104961,1,2,3:0:0:0:
378,62,105491,6,0,P|371:151|361:261,1,180,4|2,0:1|0:0,0:0:0:0:
424,307,106550,1,8,0:0:0:0:
344,349,106903,2,0,B|303:309|303:309|270:315|175:333,1,180,2|2,0:0|0:0,0:0:0:0:
100,368,107961,1,8,0:0:0:0:
23,320,108314,6,0,P|13:276|31:225,1,90,2|8,0:0|0:0,0:0:0:0:
104,191,109020,2,0,P|116:150|103:106,1,90,2|8,0:0|0:0,0:0:0:0:
150,29,109726,2,0,P|196:34|251:39,1,90,2|8,0:0|0:0,0:0:0:0:
302,104,110432,1,2,0:0:0:0:
389,82,110785,1,8,0:0:0:0:
475,57,111138,6,0,B|502:94|502:94|480:231,1,180,2|2,0:0|0:0,0:0:0:0:
411,284,112197,1,8,0:0:0:0:
359,210,112550,2,0,P|310:191|219:270,1,180,2|2,0:0|0:0,0:0:0:0:
250,348,113608,1,8,0:0:0:0:
163,371,113961,6,0,P|123:366|63:359,1,90,2|8,0:0|0:0,0:0:0:0:
9,296,114667,2,0,P|18:253|33:193,1,90,2|8,0:0|0:0,0:0:0:0:
106,161,115373,2,0,P|98:102|86:23,2,135,2|2|2,0:0|0:0|0:3,0:0:0:0:
176,217,116785,6,0,B|229:199|229:199|293:223|293:223|354:204,2,180,4|8|2,0:1|0:0|0:0,0:0:0:0:
110,278,118550,1,2,0:0:0:0:
172,346,118903,2,0,P|224:336|280:326,1,90,8|2,0:0|0:0,0:0:0:0:
331,274,119608,6,0,P|421:282|515:289,2,180,4|8|2,0:1|0:0|0:0,0:0:0:0:
260,329,121373,1,2,0:0:0:0:
194,267,121726,2,0,P|182:216|200:169,1,90,12|2,0:0|0:0,0:0:0:0:
254,115,122432,6,0,B|304:84|349:120|349:120|344:151|364:179|391:193,2,180,4|8|2,0:1|0:0|0:0,0:3:0:0:
192,180,124197,1,2,0:0:0:0:
116,131,124550,2,0,P|75:128|18:124,1,90,8|2,0:0|0:0,0:0:0:0:
27,34,125256,6,8,P|79:38|218:50,1,180,4|8,0:1|0:0,0:0:0:0:
285,6,126314,1,2,0:0:0:0:
364,48,126667,2,0,P|387:87|384:139,2,90,2|2|12,1:2|0:0|1:2,0:0:0:0:
296,107,127726,1,2,0:3:0:0:
203,320,132314,5,8,0:0:0:0:
273,155,133020,1,8,0:0:0:0:
420,258,133726,6,0,P|329:250|228:238,1,180,4|2,1:3|0:0,0:0:0:0:
175,301,134785,1,8,0:0:0:0:
91,267,135138,2,0,P|80:220|99:169,1,90,2|8,0:0|0:0,0:0:0:0:
174,145,135844,2,0,P|185:98|166:47,1,90,2|8,0:0|0:0,0:0:0:0:
256,23,136550,6,0,P|305:27|441:37,1,180,2|2,1:2|0:0,0:0:0:0:
495,104,137608,1,8,0:0:0:0:
431,167,137961,2,0,P|441:212|455:272,2,90,2|8|2,1:3|1:2|1:2,0:0:0:0:
354,119,139020,1,8,0:0:0:0:
299,190,139373,6,0,P|253:202|204:184,1,90,4|8,1:0|0:0,0:0:0:0:
123,185,140079,2,0,P|133:230|147:290,1,90,2|12,0:0|0:0,0:0:0:0:
163,360,140785,2,0,B|212:331|212:331|338:368,1,180,2|2,1:3|0:0,0:0:0:0:
404,314,141844,1,8,0:0:0:0:
493,322,142197,6,0,P|474:234|455:136,1,180,2|2,1:3|1:2,0:0:0:0:
380,94,143256,1,4,0:1:0:0:
298,131,143608,2,0,B|261:114|261:114|166:139,2,135,4|8|12,0:1|0:0|0:0,0:0:0:0:
373,181,145020,6,0,P|367:232|361:288,1,90,4|12,0:1|0:0,0:0:0:0:
292,326,145726,2,0,P|252:307|204:312,1,90,2|8,0:0|0:0,0:0:0:0:
127,351,146432,2,0,B|90:325|45:328|45:328|71:277|53:234,1,180,2|2,0:3|0:0,0:0:0:0:
15,156,147491,1,8,0:0:0:0:
77,91,147844,6,0,P|166:100|266:111,1,180,2|2,1:2|1:2,0:0:0:0:
329,162,148903,1,8,0:0:0:0:
396,102,149256,2,0,P|405:67|390:11,2,90,2|8|2,1:3|1:2|1:2,0:0:0:0:
416,189,150314,1,12,0:0:0:0:
329,162,150667,6,0,P|262:211|310:291,1,180,4|2,1:0|0:0,0:0:0:0:
378,324,151726,1,8,0:0:0:0:
303,374,152079,2,0,P|246:365|201:357,1,90,2|8,1:2|0:0,0:0:0:0:
176,277,152785,2,0,P|131:284|87:291,1,90,2|8,1:2|0:0,0:0:0:0:
20,349,153491,6,0,B|51:306|51:306|24:177,1,180,2|2,1:2|1:2,0:0:0:0:
80,110,154550,1,8,0:0:0:0:
155,158,154903,2,0,P|202:152|302:139,2,135,2|8|8,0:3|0:0|0:0,0:0:0:0:
80,110,156314,5,4,0:1:0:0:
357,94,157726,2,0,P|306:46|201:81,1,180,2|0,0:3|0:0,0:0:0:0:
144,136,158785,1,0,0:0:0:0:
79,73,159138,6,0,P|95:162|114:255,1,180,2|2,0:3|0:0,0:0:0:0:
183,306,160197,1,2,0:3:0:0:
243,239,160550,2,0,B|281:218|281:218|373:239,2,135,2|0|2,0:0|0:0|0:3,0:0:0:0:
183,306,161961,6,0,B|134:336|134:336|6:282,1,180,2|2,0:0|0:0,0:0:0:0:
40,200,163020,1,2,0:0:0:0:
104,135,163373,2,0,P|98:92|93:39,1,90,2|2,0:0|0:0,0:0:0:0:
180,22,164079,2,0,P|186:68|190:111,1,90,2|2,0:0|0:0,0:0:0:0:
271,149,164785,6,0,P|304:104|414:123,1,180,4|2,0:1|0:0,0:0:0:0:
453,203,165844,1,2,0:0:0:0:
388,265,166197,2,0,P|300:254|201:242,1,180,2|2,0:3|0:0,0:0:0:0:
129,284,167256,1,2,0:0:0:0:
84,206,167608,6,0,P|91:152|102:65,2,135,2|0|2,0:0|0:0|0:0,0:0:0:0:
129,284,169020,2,0,P|168:244|252:257,2,135,2|0|2,0:0|0:0|0:0,0:0:0:0:
155,370,170432,6,0,P|205:366|264:360,1,90,4|2,0:1|0:0,0:0:0:0:
311,301,171138,2,0,P|359:286|408:299,1,90,2|2,0:3|0:0,0:0:0:0:
467,350,171844,2,0,B|494:307|494:307|483:268|465:181,1,180,2|2,1:3|0:3,0:0:0:0:
397,121,172903,1,2,0:0:0:0:
319,167,173256,6,0,P|229:159|135:148,1,180,2|2,0:0|1:3,0:0:0:0:
60,107,174314,1,2,0:0:0:0:
20,187,174667,2,0,P|28:220|44:285,1,90,2|2,0:0|0:0,0:0:0:0:
91,349,175373,2,0,P|130:328|186:334,1,90,2|2,0:3|0:0,0:0:0:0:
253,373,176079,6,0,P|303:366|441:348,1,180,4|2,0:1|0:3,0:0:0:0:
491,281,177138,1,2,0:0:0:0:
406,250,177491,2,0,B|377:210|377:210|389:170|418:75,1,180,2|2,0:0|0:3,0:0:0:0:
333,45,178550,1,2,0:0:0:0:
261,99,178903,6,0,P|220:93|112:74,2,135,2|2|0,0:0|0:3|0:0,0:0:0:0:
316,171,180314,2,0,P|329:213|313:266,1,90,8|2,0:0|1:2,0:0:0:0:
245,309,181020,1,8,1:2:0:0:
160,279,181373,1,8,1:2:0:0:
82,324,181726,6,0,B|58:278|58:278|71:243|89:186,2,135,4|0|8,1:3|1:0|0:0,0:0:0:0:
160,367,183138,2,0,P|208:364|271:359,1,90,2|8,1:2|0:0,0:0:0:0:
294,282,183844,2,0,P|336:265|387:274,1,90,2|8,1:2|1:2,0:0:0:0:
465,243,184550,6,0,P|458:331|454:392,2,135,0|0|8,1:2|1:0|1:2,0:0:0:0:
448,154,185961,2,0,P|406:137|355:146,1,90,2|8,1:2|1:2,0:0:0:0:
294,201,186667,1,2,0:3:0:0:
210,166,187020,1,8,0:0:0:0:
152,234,187373,6,0,P|157:272|167:336,1,90,4|8,1:0|1:2,0:0:0:0:
82,360,188079,2,0,P|75:315|69:270,1,90,2|8,0:3|1:2,0:0:0:0:
4,208,188785,2,0,P|10:163|16:118,1,90,2|8,1:3|1:2,0:0:0:0:
84,58,189491,2,0,P|122:88|171:87,1,90,2|8,0:3|1:2,0:0:0:0:
236,38,190197,6,0,P|287:34|389:26,2,135,2|0|8,1:2|1:0|1:2,0:0:0:0:
162,89,191608,2,0,P|149:131|162:180,1,90,2|12,0:3|1:2,0:0:0:0:
241,212,192314,1,12,1:2:0:0:
186,283,192667,1,12,1:2:0:0:
228,362,193020,6,0,P|287:353|419:335,1,180,8|2,0:3|0:0,0:0:0:0:
490,368,194079,1,8,0:0:0:0:
502,278,194432,2,0,P|492:233|480:182,1,90,2|8,0:0|0:0,0:0:0:0:
396,161,195138,2,0,P|406:116|418:65,1,90,2|8,0:0|0:0,0:0:0:0:
333,35,195844,6,0,P|286:23|239:38,1,90,2|8,0:0|0:0,0:0:0:0:
188,102,196550,2,0,P|141:114|93:97,1,90,2|8,0:0|0:0,0:0:0:0:
36,41,197256,2,0,B|66:85|66:85|31:209,1,180,2|2,0:3|0:0,0:0:0:0:
8,293,198314,1,8,0:0:0:0:
84,339,198667,6,0,B|132:320|132:320|196:354|196:354|258:333,1,180,4|2,0:1|0:0,0:0:0:0:
334,365,199726,1,8,0:0:0:0:
403,307,200079,2,0,P|415:261|397:209,1,90,2|8,0:0|0:0,0:0:0:0:
323,180,200785,2,0,P|312:136|324:93,1,90,2|8,0:0|0:0,0:0:0:0:
261,29,201491,6,0,P|205:37|156:45,1,90,2|8,0:0|0:0,0:0:0:0:
82,31,202197,2,0,P|92:82|99:125,1,90,2|12,0:0|0:0,0:0:0:0:
168,176,202903,2,0,P|162:237|155:327,2,135,4|2|12,0:1|0:3|0:0,0:0:0:0:
221,102,204314,5,4,0:1:0:0:
221,102,205726,2,0,P|256:56|368:76,1,180,2|2,0:3|1:2,0:0:0:0:
414,148,206785,1,2,0:3:0:0:
335,191,207138,6,0,B|311:236|311:236|328:267|376:358,2,180,4|8|2,0:1|0:0|0:0,0:0:0:0:
411,143,208903,1,2,0:0:0:0:
348,79,209256,2,0,P|304:68|260:79,1,90,8|2,0:0|0:0,0:0:0:0:
197,141,209961,6,0,P|108:126|8:110,2,180,4|8|2,0:1|0:0|0:0,0:0:0:0:
285,122,211726,1,2,0:0:0:0:
348,185,212079,2,0,P|343:223|333:289,1,90,12|2,0:0|0:0,0:0:0:0:
264,329,212785,6,0,P|222:279|109:314,2,180,4|8|2,0:1|0:0|0:0,0:0:0:0:
342,372,214550,1,2,0:0:0:0:
405,308,214903,2,0,P|398:259|391:206,1,90,8|2,0:0|0:0,0:0:0:0:
351,140,215608,6,0,B|302:123|302:123|264:133|176:159,1,180,4|8,0:1|0:0,0:0:0:0:
113,221,216667,1,2,0:0:0:0:
41,169,217020,2,0,B|29:126|29:126|47:77,2,90,2|2|2,1:2|1:2|1:2,0:0:0:0:
17,256,218079,1,2,1:3:0:0:
274,344,222667,5,8,0:0:0:0:
307,166,223373,1,8,0:0:0:0:
451,274,224079,6,0,P|390:267|259:250,1,180,4|2,1:3|0:0,0:0:0:0:
193,294,225138,1,8,0:0:0:0:
117,246,225491,2,0,P|106:199|125:148,1,90,2|8,0:0|0:0,0:0:0:0:
188,103,226197,2,0,P|230:109|279:116,1,90,2|8,0:0|0:0,0:0:0:0:
353,66,226902,6,0,P|302:132|356:208,1,180,2|2,1:2|0:0,0:0:0:0:
423,253,227961,1,8,0:0:0:0:
352,308,228314,2,0,P|311:304|250:298,2,90,2|8|2,1:3|1:2|1:2,0:0:0:0:
425,359,229373,1,8,0:0:0:0:
499,307,229726,6,0,P|513:263|497:206,1,90,4|8,0:1|0:0,0:0:0:0:
426,178,230432,2,0,P|419:134|433:91,1,90,2|8,0:0|0:0,0:0:0:0:
367,31,231138,2,0,P|306:37|170:49,1,180,2|2,1:2|0:0,0:0:0:0:
105,12,232197,1,8,0:0:0:0:
28,57,232550,6,0,B|-1:106|-1:106|31:224,1,180,2|2,1:2|1:2,0:0:0:0:
94,289,233608,1,4,0:1:0:0:
160,227,233961,2,0,P|195:232|265:241,1,90,2|2,1:2|0:3,0:0:0:0:
317,302,234667,2,0,P|361:296|406:289,1,90,2|12,1:2|1:2,0:0:0:0:
492,262,235373,6,0,B|523:209|523:209|498:138|484:90,1,180,4|2,1:0|0:0,0:0:0:0:
431,24,236432,1,8,0:0:0:0:
360,79,236785,2,0,P|312:89|267:72,1,90,2|8,0:3|0:0,0:0:0:0:
184,64,237491,2,0,P|190:114|196:167,1,90,2|8,0:0|0:0,0:0:0:0:
281,174,238197,6,0,P|266:263|247:365,1,180,2|2,1:2|1:2,0:0:0:0:
162,373,239255,1,8,0:0:0:0:
104,303,239608,2,0,P|64:288|12:296,2,90,2|8|2,1:3|1:2|1:3,0:0:0:0:
190,278,240667,1,12,0:0:0:0:
125,215,241020,6,0,P|132:171|140:109,1,90,4|8,0:1|0:0,0:0:0:0:
198,58,241726,2,0,P|245:45|291:58,1,90,2|8,0:0|0:0,0:0:0:0:
362,98,242432,2,0,B|333:143|333:143|372:282,1,180,2|2,1:2|0:3,0:0:0:0:
431,328,243491,1,8,0:0:0:0:
349,363,243844,6,0,P|258:354|158:342,1,180,2|2,1:3|1:2,0:0:0:0:
83,367,244903,1,8,0:0:0:0:
12,311,245256,2,0,P|2:267|21:217,1,90,2|12,0:0|0:1,0:0:0:0:
83,168,245961,2,0,P|133:176|190:186,1,90,8|8,0:0|0:0,0:0:0:0:
254,147,246667,5,4,0:1:0:0:
254,147,248079,2,0,B|304:245|224:226|259:332,1,180,2|0,0:3|0:0,0:0:0:0:
336,359,249138,1,0,0:0:0:0:
414,314,249491,5,2,0:3:0:0:
