osu file format v14

[General]
AudioFilename: audio.mp3
AudioLeadIn: 0
PreviewTime: 223682
Countdown: 0
SampleSet: Soft
StackLeniency: 0.3
Mode: 0
LetterboxInBreaks: 0
WidescreenStoryboard: 1

[Editor]
DistanceSpacing: 1
BeatDivisor: 4
GridSize: 32
TimelineZoom: 2.599999

[Metadata]
Title:Kotoba no Iranai Yakusoku
TitleUnicode:言葉のいらない約束
Artist:sana
ArtistUnicode:sana
Creator:Irohas
Version:Promise
Source:NARUTO-ナルト-疾風伝
Tags:mugiwarasekai 鎖那 honeyworks shippuden shippuuden ending gom oji 海賊王 shito cake atsyuk! ヤマコ
BeatmapID:1345733
BeatmapSetID:634179

[Difficulty]
HPDrainRate:7
CircleSize:4.2
OverallDifficulty:8.5
ApproachRate:9.2
SliderMultiplier:1.8
SliderTickRate:1

[Events]
//Background and Video events
0,0,"BG.jpg",0,0
//Break Periods
2,88750,93627
//Storyboard Layer 0 (Background)
//Storyboard Layer 1 (Fail)
//Storyboard Layer 2 (Pass)
//Storyboard Layer 3 (Foreground)
//Storyboard Sound Samples

[TimingPoints]
-391,352.941176470588,4,2,1,30,1,0
1020,-133.333333333333,4,2,1,30,0,0
10903,-240.12474012474,4,2,1,30,0,0
11520,-240.12474012474,4,2,1,5,0,0
11608,-122.481442205726,4,2,1,30,0,0
11873,-122.481442205726,4,2,1,5,0,0
11961,-83.3333333333333,4,2,1,40,0,0
12226,-83.3333333333333,4,2,1,5,0,0
12314,-100,4,2,1,70,0,0
18226,-100,4,2,1,5,0,0
18314,-100,4,2,1,70,0,0
23608,-133.333333333333,4,2,1,30,0,0
33491,-133.333333333333,4,2,1,50,0,0
34903,-100,4,2,1,70,0,0
40197,-100,4,2,1,70,0,0
40461,-100,4,2,1,5,0,0
40550,-100,4,2,1,70,0,0
41167,-100,4,2,1,5,0,0
41256,-100,4,2,1,70,0,0
41873,-100,4,2,1,5,0,0
41961,-100,4,2,1,70,0,0
42579,-100,4,2,1,5,0,0
42667,-100,4,2,1,70,0,0
45491,-125,4,2,1,70,0,0
45756,-125,4,2,1,5,0,0
45844,-90.9090909090909,4,2,1,70,0,0
46108,-125,4,2,1,5,0,0
46197,-142.857142857143,4,2,1,70,0,0
51844,-142.857142857143,4,2,1,70,0,0
56079,-117.647058823529,4,2,1,70,0,0
56697,-117.647058823529,4,2,1,5,0,0
56785,-117.647058823529,4,2,1,70,0,0
57491,-133.333333333333,4,2,1,30,0,0
60314,-240.12474012474,4,2,1,25,0,0
60491,-240.12474012474,4,2,1,5,0,0
61373,-166.666666666667,4,2,1,25,0,0
61726,-100,4,2,1,70,0,0
62785,-142.857142857143,4,2,1,30,0,0
63050,-142.857142857143,4,2,1,5,0,0
63138,-100,4,2,1,80,0,1
68699,-100,4,2,1,5,0,1
68787,-100,4,2,1,80,0,1
73726,-90.9090909090909,4,2,1,80,0,1
74079,-74.0740740740741,4,2,1,80,0,0
74256,-74.0740740740741,4,2,1,80,0,0
74432,-100,4,2,1,80,0,1
77167,-100,4,2,1,5,0,1
77256,-100,4,2,1,80,0,1
79726,-90.9090909090909,4,2,1,80,0,1
79991,-100,4,2,1,5,0,1
80079,-100,4,2,1,80,0,1
85726,-100,4,2,1,70,0,0
87138,-200,4,2,1,25,0,0
88196,-142.857142857143,4,2,1,25,0,0
88461,-142.857142857143,4,2,1,5,0,0
88550,-111.111111111111,4,2,1,70,0,0
94461,-100,4,2,1,5,0,0
94550,-100,4,2,1,70,0,0
95873,-100,4,2,1,5,0,0
95961,-100,4,2,1,70,0,0
98344,-100,4,2,1,5,0,0
98432,-100,4,2,1,70,0,0
99491,-90.9090909090909,4,2,1,70,0,0
99756,-90.9090909090909,4,2,1,5,0,0
99844,-100,4,2,1,70,0,0
102579,-100,4,2,1,5,0,0
102667,-100,4,2,1,70,0,0
104079,-125,4,2,1,70,0,0
105491,-100,4,2,1,70,0,0
111050,-100,4,2,1,5,0,0
111138,-100,4,2,1,70,0,0
111756,-100,4,2,1,5,0,0
111844,-100,4,2,1,70,0,0
112461,-100,4,2,1,5,0,0
112550,-100,4,2,1,70,0,0
113167,-100,4,2,1,5,0,0
113256,-100,4,2,1,70,0,0
115726,-83.3333333333333,4,2,1,70,0,0
116785,-142.857142857143,4,2,1,70,0,0
126667,-117.647058823529,4,2,1,70,0,0
127285,-117.647058823529,4,2,1,5,0,0
127373,-117.647058823529,4,2,1,70,0,0
128079,346.820809248555,4,2,1,70,1,0
129466,359.281437125748,4,2,1,70,1,0
130903,352.941176470588,4,2,1,70,1,0
133373,-142.857142857143,4,2,1,30,0,0
133638,-142.857142857143,4,2,1,5,0,0
133726,-100,4,2,1,70,0,1
138579,-100,4,2,1,5,0,1
138667,-100,4,2,1,70,0,1
139285,-100,4,2,1,5,0,1
139373,-100,4,2,1,70,0,1
143961,-74.0740740740741,4,2,1,70,0,1
144138,-100,4,2,1,70,0,1
144667,-74.0740740740741,4,2,1,70,0,0
145020,-100,4,2,1,70,0,1
147756,-100,4,2,1,5,0,1
147844,-100,4,2,1,70,0,1
150314,-90.9090909090909,4,2,1,70,0,1
150579,-90.9090909090909,4,2,1,5,0,1
150667,-100,4,2,1,70,0,1
156314,-100,4,2,1,70,0,0
157726,-200,4,2,1,25,0,0
158785,-142.857142857143,4,2,1,25,0,0
159050,-142.857142857143,4,2,1,5,0,0
159138,-142.857142857143,4,2,1,40,0,0
163373,-142.857142857143,4,2,1,50,0,0
164785,-133.333333333333,4,2,1,50,0,0
170432,-125,4,2,1,60,0,0
180314,-111.111111111111,4,2,1,60,0,0
181726,-100,4,2,1,70,0,1
190108,-100,4,2,1,5,0,1
190197,-100,4,2,1,70,0,1
192844,-100,4,2,1,70,0,0
193020,-142.857142857143,4,2,1,70,0,1
193285,-142.857142857143,4,2,1,5,0,1
193373,-100,4,2,1,70,0,1
198579,-100,4,2,1,5,0,1
198667,-100,4,2,1,70,0,1
203432,-83.3333333333333,4,2,1,70,0,1
203785,-74.0740740740741,4,2,1,70,0,1
203961,-79.9999999999998,4,2,1,70,0,1
204226,-117.647058823529,4,2,1,5,0,1
204314,-240.12474012474,4,2,1,50,0,0
204491,-240.12474012474,4,2,1,25,0,0
205550,-240.12474012474,4,2,1,15,0,0
205608,-142.857142857143,4,2,1,35,0,0
205726,-166.666666666667,4,2,1,40,0,0
206256,-100,4,2,1,40,0,0
207138,-125,4,2,1,60,0,0
217020,-117.647058823529,4,2,1,60,0,0
218432,-142.857142857143,4,2,1,35,0,0
221256,-240.12474012474,4,2,1,25,0,0
221432,-240.12474012474,4,2,1,5,0,0
222491,-240.12474012474,4,2,1,15,0,0
222667,-100,4,2,1,60,0,0
223726,-142.857142857143,4,2,1,30,0,0
223991,-142.857142857143,4,2,1,5,0,0
224079,-100,4,2,1,70,0,1
229638,-100,4,2,1,5,0,1
229726,-100,4,2,1,70,0,1
235020,-74.0740740740741,4,2,1,70,0,0
235373,-100,4,2,1,70,0,1
238108,-100,4,2,1,5,0,1
238197,-100,4,2,1,70,0,1
240667,-90.9090909090909,4,2,1,70,0,1
240932,-90.9090909090909,4,2,1,5,0,1
241020,-100,4,2,1,70,0,1
246667,-222.222222222222,4,2,1,40,0,0
246844,-222.222222222222,4,2,1,15,0,0
248079,-200,4,2,1,25,0,0

[Colours]
Combo1 : 255,217,255
Combo2 : 255,254,193
Combo3 : 201,255,185
Combo4 : 225,245,255
Combo5 : 245,175,175

[HitObjects]
29,174,1020,6,0,P|53:136|139:160,1,135.000005149842,2|2,0:3|1:3,0:0:0:0:
215,69,1550,1,2,1:3:0:0:
215,69,1726,2,0,P|220:112|227:161,1,67.5000025749208,0|2,0:0|0:3,0:0:0:0:
309,165,2079,2,0,P|305:131|301:97,1,67.5000025749208,2|2,1:3|1:3,0:0:0:0:
440,206,2432,5,2,0:3:0:0:
360,261,2608,1,0,0:0:0:0:
440,206,2785,2,0,P|453:233|447:288,1,67.5000025749208,2|2,1:3|1:3,0:0:0:0:
347,325,3138,2,0,P|361:292|353:245,1,67.5000025749208,0|0,0:0|0:3,0:0:0:0:
262,203,3491,2,0,P|277:235|270:285,1,67.5000025749208,2|2,1:3|1:3,1:3:0:0:
88,344,3844,6,0,P|140:350|250:360,1,135.000005149842,2|2,0:3|1:3,0:0:0:0:
77,263,4373,1,2,1:3:0:0:
77,263,4550,2,0,P|129:269|173:273,1,67.5000025749208,0|2,0:0|0:3,0:0:0:0:
269,210,4903,2,0,P|217:216|173:220,1,67.5000025749208,2|2,1:3|1:3,0:0:0:0:
67,163,5256,6,0,P|119:169|163:173,1,67.5000025749208,2|0,0:3|0:0,0:0:0:0:
43,80,5608,2,0,P|95:86|139:90,1,67.5000025749208,2|2,1:3|1:3,0:0:0:0:
212,13,5961,2,0,P|205:48|192:107,1,67.5000025749208,0|2,0:0|0:3,0:0:0:0:
318,133,6314,2,0,P|266:139|224:144,1,67.5000025749208,2|2,1:3|1:3,0:0:0:0:
386,205,6667,5,2,0:3:0:0:
386,205,6844,1,0,0:0:0:0:
451,48,7020,2,0,P|482:76|451:157,1,135.000005149842,2|0,1:3|0:0,0:0:0:0:
359,52,7550,1,2,0:3:0:0:
316,120,7726,1,2,1:3:0:0:
242,84,7903,1,2,1:3:0:0:
283,14,8079,5,2,0:3:0:0:
283,14,8256,1,0,0:0:0:0:
162,181,8432,2,0,P|158:132|150:32,1,135.000005149842,2|0,1:3|0:0,0:0:0:0:
316,120,8961,1,2,0:3:0:0:
254,173,9138,1,2,1:3:0:0:
322,215,9314,1,2,1:3:0:0:
254,260,9491,5,2,0:3:0:0:
254,260,9667,1,0,0:0:0:0:
386,299,9844,5,2,1:3:0:0:
386,299,10020,1,2,1:3:0:0:
254,260,10197,5,0,0:0:0:0:
378,213,10373,1,2,0:3:0:0:
236,174,10550,1,2,1:3:0:0:
365,127,10726,1,2,1:3:0:0:
201,87,10903,6,0,P|250:46|313:66,1,131.18181792186,2|0,0:3|0:0,0:0:0:0:
365,127,11608,6,0,P|316:154|261:128,1,110.220776425001,2|0,0:3|0:0,0:0:0:0:
192,81,11961,6,0,P|203:161|219:278,1,161.999995056153,2|0,0:3|0:0,0:0:0:0:
174,316,12314,6,0,P|136:324|83:297,1,90,4|0,0:1|0:0,0:0:0:0:
304,207,12667,1,8,0:0:0:0:
267,384,12844,1,0,0:0:0:0:
452,315,13020,2,0,P|399:309|350:301,1,90,8|0,0:0|0:0,0:0:0:0:
354,306,13285,1,8,0:0:0:0:
347,312,13373,1,2,0:0:0:0:
512,248,13550,1,8,0:0:0:0:
391,117,13726,6,0,P|399:168|407:221,1,90,2|0,0:0|0:0,0:0:0:0:
434,42,14079,1,8,0:0:0:0:
326,203,14256,1,0,0:0:0:0:
216,53,14432,2,0,P|224:104|232:157,1,90,8|0,0:0|0:0,0:0:0:0:
228,150,14697,1,8,0:0:0:0:
224,158,14785,1,2,0:0:0:0:
291,6,14961,1,8,0:0:0:0:
148,196,15138,6,0,P|109:200|59:169,1,90,4|0,0:1|0:0,0:0:0:0:
237,107,15491,1,8,0:0:0:0:
65,176,15667,1,2,0:3:0:0:
259,268,15844,2,0,P|209:276|161:284,1,90,8|0,0:0|0:0,0:0:0:0:
162,287,16108,1,8,0:0:0:0:
154,292,16197,1,2,0:0:0:0:
352,335,16373,1,8,0:0:0:0:
162,287,16550,5,2,1:3:0:0:
313,186,16726,1,8,0:0:0:0:
248,384,16903,1,2,1:2:0:0:
248,384,16991,1,8,0:0:0:0:
248,384,17079,1,8,1:2:0:0:
507,264,17256,5,0,0:0:0:0:
480,262,17344,1,0,0:0:0:0:
453,260,17432,1,2,0:3:0:0:
426,257,17520,1,0,0:0:0:0:
399,255,17608,5,8,1:2:0:0:
372,253,17697,1,0,0:0:0:0:
345,251,17785,1,2,0:0:0:0:
318,248,17873,1,0,0:0:0:0:
291,244,17961,6,0,P|256:188|301:133,1,135,4|0,0:1|0:0,0:0:0:0:
367,125,18314,1,8,0:0:0:0:
181,213,18491,1,0,0:0:0:0:
235,31,18667,2,0,P|243:82|251:135,1,90,8|0,0:0|0:0,0:0:0:0:
247,128,18932,1,8,0:0:0:0:
243,136,19020,1,2,0:0:0:0:
345,0,19197,1,8,0:0:0:0:
450,164,19373,6,0,P|456:119|464:70,1,90,2|0,0:0|0:0,0:0:0:0:
502,253,19726,1,8,0:0:0:0:
378,108,19902,1,0,0:0:0:0:
300,279,20079,2,0,P|262:287|209:260,1,90,8|0,0:0|0:0,0:0:0:0:
213,258,20344,1,8,0:0:0:0:
212,249,20432,1,2,0:0:0:0:
331,384,20608,1,8,0:0:0:0:
441,226,20785,6,0,P|434:270|427:315,1,90,2|0,0:0|0:0,0:0:0:0:
341,126,21138,2,0,P|347:170|354:215,1,90,8|0,0:0|0:0,0:0:0:0:
404,55,21491,1,8,0:0:0:0:
247,213,21667,1,0,0:0:0:0:
247,213,21756,1,8,0:0:0:0:
247,213,21844,1,2,0:0:0:0:
444,141,22020,1,8,0:0:0:0:
217,113,22197,5,2,0:0:0:0:
452,146,22373,1,2,0:0:0:0:
258,33,22550,5,8,0:0:0:0:
346,245,22726,1,2,0:3:0:0:
361,0,22903,1,2,1:2:0:0:
172,118,23079,6,0,P|203:114|230:110,1,45,2|8,0:0|0:0,0:0:0:0:
406,120,23256,1,2,0:0:0:0:
169,219,23432,6,0,P|200:215|227:211,1,45,2|8,0:0|0:0,0:0:0:0:
346,245,23608,6,0,P|316:211|235:248,1,135.000005149842,4|2,0:1|1:3,0:0:0:0:
152,327,24138,1,2,1:3:0:0:
152,327,24314,2,0,P|185:324|219:321,1,67.5000025749208,0|2,0:0|0:3,0:0:0:0:
110,244,24667,2,2,P|143:241|177:238,1,67.5000025749208,2|2,1:3|1:3,1:3:0:0:
55,328,25020,5,2,0:3:0:0:
1,190,25197,1,0,0:0:0:0:
1,190,25373,2,2,P|14:225|9:266,1,67.5000025749208,2|2,1:3|1:3,1:3:0:0:
86,147,25726,2,2,P|81:113|90:81,1,67.5000025749208,0|2,0:0|0:3,1:3:0:0:
157,209,26079,2,2,P|160:241|151:273,1,67.5000025749208,2|2,1:3|1:3,1:3:0:0:
178,133,26432,6,0,P|230:139|340:149,1,135.000005149842,2|2,0:3|1:3,0:0:0:0:
416,223,26961,1,2,1:3:0:0:
416,223,27138,2,0,P|364:229|320:233,1,67.5000025749208,0|2,0:0|0:3,0:0:0:0:
225,283,27491,2,2,P|277:289|321:293,1,67.5000025749208,2|2,1:3|1:3,1:3:0:0:
181,156,27844,6,0,P|176:197|168:249,1,67.5000025749208,2|0,0:3|0:0,0:0:0:0:
122,345,28197,2,2,P|117:311|113:278,1,67.5000025749208,2|2,1:3|1:3,1:3:0:0:
68,157,28550,2,0,P|63:198|55:250,1,67.5000025749208,0|0,0:3|0:0,0:0:0:0:
9,346,28903,2,2,P|4:312|0:279,1,67.5000025749208,2|2,1:3|1:3,1:3:0:0:
122,345,29256,5,2,0:3:0:0:
191,303,29432,1,0,0:0:0:0:
257,348,29608,1,2,1:3:0:0:
257,348,29961,5,0,0:0:0:0:
336,330,30138,1,2,0:3:0:0:
415,313,30314,2,0,P|422:281|409:241,1,67.5000025749208,2|2,1:3|0:3,0:0:0:0:
319,81,30667,5,2,0:3:0:0:
369,144,30844,1,0,0:0:0:0:
315,204,31020,1,2,1:3:0:0:
315,204,31373,5,0,0:0:0:0:
236,181,31550,1,2,0:3:0:0:
159,155,31726,2,0,P|152:187|165:227,1,67.5000025749208,2|2,1:3|0:3,0:0:0:0:
76,379,32079,6,0,P|105:323|60:256,1,135.000005149842,2|2,0:3|1:3,0:0:0:0:
200,368,32608,1,2,1:3:0:0:
200,368,32961,1,2,0:3:0:0:
263,317,33138,1,2,1:3:0:0:
335,352,33314,1,2,1:3:0:0:
457,288,33491,5,4,1:0:0:0:
335,352,33667,1,0,1:2:0:0:
457,288,33844,5,0,0:0:0:0:
335,352,34020,1,0,1:2:0:0:
385,213,34197,1,2,0:3:0:0:
463,364,34373,5,2,0:3:0:0:
272,292,34550,1,0,1:2:0:0:
466,244,34726,1,0,0:0:0:0:
260,190,34903,6,0,P|249:149|268:96,1,90,4|0,0:1|0:0,0:0:0:0:
458,67,35256,2,0,P|453:120|447:180,1,90,8|0,0:0|0:0,0:0:0:0:
377,319,35608,1,2,0:0:0:0:
320,137,35785,1,2,0:0:0:0:
485,243,35961,2,0,P|434:238|375:229,1,90,8|0,0:0|0:0,0:0:0:0:
208,376,36314,5,2,0:0:0:0:
377,319,36491,1,2,0:0:0:0:
248,174,36667,2,0,L|266:285,1,90,8|0,0:0|0:0,0:3:0:0:
309,92,37020,1,0,0:0:0:0:
253,271,37197,5,8,0:0:0:0:
197,78,37373,1,8,0:0:0:0:
255,282,37550,1,0,0:0:0:0:
51,222,37726,6,0,P|100:215|159:206,1,90,2|0,0:0|0:0,0:0:0:0:
0,110,38079,1,8,0:0:0:0:
147,228,38256,2,0,P|161:188|147:133,1,90,2|2,0:3|0:0,0:0:0:0:
89,81,38608,1,0,0:0:0:0:
237,190,38785,1,8,0:0:0:0:
58,263,38961,1,2,0:3:0:0:
251,198,39138,5,2,0:0:0:0:
22,164,39314,1,2,0:3:0:0:
202,31,39491,2,0,L|184:142,1,90,8|0,0:0|0:0,0:3:0:0:
300,270,39844,1,2,0:0:0:0:
353,103,40020,5,8,0:0:0:0:
229,240,40197,2,0,P|271:196|361:222,1,135,8|0,0:0|0:0,0:0:0:0:
368,301,40550,6,0,P|337:338|295:345,1,90,2|2,0:0|0:0,0:0:0:0:
109,252,40903,2,0,B|143:219|143:219|260:247,1,135,8|0,0:0|0:0,0:0:0:0:
300,270,41256,1,2,0:0:0:0:
201,147,41432,1,2,0:0:0:0:
105,342,41608,2,0,P|94:283|80:189,1,135,8|0,0:0|0:0,0:0:0:0:
118,134,41961,6,0,P|168:126|207:155,1,90,2|0,0:0|0:0,0:0:0:0:
391,158,42314,2,0,P|349:143|279:206,1,135,8|0,0:0|0:0,0:0:0:0:
278,270,42667,1,0,0:0:0:0:
201,116,42844,5,8,0:0:0:0:
145,287,43020,1,8,0:0:0:0:
208,124,43197,1,0,0:0:0:0:
29,211,43373,5,2,0:0:0:0:
29,211,43550,1,0,0:0:0:0:
120,59,43726,2,0,L|104:181,1,90,8|0,0:0|0:0,0:0:0:0:
44,14,44079,1,2,0:0:0:0:
113,168,44256,1,0,0:0:0:0:
303,41,44432,2,0,P|263:20|220:29,1,90,8|0,0:0|0:0,0:0:0:0:
357,116,44785,5,4,1:0:0:0:
165,156,44961,1,8,1:2:0:0:
365,222,45138,1,2,1:2:0:0:
177,266,45314,1,2,1:2:0:0:
177,266,45403,1,8,1:2:0:0:
177,266,45491,6,0,B|208:243|208:243|277:266,1,108,8|0,1:2|0:0,0:0:0:0:
365,222,45844,6,0,P|308:229|207:238,1,148.50000453186,2|0,1:3|0:0,0:0:0:0:
128,200,46197,6,0,P|101:145|134:90,1,125.999996154785,4|2,0:1|0:3,0:3:0:0:
206,50,46726,1,2,0:3:0:0:
269,200,46903,1,8,0:0:0:0:
269,200,47256,2,0,P|272:163|275:112,1,62.9999980773926,2|2,0:0|0:3,0:0:0:0:
347,259,47608,1,2,0:0:0:0:
178,323,47785,6,0,B|211:302|211:302|311:328,1,125.999996154785,8|2,0:0|0:0,0:0:0:0:
167,334,48314,2,0,P|216:345|256:352,1,62.9999980773926,8|2,0:0|0:3,0:0:0:0:
95,384,48667,1,2,0:0:0:0:
30,226,48844,1,8,0:0:0:0:
30,226,48932,1,8,0:0:0:0:
30,226,49020,6,0,B|7:243|7:243|25:347,1,125.999996154785,4|2,0:1|0:0,0:0:0:0:
95,384,49550,1,0,0:0:0:0:
147,199,49726,1,8,0:0:0:0:
147,199,50079,2,0,P|152:237|158:274,1,62.9999980773926,2|2,0:0|0:0,0:0:0:0:
247,124,50432,5,2,0:0:0:0:
171,93,50608,1,2,0:3:0:0:
249,213,50785,5,2,0:0:0:0:
319,172,50961,1,2,0:3:0:0:
147,199,51138,5,12,0:0:0:0:
97,264,51314,1,2,0:3:0:0:
126,340,51491,1,2,0:3:0:0:
206,355,51667,1,2,0:3:0:0:
263,249,51844,6,0,P|310:219|368:251,1,125.999996154785,4|2,0:1|1:3,0:0:0:0:
434,328,52373,1,0,0:0:0:0:
477,187,52550,1,8,0:0:0:0:
297,246,52814,5,2,0:0:0:0:
304,257,52903,2,0,L|387:247,1,62.9999980773926,8|2,0:0|0:0,0:0:0:0:
240,178,53256,1,0,0:0:0:0:
200,362,53432,6,0,P|193:309|182:228,1,125.999996154785,2|2,0:0|0:0,0:0:0:0:
51,349,53961,1,8,0:0:0:0:
51,349,54314,2,0,P|87:345|134:339,1,62.9999980773926,2|0,0:0|0:0,0:0:0:0:
1,276,54667,6,0,P|37:272|141:261,1,125.999996154785,4|2,0:1|0:0,0:0:0:0:
208,203,55197,1,0,0:0:0:0:
32,119,55373,1,8,0:0:0:0:
32,119,55726,2,0,P|68:115|115:109,1,62.9999980773926,2|8,0:0|0:0,0:0:0:0:
105,118,55991,1,8,0:0:0:0:
116,128,56079,5,2,0:0:0:0:
264,32,56256,1,2,1:3:0:0:
212,192,56432,1,2,1:2:0:0:
162,28,56608,1,0,0:0:0:0:
298,123,56785,5,8,1:2:0:0:
115,113,56961,1,6,1:2:0:0:
298,123,57138,1,4,1:2:0:0:
298,123,57491,6,0,P|328:176|276:237,1,135.000005149842,2|2,0:3|0:3,0:0:0:0:
164,286,58020,1,2,0:3:0:0:
164,286,58197,2,0,P|208:292|247:296,1,67.5000025749208
357,336,58550,2,0,P|313:342|274:346,1,67.5000025749208,2|0,0:3|0:0,0:0:0:0:
431,211,58903,5,2,0:3:0:0:
431,211,59079,2,0,P|427:256|423:305,1,67.5000025749208,2|0,0:3|0:0,0:0:0:0:
343,178,59432,1,0,0:0:0:0:
451,131,59608,1,2,0:3:0:0:
355,92,59785,1,0,0:0:0:0:
355,92,59961,2,0,P|345:55|362:17,1,67.5000025749208,2|2,0:3|0:3,0:0:0:0:
398,239,60314,6,0,B|339:283|283:235|283:235|226:178|159:230,1,262.363635843721,2|0,0:3|0:0,0:0:0:0:
219,286,61726,5,8,0:0:0:0:
153,43,61903,1,8,0:0:0:0:
337,0,62432,5,8,0:0:0:0:
316,245,62608,1,8,0:0:0:0:
476,151,62785,6,0,B|439:135|439:135|378:165,1,94.499997116089,2|0,0:3|0:0,0:0:0:0:
316,245,63138,6,0,P|372:204|314:127,1,180,4|8,1:3|0:0,0:0:0:0:
145,211,63667,1,0,0:0:0:0:
186,17,63844,2,0,P|197:75|205:116,1,90,2|0,0:0|0:0,0:0:0:0:
50,203,64197,1,8,0:0:0:0:
199,113,64373,1,0,0:0:0:0:
50,203,64550,6,0,P|87:211|150:223,1,90,2|0,0:0|0:0,0:0:0:0:
282,272,64903,2,0,P|240:279|186:288,1,90,8|0,0:0|0:0,0:0:0:0:
356,186,65256,1,2,0:0:0:0:
193,286,65432,1,0,0:0:0:0:
343,351,65608,1,8,0:0:0:0:
237,160,65785,1,0,0:0:0:0:
105,369,65961,6,0,P|87:330|101:272,1,90,2|0,1:2|0:0,0:0:0:0:
199,129,66314,2,0,P|217:168|203:226,1,90,8|0,0:0|0:0,0:0:0:0:
113,61,66667,1,2,0:0:0:0:
113,61,66844,1,0,0:0:0:0:
204,219,67020,1,8,0:0:0:0:
226,15,67197,1,0,0:0:0:0:
59,189,67373,5,2,1:2:0:0:
296,118,67550,1,2,0:0:0:0:
51,192,67726,5,8,1:2:0:0:
293,257,67903,1,0,0:0:0:0:
293,257,67991,1,8,0:0:0:0:
293,257,68079,1,2,1:2:0:0:
84,351,68256,1,2,0:0:0:0:
183,158,68432,6,0,P|176:226|168:293,1,135,8|0,1:2|0:0,0:0:0:0:
84,351,68785,6,0,B|114:323|114:323|252:349,1,180,4|8,0:1|0:0,0:0:0:0:
408,317,69314,1,0,0:0:0:0:
336,145,69491,2,0,P|330:200|323:258,1,90,2|0,0:0|0:0,0:0:0:0:
283,61,69844,1,8,0:0:0:0:
423,161,70020,1,0,0:0:0:0:
225,283,70197,6,0,P|207:244|221:186,1,90,2|0,1:2|0:0,0:0:0:0:
408,317,70550,2,0,P|359:326|291:338,1,90,8|0,0:0|0:0,0:0:0:0:
136,263,70903,5,2,0:0:0:0:
313,334,71079,1,0,0:0:0:0:
240,167,71256,5,8,0:0:0:0:
169,368,71432,1,0,0:0:0:0:
59,175,71608,5,2,1:2:0:0:
258,257,71785,1,2,0:0:0:0:
18,333,71961,2,0,P|5:290|18:246,1,90,8|0,0:0|0:0,0:0:0:0:
151,113,72314,5,2,1:2:0:0:
91,297,72491,1,2,0:0:0:0:
151,113,72667,2,0,P|157:159|164:213,1,90,4|0,0:1|0:0,0:0:0:0:
85,45,73020,1,2,1:2:0:0:
233,173,73197,5,8,0:0:0:0:
269,199,73285,1,8,0:0:0:0:
313,192,73373,1,8,1:2:0:0:
344,160,73461,1,8,0:3:0:0:
349,115,73550,1,8,1:3:0:0:
320,80,73638,1,8,0:0:0:0:
270,83,73726,6,0,P|280:141|292:216,1,99.0000030212403,10|2,1:3|0:3,0:0:0:0:
182,237,73991,1,2,0:0:0:0:
182,237,74079,6,0,P|212:236|240:246,1,60.7500002317429,4|0,0:1|0:0,0:0:0:0:
387,267,74256,2,0,P|356:266|328:276,1,60.7500002317429,4|0,0:1|0:0,0:0:0:0:
172,311,74432,6,0,B|211:306|254:341|254:341|295:300|342:307,1,180,4|8,1:0|0:0,0:0:0:0:
512,368,74961,1,0,0:0:0:0:
455,175,75138,2,0,P|450:219|445:264,1,90,2|0,0:0|0:0,0:0:0:0:
504,102,75491,1,8,0:0:0:0:
351,228,75667,1,0,0:0:0:0:
363,47,75844,6,0,P|369:92|375:137,1,90,2|0,0:0|0:0,0:0:0:0:
269,246,76197,2,0,P|304:223|362:234,1,90,8|0,0:0|0:0,0:0:0:0:
150,127,76550,2,0,P|169:167|210:183,1,90,2|0,0:0|0:0,0:0:0:0:
2,266,76903,2,0,P|26:231|125:248,1,135,8|0,0:0|0:0,0:0:0:0:
191,295,77256,5,2,1:3:0:0:
150,127,77432,1,2,0:0:0:0:
330,226,77608,2,0,P|285:220|238:211,1,90,8|0,0:0|0:0,0:0:0:0:
390,153,77961,1,2,1:2:0:0:
233,217,78138,1,0,0:0:0:0:
406,321,78314,2,0,P|423:280|410:229,1,90,8|0,0:0|0:0,0:0:0:0:
291,363,78667,5,2,1:2:0:0:
309,141,78844,1,2,0:3:0:0:
279,363,79020,5,8,1:2:0:0:
319,139,79197,1,2,0:3:0:0:
155,337,79373,5,8,1:2:0:0:
403,264,79550,1,8,0:0:0:0:
146,228,79726,6,0,B|179:196|179:196|309:230,1,148.50000453186,12|0,0:0|0:0,0:0:0:0:
371,203,80079,6,0,P|383:158|361:109,1,90,4|0,0:1|0:0,0:0:0:0:
204,68,80432,2,0,P|264:59|320:49,1,90,8|0,0:0|0:0,0:0:0:0:
93,5,80785,1,2,0:0:0:0:
155,168,80961,1,0,0:0:0:0:
6,85,81138,2,0,P|4:126|0:188,1,90,8|0,0:0|0:0,0:0:0:0:
138,242,81491,6,0,L|48:258,1,90,2|0,1:2|0:0,0:0:0:0:
220,309,81844,2,0,L|129:325,1,90,8|0,0:0|0:0,0:0:0:0:
357,258,82197,5,2,0:3:0:0:
267,383,82373,1,0,0:0:0:0:
262,220,82550,5,8,0:0:0:0:
363,370,82726,1,0,0:0:0:0:
457,212,82903,6,0,P|470:248|442:314,1,90,2|0,1:2|0:0,0:0:0:0:
353,117,83256,2,0,P|362:173|369:215,1,90,8|0,0:0|0:0,0:0:0:0:
429,53,83608,1,2,1:2:0:0:
367,205,83785,1,0,0:0:0:0:
287,50,83961,2,0,P|247:42|197:61,1,90,8|0,0:0|0:0,0:0:0:0:
49,192,84314,5,2,1:2:0:0:
99,8,84491,2,0,P|107:62|114:115,1,90,10|2,0:3|0:0,0:0:0:0:
186,228,84844,1,0,0:0:0:0:
186,228,84932,1,8,0:0:0:0:
186,228,85020,2,0,P|192:183|198:138,1,90,8|0,0:0|0:0,0:0:0:0:
27,291,85373,5,8,0:3:0:0:
97,353,85550,1,2,0:0:0:0:
176,313,85726,5,4,0:1:0:0:
176,313,87138,6,0,P|217:316|285:321,2,90,2|0|0,0:3|0:0|0:0,0:0:0:0:
114,187,88197,2,0,P|93:226|116:279,1,94.499997116089,2|0,3:0|0:0,0:0:0:0:
176,313,88550,5,2,0:0:0:0:
56,67,94197,6,0,P|98:32|162:50,1,121.499996292114,4|0,0:1|0:0,0:0:0:0:
205,110,94550,1,12,0:0:0:0:
205,110,94903,5,2,0:0:0:0:
61,155,95079,1,2,0:0:0:0:
210,216,95256,2,0,P|164:223|105:231,1,90,12|2,0:0|0:0,0:0:0:0:
11,264,95520,1,2,0:0:0:0:
0,269,95608,6,0,P|77:275|169:282,1,135,2|0,0:0|0:0,0:0:0:0:
210,216,95961,1,12,0:0:0:0:
210,216,96314,5,0,0:0:0:0:
276,350,96491,1,0,0:0:0:0:
376,207,96667,2,0,P|371:258|363:315,1,90,12|2,0:0|0:0,0:0:0:0:
284,130,97020,5,2,0:0:0:0:
284,130,97197,1,2,0:0:0:0:
229,302,97373,2,0,P|191:310|138:283,1,90,12|2,0:0|0:0,0:0:0:0:
327,237,97726,1,2,0:0:0:0:
297,384,97903,1,2,0:0:0:0:
133,228,98079,2,0,B|110:259|110:259|151:376,1,135,12|2,0:0|0:0,0:0:0:0:
229,302,98432,5,12,0:0:0:0:
126,171,98608,6,0,P|125:193|124:216,1,45,2|8,0:0|0:0,0:0:0:0:
141,349,98785,1,12,0:0:0:0:
213,142,98961,6,0,P|211:169|209:201,1,45,2|8,0:0|0:0,0:0:0:0:
316,309,99138,1,8,0:3:0:0:
318,282,99226,1,2,0:0:0:0:
321,255,99314,1,8,0:3:0:0:
324,228,99402,1,2,0:0:0:0:
327,198,99491,6,0,P|288:158|201:212,1,148.50000453186,12|0,0:0|0:0,0:0:0:0:
213,265,99844,5,2,0:0:0:0:
145,100,100020,1,2,0:0:0:0:
327,198,100197,2,0,P|333:150|339:95,1,90,8|2,0:0|0:0,0:0:0:0:
388,277,100550,5,2,0:0:0:0:
221,179,100726,1,2,0:0:0:0:
410,38,100903,2,0,L|421:129,1,90,8|2,0:0|0:0,0:0:0:0:
266,25,101256,5,2,0:0:0:0:
318,188,101432,1,2,0:0:0:0:
133,140,101608,2,0,P|173:134|227:124,1,90,8|2,0:0|0:0,0:0:0:0:
54,70,101961,5,2,0:0:0:0:
226,136,102138,1,2,0:0:0:0:
18,208,102314,2,0,P|74:218|169:234,1,135,8|2,0:0|0:0,0:0:0:0:
213,279,102667,5,4,0:1:0:0:
116,311,102844,1,0,0:0:0:0:
303,384,103020,5,8,0:0:0:0:
197,364,103197,1,2,0:0:0:0:
310,210,103373,5,10,0:3:0:0:
191,372,103550,1,0,0:0:0:0:
207,165,103726,5,8,0:0:0:0:
359,302,103903,1,0,0:0:0:0:
131,286,104079,5,2,0:0:0:0:
294,224,104256,1,0,0:0:0:0:
294,224,104344,1,8,0:0:0:0:
294,224,104432,1,8,0:0:0:0:
113,139,104608,5,2,0:3:0:0:
234,343,104961,5,2,0:3:0:0:
387,130,105314,5,2,0:0:0:0:
387,130,105403,1,2,0:0:0:0:
387,130,105491,6,0,P|383:185|378:237,1,90,4|2,0:1|0:0,0:0:0:0:
196,141,105844,2,0,P|227:121|295:132,1,90,8|2,0:0|0:0,0:0:0:0:
94,257,106197,1,2,0:0:0:0:
252,202,106373,1,2,0:0:0:0:
98,78,106550,2,0,P|111:143|120:185,1,90,8|0,0:0|0:0,0:0:0:0:
245,308,106903,5,2,0:0:0:0:
94,257,107079,1,2,0:0:0:0:
245,308,107256,2,0,P|185:316|136:322,1,90,8|0,0:0|0:0,0:0:0:0:
352,226,107608,1,2,0:0:0:0:
331,384,107785,1,2,0:0:0:0:
506,321,107961,2,0,P|461:315|416:309,1,90,8|0,0:0|0:0,0:0:0:0:
343,149,108314,6,0,P|348:198|355:247,1,90,2|0,0:0|0:0,0:0:0:0:
383,73,108667,1,8,0:0:0:0:
270,224,108844,1,2,0:0:0:0:
175,65,109020,2,0,P|162:105|178:157,1,90,2|0,0:0|0:0,0:0:0:0:
247,10,109373,1,8,0:0:0:0:
176,164,109550,1,2,0:0:0:0:
117,3,109726,5,2,0:0:0:0:
272,109,109903,1,2,0:0:0:0:
52,155,110079,2,0,P|40:192|56:245,1,90,8|0,0:0|0:0,0:0:0:0:
180,80,110432,5,2,0:0:0:0:
153,277,110608,1,2,0:0:0:0:
345,212,110785,2,0,B|308:190|308:190|205:226,1,135,8|0,0:0|0:0,0:0:0:0:
153,277,111138,6,0,P|132:230|144:185,1,90,2|0,0:0|0:0,0:0:0:0:
357,77,111491,2,0,P|352:132|341:245,1,135,8|0,0:0|0:0,0:0:0:0:
350,289,111844,1,2,0:0:0:0:
266,161,112020,1,2,0:0:0:0:
211,344,112197,2,0,P|207:297|196:193,1,135,8|2,0:0|0:0,0:0:0:0:
266,161,112550,6,0,P|293:200|287:248,1,90,2|0,0:0|0:0,0:0:0:0:
86,127,112903,2,0,P|135:84|197:102,1,135,8|0,0:0|0:0,0:0:0:0:
266,161,113256,1,0,0:0:0:0:
71,224,113432,5,2,0:0:0:0:
253,267,113608,1,8,0:0:0:0:
71,224,113785,1,2,0:0:0:0:
202,374,113961,5,2,0:0:0:0:
202,374,114138,1,2,0:0:0:0:
21,330,114314,2,0,P|74:322|134:313,1,90,8|2,0:0|0:0,0:0:0:0:
226,201,114667,1,2,0:0:0:0:
313,342,114844,1,2,0:0:0:0:
402,188,115020,2,0,P|395:237|385:295,1,90,8|2,0:0|0:0,0:0:0:0:
198,379,115373,5,4,0:1:0:0:
388,276,115550,1,8,0:3:0:0:
384,272,115638,1,8,0:3:0:0:
381,267,115726,6,8,P|351:259|299:277,1,71.9999978027344
245,315,115961,1,2,0:0:0:0:
179,196,116079,6,0,B|167:225|167:225|181:278,2,71.9999978027344,12|2|2,0:0|0:0|0:0,0:0:0:0:
253,160,116432,5,12,1:2:0:0:
202,110,116550,1,2,1:2:0:0:
133,117,116667,1,2,0:0:0:0:
80,181,116785,6,0,L|117:326,1,125.999996154785,4|2,0:1|0:0,0:0:0:0:
40,339,117314,1,2,0:0:0:0:
179,196,117491,1,8,0:0:0:0:
179,196,117844,2,0,P|185:237|190:279,1,62.9999980773926,2|2,0:0|0:0,0:0:0:0:
184,267,118108,1,2,0:0:0:0:
179,275,118197,5,2,0:0:0:0:
364,327,118373,2,0,B|337:307|337:307|234:334,1,125.999996154785,8|2,0:0|0:0,0:0:0:0:
369,338,118903,2,0,P|320:349|280:356,1,62.9999980773926,10|2,0:0|0:0,0:0:0:0:
435,225,119256,1,2,0:0:0:0:
435,225,119609,6,0,B|458:253|458:253|440:346,1,125.999996154785,4|2,0:1|0:0,0:0:0:0:
353,320,120138,1,2,0:0:0:0:
288,172,120314,1,8,0:0:0:0:
288,172,120667,2,0,P|283:210|277:247,1,62.9999980773926,2|2,0:0|0:0,0:0:0:0:
178,118,121020,5,2,0:0:0:0:
259,87,121196,1,2,0:3:0:0:
203,201,121373,5,2,0:0:0:0:
178,118,121549,1,2,0:3:0:0:
288,172,121726,5,12,0:0:0:0:
208,209,121902,1,2,0:3:0:0:
172,128,122079,1,2,0:3:0:0:
252,91,122255,1,2,0:3:0:0:
293,182,122432,6,0,P|348:205|409:162,1,125.999996154785,4|2,0:1|1:3,0:0:0:0:
367,106,122961,1,0,0:0:0:0:
488,194,123138,1,8,0:0:0:0:
484,19,123402,5,2,0:0:0:0:
475,28,123491,2,0,P|470:72|464:115,1,62.9999980773926,8|2,0:0|0:0,0:0:0:0:
424,264,123844,1,2,0:0:0:0:
319,119,124020,6,0,P|327:181|335:243,1,125.999996154785,2|2,0:0|0:0,0:0:0:0:
171,342,124550,1,8,0:0:0:0:
171,342,124903,2,0,P|207:338|254:332,1,62.9999980773926,2|0,0:0|0:0,0:0:0:0:
317,316,125167,1,2,0:0:0:0:
322,322,125256,6,0,P|274:318|182:310,1,125.999996154785,4|2,0:1|0:0,0:0:0:0:
98,366,125785,1,0,0:0:0:0:
158,188,125961,1,8,0:0:0:0:
158,188,126314,2,0,P|161:230|164:268,1,62.9999980773926,2|2,0:0|0:0,0:0:0:0:
158,259,126579,1,2,0:0:0:0:
154,269,126667,5,2,0:0:0:0:
105,111,126844,1,2,1:2:0:0:
240,226,127020,1,0,1:2:0:0:
69,205,127197,1,0,0:0:0:0:
210,97,127373,5,8,1:2:0:0:
69,205,127550,1,6,0:0:0:0:
210,97,127726,1,2,1:2:0:0:
210,97,128079,5,2,1:3:0:0:
419,263,129466,1,0,1:0:0:0:
118,321,130903,1,2,1:3:0:0:
118,321,132314,5,8,0:0:0:0:
86,79,132491,1,8,0:0:0:0:
319,117,133020,5,8,0:0:0:0:
285,357,133197,1,8,0:0:0:0:
449,263,133373,6,0,P|416:241|360:251,1,94.499997116089,2|0,0:3|0:0,0:0:0:0:
309,366,133726,6,0,P|374:343|341:252,1,180,4|8,1:3|0:0,0:0:0:0:
157,324,134256,1,0,0:0:0:0:
208,134,134433,2,0,P|219:192|227:233,1,90,2|0,0:0|0:0,0:0:0:0:
233,45,134785,1,8,0:0:0:0:
135,211,134961,1,0,0:0:0:0:
35,39,135138,6,0,P|23:77|42:131,1,90,2|0,0:0|0:0,0:0:0:0:
223,193,135491,2,0,L|115:214,1,90,8|0,0:0|0:0,0:0:0:0:
297,264,135844,5,2,1:2:0:0:
134,210,136020,1,0,0:0:0:0:
196,377,136197,1,8,0:0:0:0:
266,181,136373,1,0,0:0:0:0:
388,355,136550,6,0,P|405:314|396:270,1,90,2|0,1:2|0:0,0:0:0:0:
236,177,136903,2,0,P|244:229|252:277,1,90,8|0,0:0|0:0,0:0:0:0:
307,112,137256,1,2,0:0:0:0:
307,112,137432,1,0,0:0:0:0:
241,275,137608,1,8,0:0:0:0:
171,98,137785,1,2,0:0:0:0:
101,314,137961,5,2,1:2:0:0:
347,224,138138,1,2,0:0:0:0:
89,171,138314,5,8,1:2:0:0:
352,230,138491,1,0,0:0:0:0:
188,31,138667,5,2,1:2:0:0:
167,54,138755,1,8,0:3:0:0:
158,84,138843,1,2,0:0:0:0:
162,115,138931,1,2,0:0:0:0:
179,141,139020,6,0,P|251:132|333:121,1,135,8|0,1:2|0:0,0:0:0:0:
396,35,139373,6,0,P|335:67|382:152,1,180,4|8,1:0|0:0,0:0:0:0:
401,23,139903,1,0,0:0:0:0:
192,124,140079,2,0,P|258:132|301:138,1,90,2|0,0:0|0:0,0:0:0:0:
138,47,140432,1,8,0:0:0:0:
281,135,140608,1,0,0:0:0:0:
87,217,140785,6,0,P|69:178|83:120,1,90,2|0,1:2|0:0,0:0:0:0:
202,298,141138,2,0,P|207:253|214:181,1,90,8|0,0:0|0:0,0:0:0:0:
145,374,141491,1,2,0:0:0:0:
198,198,141667,1,0,0:0:0:0:
272,361,141844,1,8,0:0:0:0:
102,268,142020,1,0,0:0:0:0:
314,207,142197,5,2,1:2:0:0:
85,273,142373,1,2,0:0:0:0:
206,103,142550,2,0,P|209:147|214:192,1,90,8|0,0:0|0:0,0:0:0:0:
121,36,142903,5,2,1:2:0:0:
212,207,143079,1,2,0:0:0:0:
322,38,143256,2,0,P|337:73|316:140,1,90,4|0,0:1|0:0,0:0:0:0:
222,4,143608,1,2,1:2:0:0:
36,145,143785,5,8,0:0:0:0:
36,145,143873,1,8,0:0:0:0:
36,145,143961,2,0,P|70:149|103:153,1,60.7500002317429,8|2,1:3|0:0,0:0:0:0:
283,58,144138,5,8,0:0:0:0:
267,14,144226,1,8,0:0:0:0:
222,4,144314,1,8,1:3:0:0:
185,27,144402,1,8,0:3:0:0:
174,70,144490,1,8,1:2:0:0:
198,107,144578,1,8,0:0:0:0:
237,122,144667,6,0,P|271:112|306:114,1,60.7500002317429,4|2,1:0|0:0,0:0:0:0:
152,202,144844,2,0,P|125:193|83:194,1,60.7500002317429,4|2,1:0|0:0,0:0:0:0:
259,229,145020,6,0,B|300:212|342:244|342:244|375:196|426:198,1,180,4|8,1:0|0:0,0:0:0:0:
282,308,145550,1,0,0:0:0:0:
465,346,145726,2,0,P|414:354|357:362,1,90,2|0,0:0|0:0,0:0:0:0:
479,206,146079,1,8,0:0:0:0:
383,365,146256,1,0,0:0:0:0:
268,202,146432,6,0,P|275:252|282:304,1,90,2|0,1:2|0:0,0:0:0:0:
378,102,146785,2,0,P|371:152|364:204,1,90,8|0,0:0|0:0,0:0:0:0:
173,139,147138,2,0,P|206:119|266:127,1,90,2|0,0:0|0:0,0:0:0:0:
26,239,147491,2,0,P|83:244|182:251,1,135,8|0,0:0|0:0,0:0:0:0:
240,301,147844,5,2,1:2:0:0:
165,129,148020,1,2,0:0:0:0:
240,301,148197,2,0,P|243:254|249:192,1,90,8|0,0:0|0:0,0:0:0:0:
307,379,148550,1,2,1:2:0:0:
246,211,148726,1,2,0:0:0:0:
307,379,148903,2,0,P|351:380|388:356,1,90,8|0,0:0|0:0,0:0:0:0:
455,119,149256,5,2,1:2:0:0:
331,309,149432,1,2,0:3:0:0:
341,87,149608,5,8,1:2:0:0:
459,292,149785,1,2,0:3:0:0:
225,221,149961,5,2,1:2:0:0:
473,164,150138,1,8,0:0:0:0:
217,101,150314,6,0,B|250:69|250:69|380:103,1,148.50000453186,12|0,0:0|0:0,0:0:0:0:
425,62,150667,6,0,P|380:69|336:75,1,90,4|0,1:0|0:0,0:0:0:0:
184,141,151020,2,0,P|229:148|273:154,1,90,8|0,0:0|0:0,0:0:0:0:
92,62,151373,1,2,0:0:0:0:
144,236,151550,1,0,0:0:0:0:
5,135,151726,2,0,P|3:176|-1:238,1,90,8|0,0:0|0:0,0:0:0:0:
146,279,152079,6,0,P|101:286|56:295,1,90,2|0,1:2|0:0,0:0:0:0:
231,350,152432,2,0,P|186:357|142:363,1,90,8|0,0:0|0:0,0:0:0:0:
292,274,152785,5,2,0:3:0:0:
141,363,152961,1,2,0:0:0:0:
224,214,153138,1,8,0:0:0:0:
321,371,153314,1,0,0:0:0:0:
416,210,153491,6,0,P|427:251|408:308,1,90,2|0,1:2|0:0,0:0:0:0:
315,103,153844,2,0,P|324:159|331:201,1,90,8|0,0:0|0:0,0:0:0:0:
392,28,154197,1,2,1:2:0:0:
330,203,154374,1,2,0:0:0:0:
238,43,154550,2,0,P|198:35|148:54,1,90,8|0,0:0|0:0,0:0:0:0:
10,207,154903,5,2,1:2:0:0:
56,39,155080,2,0,P|64:93|71:146,1,90,10|2,0:3|0:0,0:0:0:0:
156,257,155433,1,0,0:0:0:0:
156,257,155521,1,8,0:0:0:0:
156,257,155609,2,0,P|162:212|168:167,1,90,8|2,0:0|0:0,0:0:0:0:
342,28,155962,5,8,0:3:0:0:
383,103,156139,1,2,0:0:0:0:
328,172,156315,5,4,0:1:0:0:
127,220,157726,6,0,P|131:255|139:326,2,90,2|0|0,0:3|0:0|0:0,0:0:0:0:
232,64,158785,2,0,P|188:48|140:69,1,94.499997116089,2|0,3:0|0:0,0:0:0:0:
73,115,159138,5,2,0:0:0:0:
145,64,159491,1,2,0:0:0:0:
228,94,159844,5,2,0:0:0:0:
228,94,160020,1,2,0:3:0:0:
257,177,160197,1,2,0:0:0:0:
196,241,160550,5,2,0:0:0:0:
108,227,160903,5,2,0:0:0:0:
108,227,161079,1,2,0:3:0:0:
129,141,161256,1,2,0:0:0:0:
215,154,161608,1,2,0:0:0:0:
258,230,161961,5,2,0:0:0:0:
211,305,162314,1,2,0:0:0:0:
275,365,162667,1,2,0:0:0:0:
354,326,163020,5,2,0:0:0:0:
354,326,163197,1,2,0:3:0:0:
340,245,163373,5,2,0:0:0:0:
426,228,163726,1,2,0:0:0:0:
412,140,164079,1,2,0:0:0:0:
324,153,164432,5,2,0:0:0:0:
324,153,164608,1,2,0:3:0:0:
284,67,164785,5,4,0:1:0:0:
203,117,165138,1,2,0:0:0:0:
123,66,165491,1,2,0:0:0:0:
40,111,165844,1,2,0:3:0:0:
112,171,166197,5,2,0:3:0:0:
68,255,166550,1,2,0:0:0:0:
113,337,166903,1,2,0:3:0:0:
181,272,167256,5,2,0:3:0:0:
267,284,167432,1,2,0:3:0:0:
353,298,167608,5,2,0:3:0:0:
353,298,167961,1,2,0:0:0:0:
353,298,168314,1,2,0:0:0:0:
353,298,168667,5,2,0:3:0:0:
369,211,168844,1,2,0:3:0:0:
379,124,169020,5,2,0:0:0:0:
379,124,169373,1,2,0:0:0:0:
379,124,169726,1,2,0:3:0:0:
379,124,170079,5,2,0:3:0:0:
304,76,170256,1,2,0:3:0:0:
214,104,170432,5,4,0:1:0:0:
214,104,170608,1,2,0:0:0:0:
74,170,170785,2,0,P|120:176|164:181,1,72,2|0,0:0|0:0,0:0:0:0:
27,246,171138,2,0,P|73:252|117:257,1,72,2|0,0:3|0:0,0:0:0:0:
212,295,171491,1,2,0:0:0:0:
108,252,171667,1,2,0:0:0:0:
220,289,171844,6,0,P|237:254|228:209,1,72,2|2,0:0|0:0,0:0:0:0:
281,101,172197,2,0,P|278:136|295:168,1,72,2|0,0:0|0:0,0:0:0:0:
437,199,172550,2,0,P|393:209|350:216,1,72,2|0,0:3|0:0,0:0:0:0:
512,267,172903,2,0,P|468:277|425:284,1,72,2|0,0:0|0:0,0:0:0:0:
316,363,173256,5,2,0:0:0:0:
316,363,173432,1,2,0:0:0:0:
280,219,173608,2,0,P|275:261|269:308,1,72,2|0,0:0|0:0,0:0:0:0:
210,147,173961,2,0,P|205:189|199:236,1,72,2|0,0:3|0:0,0:0:0:0:
129,87,174314,1,2,0:0:0:0:
232,57,174491,1,2,0:0:0:0:
121,93,174667,6,0,P|125:57|129:21,1,72,2|0,0:3|0:0,0:0:0:0:
37,135,175020,1,2,0:0:0:0:
91,202,175197,1,0,0:0:0:0:
39,270,175373,5,2,0:3:0:0:
39,270,175550,1,2,0:0:0:0:
127,351,175726,5,2,0:0:0:0:
39,270,175903,1,2,0:0:0:0:
127,351,176079,6,0,P|80:358|39:363,1,72,4|0,0:1|0:0,0:0:0:0:
183,208,176432,2,0,P|178:254|173:304,1,72,2|0,0:0|0:0,0:0:0:0:
301,354,176785,2,0,P|265:349|229:343,1,72,2|0,0:3|0:0,0:0:0:0:
380,265,177138,2,0,P|344:270|308:275,1,72,2|0,0:0|0:0,0:0:0:0:
451,343,177491,5,2,0:0:0:0:
451,343,177667,1,2,0:0:0:0:
500,206,177844,2,0,P|505:245|511:303,1,72,2|0,0:0|0:0,0:0:0:0:
408,130,178197,2,0,P|397:174|410:212,1,72,2|0,0:3|0:0,0:0:0:0:
500,40,178550,2,0,P|495:79|489:137,1,72,2|0,0:0|0:0,0:0:0:0:
363,4,178903,5,2,0:0:0:0:
408,130,179079,1,2,0:0:0:0:
269,63,179256,2,0,P|273:104|280:160,1,72,2|0,0:0|0:0,0:0:0:0:
69,58,179608,2,0,P|108:16|194:47,1,144,2|2,0:3|0:0,0:0:0:0:
193,41,180138,1,0,0:0:0:0:
27,134,180314,5,8,0:0:0:0:
193,41,180491,1,2,0:0:0:0:
148,216,180667,5,2,1:3:0:0:
68,18,180844,1,2,0:0:0:0:
248,138,181020,5,8,1:2:0:0:
33,214,181197,1,8,0:3:0:0:
275,252,181373,1,8,1:2:0:0:
52,334,181550,1,8,0:0:0:0:
275,252,181726,6,0,P|240:234|180:247,1,90,4|0,1:3|0:0,0:0:0:0:
337,381,182079,1,8,0:0:0:0:
420,206,182256,2,0,P|413:260|406:313,1,90,2|2,1:3|0:0,0:0:0:0:
355,141,182608,1,0,0:0:0:0:
512,230,182785,1,8,1:2:0:0:
465,52,182961,1,0,0:0:0:0:
465,52,183138,6,0,P|472:106|479:159,1,90,2|0,1:2|0:0,0:0:0:0:
306,210,183491,2,0,P|362:215|421:221,1,90,8|0,0:0|0:0,0:0:0:0:
176,152,183844,5,2,1:2:0:0:
235,303,184020,1,0,0:0:0:0:
178,142,184197,5,8,1:2:0:0:
232,310,184373,1,0,0:0:0:0:
60,195,184550,6,0,P|57:250|53:312,1,90,2|0,1:2|0:0,0:0:0:0:
0,116,184903,1,8,0:0:0:0:
147,260,185079,2,0,P|186:264|236:233,1,90,0|2,1:0|0:0,0:0:0:0:
273,47,185432,1,0,0:0:0:0:
176,189,185608,2,0,P|171:146|165:92,1,90,8|0,1:2|0:0,0:0:0:0:
358,183,185961,6,0,P|324:162|276:165,1,90,2|0,1:2|0:0,0:0:0:0:
440,247,186314,1,8,1:2:0:0:
262,174,186491,1,2,1:3:0:0:
454,129,186667,5,2,1:2:0:0:
293,287,186844,1,2,0:0:0:0:
340,71,187020,1,8,0:0:0:0:
293,287,187197,1,2,0:0:0:0:
191,65,187373,5,4,1:0:0:0:
394,178,187550,1,2,0:3:0:0:
164,277,187726,1,8,1:2:0:0:
394,178,187903,1,2,1:3:0:0:
196,68,188079,5,2,0:3:0:0:
254,120,188197,2,0,P|249:162|243:200,1,60,0|2,1:2|0:3,0:0:0:0:
164,277,188432,2,0,P|169:235|173:202,1,60,8|2,1:2|1:3,0:0:0:0:
310,288,188667,5,0,1:2:0:0:
271,356,188785,2,0,P|238:361|188:368,1,60,2|0,1:3|1:2,0:0:0:0:
4,270,189020,1,2,1:3:0:0:
28,202,189137,1,8,1:2:0:0:
97,184,189255,1,2,1:3:0:0:
161,216,189372,1,2,0:3:0:0:
182,285,189491,6,0,P|181:322|178:366,1,60,2|2,1:3|1:3,0:0:0:0:
318,271,189726,5,2,0:3:0:0:
262,218,189844,2,0,P|258:188|246:62,1,135,8|0,1:2|0:0,0:0:0:0:
318,11,190197,6,0,P|365:6|407:32,1,90,2|0,1:2|0:0,0:0:0:0:
247,83,190550,1,8,0:0:0:0:
440,150,190726,2,0,P|388:158|342:164,1,90,2|2,1:3|0:0,0:0:0:0:
186,226,191079,1,0,0:0:0:0:
350,162,191256,5,8,1:2:0:0:
178,236,191432,1,2,0:0:0:0:
357,154,191608,5,2,1:2:0:0:
233,343,191785,1,12,0:0:0:0:
137,84,191961,5,8,0:0:0:0:
293,219,192138,1,2,0:0:0:0:
68,311,192314,5,12,1:2:0:0:
293,219,192491,1,12,1:2:0:0:
60,177,192667,1,12,1:2:0:0:
283,92,192844,1,12,1:2:0:0:
34,21,193020,6,0,P|16:48|27:116,1,94.499997116089,10|0,0:3|0:0,0:0:0:0:
182,60,193373,6,0,P|134:66|75:72,1,90,8|0,0:0|0:0,0:0:0:0:
287,155,193726,2,0,P|242:150|197:144,1,90
358,75,194079,1,8,0:0:0:0:
197,145,194256,1,0,0:0:0:0:
331,246,194432,5,2,0:0:0:0:
266,46,194608,1,2,0:0:0:0:
440,171,194785,2,0,P|448:116|456:59,1,90,8|0,0:0|0:0,0:0:0:0:
243,226,195138,2,0,P|292:236|345:249,1,90
512,285,195491,2,0,P|463:295|410:308,1,90,8|2,0:0|0:0,0:0:0:0:
257,384,195844,5,2,0:0:0:0:
257,384,196020,1,2,0:0:0:0:
306,178,196197,5,8,1:2:0:0:
142,301,196373,1,0,0:0:0:0:
368,347,196550,1,2,0:0:0:0:
368,347,196726,1,2,0:0:0:0:
183,161,196903,5,8,1:2:0:0:
116,384,197079,1,0,0:0:0:0:
301,278,197256,5,2,1:2:0:0:
47,233,197432,1,2,0:0:0:0:
308,277,197608,5,8,1:2:0:0:
45,226,197785,1,2,0:0:0:0:
300,151,197961,5,2,1:3:0:0:
114,306,198138,1,0,0:3:0:0:
189,68,198314,6,0,P|198:132|210:214,1,135,8|0,1:2|0:0,0:0:0:0:
290,282,198667,6,0,P|312:227|217:239,1,180,4|8,0:1|0:0,0:0:0:0:
289,294,199197,1,0,0:0:0:0:
362,93,199373,2,0,P|371:148|380:199,1,90,2|0,0:0|0:0,0:0:0:0:
303,22,199726,1,8,0:0:0:0:
458,99,199903,1,0,0:0:0:0:
269,246,200079,6,0,P|251:207|265:149,1,90,2|0,0:0|0:0,0:0:0:0:
453,263,200432,2,0,P|404:272|336:284,1,90,8|0,0:0|0:0,0:0:0:0:
184,310,200785,2,0,P|233:319|301:331,1,90,2|0,0:3|0:0,0:0:0:0:
111,365,201138,1,8,0:0:0:0:
279,322,201314,1,2,0:0:0:0:
107,249,201491,5,2,0:3:0:0:
284,317,201667,1,2,0:0:0:0:
199,144,201844,2,0,P|205:196|213:253,1,90,8|2,0:0|0:0,0:0:0:0:
270,73,202197,1,2,0:0:0:0:
213,245,202373,5,12,0:0:0:0:
274,61,202550,1,12,0:0:0:0:
107,152,202726,1,2,0:3:0:0:
326,219,202903,5,4,0:1:0:0:
100,331,203079,5,2,0:0:0:0:
135,328,203167,1,8,0:0:0:0:
171,326,203255,1,10,0:3:0:0:
207,324,203343,1,2,0:0:0:0:
245,323,203432,2,0,P|288:259|239:198,1,161.999995056153,4|8,0:1|0:0,0:0:0:0:
109,240,203785,6,0,P|149:245|193:250,1,60.7500002317429,10|2,0:3|0:0,0:0:0:0:
393,202,203961,2,0,B|353:165|353:165|296:178|230:193,1,168.75,4|0,0:1|0:0,0:0:0:0:
169,247,204314,6,0,P|231:207|113:168,1,262.363635843721,4|0,0:1|0:0,0:0:0:0:
113,169,205608,6,0,P|109:188|108:203,1,20.9999993591309,0|2,0:0|0:3,0:0:0:0:
162,242,205726,1,2,1:3:0:0:
228,52,206079,1,2,1:3:0:0:
355,182,206256,6,0,P|352:204|349:227,1,45,2|8,0:0|0:3,0:0:0:0:
277,288,206432,1,10,1:3:0:0:
442,231,206608,1,2,0:0:0:0:
268,185,206785,1,2,1:2:0:0:
442,231,206961,1,2,0:0:0:0:
341,39,207138,6,0,P|346:102|355:187,1,144,4|2,0:1|0:3,0:3:0:0:
228,256,207667,1,0,0:0:0:0:
228,256,207844,2,0,P|268:262|306:268,1,72,8|0,0:0|0:0,0:0:0:0:
172,331,208197,1,2,0:0:0:0:
128,159,208373,2,0,P|126:176|125:194,1,36,4|4,0:0|0:0,0:0:0:0:
77,330,208550,6,0,P|75:312|70:246,1,72,2|2,0:0|0:3,0:0:0:0:
7,142,208903,2,0,P|4:177|0:213,1,72,2|2,0:0|0:3,0:0:0:0:
75,64,209256,1,8,0:0:0:0:
220,90,209432,6,4,P|187:94|163:96,1,36
129,159,209608,1,2,0:3:0:0:
285,196,209785,2,4,P|251:202|221:208,1,36
99,243,209961,6,0,P|138:248|192:254,1,72,2|8,0:0|0:0,0:0:0:0:
338,276,210314,1,0,0:0:0:0:
232,318,210491,1,0,0:0:0:0:
344,269,210667,2,0,P|342:317|340:356,1,72,8|2,0:0|0:0,0:0:0:0:
285,196,211020,1,0,0:0:0:0:
428,313,211197,6,0,P|459:306|487:300,1,36,4|0,0:0|0:0,0:0:0:0:
344,269,211373,5,0,0:0:0:0:
382,191,211550,1,2,0:3:0:0:
461,223,211726,1,2,0:0:0:0:
506,149,211903,1,2,0:3:0:0:
491,64,212079,5,14,0:0:0:0:
406,46,212256,1,10,1:3:0:0:
350,112,212432,1,2,1:3:0:0:
375,194,212608,1,2,0:3:0:0:
285,223,212785,6,0,P|213:216|136:207,1,144,4|2,0:1|0:3,0:0:0:0:
71,243,213314,1,2,0:0:0:0:
232,308,213491,1,8,0:0:0:0:
232,308,213844,2,0,P|182:315|142:319,1,72,6|2,0:0|0:0,0:0:0:0:
306,369,214197,1,2,0:0:0:0:
367,200,214373,6,0,B|398:221|398:221|384:333,1,144,8|2,0:0|0:3,0:0:0:0:
274,188,214903,1,8,0:0:0:0:
274,188,215256,2,0,P|280:230|286:266,1,72,2|4,0:0|0:0,0:0:0:0:
62,192,215608,6,0,P|97:153|181:174,1,144,2|2,0:0|0:0,0:0:0:0:
193,249,216138,1,0,0:0:0:0:
15,308,216314,1,8,0:0:0:0:
15,308,216667,2,0,P|55:314|105:319,1,72,6|2,0:0|0:3,0:0:0:0:
222,377,217020,5,2,0:0:0:0:
173,237,217197,1,2,1:2:0:0:
298,318,217373,1,2,1:2:0:0:
142,334,217550,1,2,0:0:0:0:
270,233,217726,5,2,1:2:0:0:
142,334,217903,1,2,0:0:0:0:
270,233,218079,1,2,1:2:0:0:
270,233,218432,6,0,P|322:203|384:239,1,125.999996154785,2|2,1:3|0:3,0:0:0:0:
512,309,218961,2,0,P|460:333|398:289,1,125.999996154785,2|0,1:3|0:0,0:0:0:0:
497,106,219491,6,0,P|495:157|488:260,1,125.999996154785,2|0,1:3|0:0,0:0:0:0:
408,98,220020,2,0,P|375:68|297:87,1,125.999996154785,2|0,0:3|0:0,0:0:0:0:
182,169,220550,2,0,L|255:175,1,62.9999980773926,0|0,1:2|0:0,0:0:0:0:
149,88,220903,2,0,L|222:94,1,62.9999980773926,0|0,1:2|0:0,0:0:0:0:
0,238,221256,6,0,B|59:194|115:242|115:242|172:299|239:247,1,262.363635843721,2|0,0:3|0:0,0:0:0:0:
183,179,222667,5,8,0:0:0:0:
21,364,222844,1,8,0:0:0:0:
94,115,223373,5,8,0:0:0:0:
158,377,223550,1,8,0:0:0:0:
338,235,223726,6,0,B|294:221|294:221|240:249,1,94.499997116089,2|0,0:3|0:0,0:0:0:0:
153,249,224079,6,0,P|226:258|354:272,1,180,4|8,1:3|0:0,0:0:0:0:
487,351,224608,1,0,0:0:0:0:
457,170,224785,2,0,P|449:225|440:279,1,90,2|0,0:0|0:0,0:0:0:0:
397,103,225138,1,8,0:0:0:0:
449,267,225314,1,0,0:0:0:0:
268,223,225491,6,0,P|324:214|381:205,1,90,2|0,0:0|0:0,0:0:0:0:
166,120,225844,2,0,P|210:127|254:134,1,90,8|0,0:0|0:0,0:0:0:0:
82,184,226197,1,2,0:0:0:0:
251,124,226373,1,2,0:0:0:0:
103,54,226550,1,8,0:0:0:0:
214,235,226726,1,0,0:0:0:0:
342,42,226903,6,0,P|337:86|331:131,1,90,2|0,1:2|0:0,0:0:0:0:
483,188,227256,2,0,P|432:194|369:201,1,90,8|0,0:0|0:0,0:0:0:0:
242,311,227608,1,2,0:0:0:0:
242,311,227785,1,2,0:0:0:0:
183,121,227961,1,8,0:0:0:0:
337,228,228138,1,0,0:0:0:0:
131,316,228314,5,2,1:2:0:0:
348,226,228491,1,2,0:0:0:0:
101,199,228667,5,8,1:2:0:0:
226,378,228844,1,0,0:0:0:0:
10,295,229020,6,0,P|52:290|87:285,1,45,2|8,1:2|0:3,0:0:0:0:
254,247,229197,1,2,0:0:0:0:
101,199,229373,6,0,P|168:207|235:213,1,135,8|0,1:2|0:0,0:0:0:0:
326,162,229726,6,0,P|277:148|272:256,1,180,4|8,0:1|0:0,0:0:0:0:
338,157,230256,1,0,0:0:0:0:
213,30,230432,2,0,P|219:79|229:149,1,90,2|0,0:0|0:0,0:0:0:0:
352,294,230785,1,8,0:0:0:0:
164,228,230961,1,0,0:0:0:0:
349,67,231138,6,0,P|344:116|333:186,1,90,2|0,1:2|0:0,0:0:0:0:
164,228,231491,2,0,P|187:214|257:219,1,90,8|0,0:0|0:0,0:0:0:0:
380,350,231844,1,0,0:0:0:0:
220,292,232020,1,0,0:0:0:0:
369,200,232197,1,8,0:0:0:0:
259,384,232373,1,2,0:0:0:0:
182,158,232550,5,2,1:2:0:0:
259,384,232726,1,0,0:0:0:0:
73,299,232903,1,8,0:0:0:0:
298,245,233079,1,2,0:0:0:0:
78,176,233256,5,0,1:2:0:0:
298,245,233432,1,2,0:0:0:0:
186,68,233608,1,4,0:1:0:0:
161,302,233785,1,2,0:0:0:0:
369,103,233961,5,2,1:2:0:0:
194,170,234138,1,2,1:3:0:0:
399,224,234314,1,8,1:2:0:0:
174,290,234491,6,0,P|211:294|249:299,1,45,2|8,0:3|0:0,0:0:0:0:
413,352,234667,1,8,1:2:0:0:
448,325,234755,1,2,0:0:0:0:
459,281,234844,1,2,1:2:0:0:
441,240,234931,1,2,0:0:0:0:
399,224,235021,6,0,P|357:232|315:244,1,60.7500002317429,4|0,0:1|0:0,0:0:0:0:
171,251,235197,2,0,P|208:256|253:274,1,60.7500002317429,4|2,0:1|0:0,0:0:0:0:
366,325,235373,6,0,B|319:310|277:337|277:337|245:297|192:303,1,180,4|8,1:0|0:0,0:0:0:0:
61,330,235903,1,0,0:0:0:0:
111,145,236079,2,0,P|117:200|124:258,1,90,2|2,0:0|0:0,0:0:0:0:
60,40,236432,1,8,0:0:0:0:
204,139,236608,1,2,0:0:0:0:
11,269,236785,6,0,P|-7:230|7:172,1,90,2|0,1:2|0:0,0:0:0:0:
197,270,237138,2,0,P|148:279|80:291,1,90,8|0,0:0|0:0,0:0:0:0:
283,338,237491,2,0,P|238:346|166:359,1,90,0|2,0:0|0:0,0:0:0:0:
352,161,237844,2,0,B|381:183|381:183|366:280,1,135,8|0,0:0|0:0,0:0:0:0:
283,338,238197,5,2,1:2:0:0:
235,166,238373,1,2,0:0:0:0:
94,288,238550,2,0,P|138:280|182:272,1,90,8|0,0:0|0:0,0:0:0:0:
19,214,238903,1,2,1:2:0:0:
193,274,239079,1,2,0:0:0:0:
101,104,239256,2,0,P|107:157|115:218,1,90,8|0,0:0|0:0,0:0:0:0:
270,29,239608,5,2,1:2:0:0:
248,236,239785,1,2,0:0:0:0:
280,25,239961,5,8,1:2:0:0:
237,238,240138,1,2,0:0:0:0:
155,20,240314,5,8,1:2:0:0:
373,111,240491,1,8,0:0:0:0:
144,161,240667,6,0,B|177:129|177:129|307:163,1,148.50000453186,12|0,0:0|0:0,0:0:0:0:
373,111,241020,6,0,P|326:118|272:127,1,90,4|2,0:1|0:0,0:0:0:0:
438,270,241373,2,0,P|451:228|435:177,1,90,8|2,0:0|0:0,0:0:0:0:
320,320,241726,1,2,0:0:0:0:
276,154,241903,1,2,0:0:0:0:
320,320,242079,2,0,P|326:268|333:209,1,90,8|2,0:0|0:0,0:0:0:0:
149,334,242432,6,0,P|196:343|254:352,1,90,0|0,1:2|0:0,0:0:0:0:
76,197,242785,2,0,P|62:229|73:283,1,90,8|0,0:0|0:0,0:0:0:0:
147,117,243138,1,2,0:3:0:0:
73,282,243314,1,0,0:0:0:0:
25,107,243491,1,8,0:0:0:0:
166,258,243667,1,2,0:0:0:0:
264,91,243844,6,0,P|259:135|253:180,1,90,2|2,1:2|0:0,0:0:0:0:
431,186,244197,2,0,P|398:166|340:172,1,90,8|0,0:0|0:0,0:0:0:0:
482,266,244550,1,2,1:2:0:0:
306,311,244726,1,2,0:0:0:0:
431,186,244903,1,8,0:0:0:0:
411,368,245079,1,0,0:0:0:0:
288,220,245256,5,2,1:2:0:0:
411,368,245432,1,2,0:0:0:0:
210,332,245608,5,12,1:2:0:0:
406,277,245785,1,2,0:0:0:0:
275,161,245961,6,0,P|280:190|289:226,1,60,8|2,0:0|0:0,0:0:0:0:
321,291,246197,1,0,0:0:0:0:
210,332,246314,6,0,P|216:302|222:273,1,60,8|2,0:0|0:0,0:0:0:0:
157,225,246550,1,0,0:0:0:0:
191,130,246667,6,0,B|166:179|209:224|209:224|261:285|210:332|210:332|218:303|224:263,1,283.499991348267,4|0,0:1|0:0,0:0:0:0:
222,275,248079,5,2,0:3:0:0:
294,238,248432,1,0,0:0:0:0:
280,158,248785,1,0,0:0:0:0:
200,140,249138,1,0,0:0:0:0:
162,211,249491,5,0,0:0:0:0:
