osu file format v14

[General]
AudioFilename: audio.mp3
AudioLeadIn: 0
PreviewTime: 16742
Countdown: 0
SampleSet: Soft
StackLeniency: 0.7
Mode: 0
LetterboxInBreaks: 0
WidescreenStoryboard: 1

[Editor]
Bookmarks: 53877
DistanceSpacing: 2.3
BeatDivisor: 4
GridSize: 4
TimelineZoom: 2.899998

[Metadata]
Title:Kokuhaku Yokou Renshuu
TitleUnicode:告白予行練習
Artist:sana
ArtistUnicode:鎖那
Creator:riptiondesc
Version:Hard
Source:
Tags:honeyworks confession rehearsal 好きなひと。 suki na hito. shito
BeatmapID:1378510
BeatmapSetID:650224

[Difficulty]
HPDrainRate:4.5
CircleSize:4
OverallDifficulty:6
ApproachRate:8
SliderMultiplier:1.2
SliderTickRate:1

[Events]
//Background and Video events
0,0,"whitespace.png",0,0
//Break Periods
//Storyboard Layer 0 (Background)
//Storyboard Layer 1 (Fail)
//Storyboard Layer 2 (Pass)
//Storyboard Layer 3 (Foreground)
//Storyboard Sound Samples

[TimingPoints]
1337,324.324324324324,4,2,0,100,1,0
6526,-142.857142857143,4,2,0,100,0,0
15607,-142.857142857143,4,3,0,100,0,0
16742,-200,4,2,0,100,0,0
17228,-90.9090909090909,4,2,0,100,0,0
24850,-76.9230769230769,4,2,0,100,0,0
27282,-125,4,2,0,100,0,0
31174,-125,4,2,0,100,0,0
32472,-125,4,2,0,100,0,0
37336,-166.666666666667,4,2,0,100,0,0
37661,-100,4,2,0,100,0,0
42850,-90.9090909090909,4,2,0,100,0,0
43336,-100,4,2,0,100,0,0
44147,-90.9090909090909,4,2,0,100,0,0
44634,-100,4,2,0,100,0,0
45445,-83.3333333333333,4,2,0,100,0,0
45931,-125,4,2,0,100,0,0
46418,-100,4,2,0,100,0,0
46742,-100,4,3,0,100,0,0
47715,-166.666666666667,4,2,0,100,0,0
48039,-125,4,2,0,100,0,0
49336,-105.263157894737,4,2,0,100,0,0
49661,-125,4,3,0,100,0,0
50634,-105.263157894737,4,2,0,100,0,0
50958,-125,4,2,0,100,0,0
51931,-100,4,3,0,100,0,0
53228,-200,4,2,0,100,0,0
55823,-133.333333333333,4,2,0,100,0,0
58093,-71.4285714285714,4,2,0,100,0,0
58418,-83.3333333333333,4,2,0,100,0,1
62958,-83.3333333333333,4,3,0,100,0,1
63607,-83.3333333333333,4,2,0,100,0,1
67499,-100,4,2,0,100,0,1
68796,-166.666666666667,4,2,0,100,0,0
69120,-133.333333333333,4,2,0,100,0,0

[Colours]
Combo1 : 0,169,251
Combo2 : 255,151,47
Combo3 : 0,193,97

[HitObjects]
21,244,1337,6,0,L|-1:186,1,60
89,188,1661,1,0,0:0:0:0:
89,188,1823,2,0,L|156:302,1,120
212,226,2309,1,0,0:0:0:0:
212,226,2471,2,0,L|165:100,1,120
260,112,2958,2,0,L|318:211,1,60
358,105,3282,2,0,L|432:192,1,60
451,77,3607,2,0,L|536:145,1,60
498,115,3931,6,0,L|509:175,1,60
420,155,4255,1,0,0:0:0:0:
420,155,4417,2,0,L|418:20,1,120
333,63,4903,1,0,0:0:0:0:
333,63,5066,2,0,L|357:184,1,120
264,171,5552,2,0,L|232:58,1,60
170,160,5876,2,0,L|119:54,1,60
71,159,6201,2,0,L|4:64,1,60
118,89,6526,6,0,P|147:89|176:72,1,41.9999987182618,0|0,2:0|2:0,2:0:0:0:
238,54,6850,1,0,2:0:0:0:
236,55,7012,2,0,P|216:17|178:2,1,83.9999974365235,0|0,2:0|2:0,2:0:0:0:
161,84,7499,1,0,0:0:0:0:
158,86,7661,2,0,P|171:111|199:128,1,41.9999987182618,0|0,2:0|2:0,2:0:0:0:
111,161,7985,2,0,P|119:189|144:209,1,41.9999987182618,0|0,2:0|2:0,2:0:0:0:
47,224,8309,2,0,P|50:252|70:278,1,41.9999987182618,0|0,2:0|2:0,2:0:0:0:
47,224,8634,6,0,P|53:192|77:170,2,41.9999987182618,0|0|0,2:0|2:0|2:0,2:0:0:0:
130,225,9120,2,0,P|149:219|170:225,1,41.9999987182618,0|0,2:0|2:0,2:0:0:0:
237,276,9445,1,0,2:0:0:0:
237,276,9607,2,0,P|256:237|249:197,1,83.9999974365235,0|0,2:0|2:0,2:0:0:0:
172,229,10094,1,0,0:0:0:0:
165,310,10255,2,0,P|185:344|223:356,1,83.9999974365235,0|0,2:0|2:0,2:0:0:0:
237,276,10742,2,0,P|226:246|209:232,1,41.9999987182618,0|0,2:0|2:0,2:0:0:0:
218,239,11066,2,0,B|220:243|203:235|181:233,1,41.9999987182618,0|0,2:0|2:0,2:0:0:0:
218,239,11391,1,0,0:0:0:0:
356,144,11715,6,0,P|353:121|343:101,1,41.9999987182618,0|0,2:0|2:0,2:0:0:0:
272,146,12039,1,0,2:0:0:0:
274,145,12201,2,0,P|233:157|211:191,1,83.9999974365235,0|0,2:0|2:0,2:0:0:0:
294,225,12688,1,0,0:0:0:0:
293,226,12850,6,0,P|319:214|340:190,1,41.9999987182618,0|0,2:0|2:0,2:0:0:0:
359,288,13174,2,0,P|387:281|411:260,1,41.9999987182618,0|0,2:0|2:0,2:0:0:0:
409,359,13499,2,0,P|437:356|465:340,1,41.9999987182618,0|0,2:0|2:0,2:0:0:0:
409,359,13823,1,0,0:0:0:0:
359,288,13985,1,0,0:0:0:0:
293,226,14147,1,0,0:0:0:0:
217,188,14309,2,0,P|173:173|135:177,1,83.9999974365235,0|0,2:0|2:0,2:0:0:0:
170,257,14796,2,0,P|211:269|249:264,1,83.9999974365235,0|0,2:0|2:0,2:0:0:0:
216,188,15282,5,0,0:0:0:0:
137,179,15444,1,0,0:0:0:0:
216,188,15607,6,0,L|233:137,2,41.9999987182618
137,179,16093,2,0,L|125:120,2,41.9999987182618
170,257,16580,1,0,0:0:0:0:
246,222,16742,6,0,B|259:248|259:248|250:276,1,60
411,187,17228,6,0,B|377:238|377:238|418:296,1,132.00000402832
274,325,17715,1,0,0:0:0:0:
274,325,17877,6,0,L|219:208,1,66.0000020141602
401,269,18201,2,0,L|438:323,1,66.0000020141602
274,325,18526,2,0,L|219:208,1,66.0000020141602
401,269,18850,2,0,L|438:323,1,66.0000020141602
275,331,19174,1,0,0:0:0:0:
275,331,19336,1,0,0:0:0:0:
274,325,19499,6,0,L|217:205,1,132.00000402832
110,302,19985,1,0,0:0:0:0:
110,302,20147,2,0,L|200:260,1,66.0000020141602
73,165,20472,2,0,L|127:126,1,66.0000020141602
18,46,20796,5,0,0:0:0:0:
18,46,20958,1,0,0:0:0:0:
18,46,21120,2,0,L|64:0,1,66.0000020141602
147,120,21445,5,0,0:0:0:0:
147,120,21607,1,0,0:0:0:0:
147,120,21769,2,0,L|94:160,1,66.0000020141602
147,120,22093,6,0,L|31:207,1,132.00000402832
177,250,22580,1,0,0:0:0:0:
177,250,22742,2,0,L|124:290,1,66.0000020141602
177,250,23066,1,0,0:0:0:0:
177,250,23228,1,0,0:0:0:0:
177,250,23391,6,0,L|67:331,1,132.00000402832
209,371,23877,2,0,B|272:348|272:348|298:276,1,132.00000402832
188,186,24364,2,0,B|164:207|164:207|168:241,1,66.0000020141602
25,213,24688,1,0,0:0:0:0:
256,192,24850,12,0,26634,0:0:0:0:
497,95,27282,6,0,P|487:44|446:13,1,96
413,85,27769,1,0,0:0:0:0:
413,85,27931,2,0,P|388:60|343:54,2,48
345,131,28418,6,0,P|300:108|248:124,1,96
293,192,28904,2,0,P|261:203|234:239,1,48
309,269,29228,2,0,P|340:256|366:220,1,48
293,192,29553,1,0,0:0:0:0:
293,192,29877,6,0,P|248:214|231:265,1,96,0|0,2:0|0:0,0:0:0:0:
309,269,30364,2,0,P|353:246|370:195,1,96,0|0,2:0|0:0,0:0:0:0:
354,124,30850,2,0,P|340:92|302:67,1,48
270,143,31174,6,0,P|283:174|321:199,1,48
208,205,31499,2,0,P|215:238|248:269,1,48
137,262,31823,2,0,P|138:296|165:332,1,48
61,313,32147,2,0,P|56:346|77:387,1,48
61,313,32472,6,0,B|85:278|111:297|141:255,1,96
209,209,32958,2,0,B|250:187|235:159|272:139,1,96
321,210,33445,2,0,P|350:190|395:190,1,48,0|0,0:3|0:3,0:0:0:0:
384,271,33769,6,0,P|428:255|472:272,1,96,0|0,2:0|0:0,0:0:0:0:
428,346,34255,2,0,P|383:361|339:344,1,96,0|0,2:0|0:0,0:0:0:0:
290,272,34742,2,0,P|277:251|258:236,1,48,0|0,0:3|0:3,0:0:0:0:
181,198,35066,6,0,B|111:179|145:129,1,96
66,93,35553,2,0,B|47:163|-2:128,1,96
4,216,36039,2,0,P|10:238|9:262,1,48,0|0,0:3|0:3,0:0:0:0:
89,230,36364,6,0,P|109:217|132:212,1,48,0|0,0:3|0:3,0:0:0:0:
91,137,36688,2,0,P|109:121|131:112,1,48,0|0,0:3|0:3,0:0:0:0:
75,46,37012,2,0,P|90:27|110:14,1,48,0|0,0:3|0:3,0:0:0:0:
202,7,37336,6,0,B|237:7,1,35.9999989013672,0|0,0:3|0:3,0:0:0:0:
271,7,37580,1,0,0:0:0:0:
308,8,37661,6,0,B|341:8|341:8|362:42,1,60
396,130,37985,2,0,P|393:158|377:185,1,60
293,117,38309,2,0,P|263:63|275:2,1,120
372,49,38796,1,0,0:0:0:0:
372,48,38958,6,0,P|401:41|430:43,1,60
412,149,39282,2,0,P|382:155|353:153,1,60
245,139,39607,2,0,P|184:150|145:199,1,120
167,301,40093,1,0,0:0:0:0:
167,301,40255,6,0,P|187:322|213:337,1,60
321,352,40580,1,0,0:0:0:0:
416,299,40742,1,0,0:0:0:0:
416,299,40904,2,0,P|395:277|369:262,1,60
261,248,41229,1,0,0:0:0:0:
167,301,41391,1,0,0:0:0:0:
167,301,41553,6,0,P|216:338|279:333,1,120
244,231,42039,1,0,0:0:0:0:
244,231,42201,2,0,P|222:208|197:194,1,60
167,301,42526,2,0,P|188:323|214:338,1,60
244,231,42850,6,0,P|232:291|156:293,1,132.00000402832
167,301,43336,6,0,P|216:338|279:333,1,120
244,231,43823,2,0,P|222:208|197:194,1,60
244,231,44147,6,0,P|182:241|169:302,1,132.00000402832
167,301,44634,6,0,P|131:254|74:239,1,120
105,342,45120,2,0,P|126:364|152:379,1,60
258,366,45445,6,0,P|293:302|229:285,1,143.999995605469
179,335,45931,2,0,P|126:342|78:343,1,96
179,335,46418,5,0,0:0:0:0:
80,339,46580,1,0,0:0:0:0:
179,335,46742,6,0,L|163:268,2,60
83,343,47228,2,0,L|84:273,2,60
121,241,47715,6,0,L|116:194,1,35.9999989013672
115,123,48039,6,0,P|120:91|151:72,1,48
209,54,48364,1,0,0:0:0:0:
209,54,48526,1,0,0:0:0:0:
289,66,48688,2,0,P|314:86|315:122,1,48
320,181,49012,2,0,P|312:212|280:228,1,48
235,170,49336,6,0,P|208:184|234:216,1,56.9999984779358
256,274,49661,6,0,L|285:313,1,48
337,251,49985,2,0,L|372:284,1,48
418,216,50309,2,0,L|459:243,1,48
470,159,50634,6,0,P|459:134|432:134,1,56.9999984779358
358,168,50958,6,0,P|327:176|297:156,1,48,0|0,2:0|0:0,0:0:0:0:
244,126,51282,2,0,P|221:103|223:67,1,48,0|0,2:0|0:0,0:0:0:0:
296,63,51607,2,0,P|288:40|270:25,1,48,0|0,2:0|0:0,0:0:0:0:
168,26,51931,6,0,L|78:26,2,90
122,117,52580,2,0,L|181:126,1,60
126,211,52904,1,0,0:0:0:0:
222,81,53228,6,0,P|255:40|288:82,1,120
255,245,54201,1,0,0:0:0:0:
237,162,54526,2,0,P|255:158|276:166,1,30
340,229,54850,2,0,P|343:247|336:268,1,30
274,329,55174,2,0,P|255:332|234:325,1,30
176,260,55499,2,0,P|173:245|176:230,1,30
192,192,55742,1,0,0:0:0:0:
216,156,55823,6,0,B|225:138|225:138|203:92|203:92|184:88,1,90.0000034332277,0|0,2:0|2:0,2:0:0:0:
128,152,56309,1,0,2:0:0:0:
76,219,56472,2,0,B|56:214|56:214|34:168|34:168|44:150,1,90.0000034332277,0|0,2:0|2:0,2:0:0:0:
128,152,56958,1,0,0:0:0:0:
128,152,57120,1,0,0:0:0:0:
128,152,57769,5,0,0:0:0:0:
128,152,58093,6,0,P|153:202|220:220,1,125.999996154785
257,213,58418,6,0,B|299:208|299:208|344:228,1,71.9999978027344
208,335,58742,1,0,0:0:0:0:
205,334,58904,2,0,B|130:352|130:352|61:336,1,143.999995605469
186,223,59391,1,0,0:0:0:0:
186,223,59553,6,0,P|110:175|99:176,1,71.9999978027344
186,223,59877,2,0,P|274:206|284:212,1,71.9999978027344
116,242,60201,2,0,B|128:247|163:249|186:222|186:222|199:258|241:268|253:265,1,143.999995605469
205,99,60688,6,0,P|181:60|135:32,1,71.9999978027344
205,99,61012,2,0,P|154:40|86:36,1,143.999995605469
205,99,61499,2,0,P|255:157|323:161,1,143.999995605469
