osu file format v14

[General]
AudioFilename: audio.mp3
AudioLeadIn: 0
PreviewTime: 60827
Countdown: 0
SampleSet: Normal
StackLeniency: 0.7
Mode: 0
LetterboxInBreaks: 0
WidescreenStoryboard: 1

[Editor]
Bookmarks: 2944,26944,49885,54121,61180
DistanceSpacing: 1.5
BeatDivisor: 4
GridSize: 4
TimelineZoom: 2.5

[Metadata]
Title:Good-bye, Ms. Floral Thief
TitleUnicode:さようなら、花泥棒さん
Artist:sana
ArtistUnicode:鎖那
Creator:Lokidoki
Version:Sayonara
Source:
Tags:sayounara hanadoroubou san mel vocaloid cover hatsune miku flower _dt3 turtle polkamocha veridian asaiga (un)sentimental spica
BeatmapID:1448654
BeatmapSetID:590092

[Difficulty]
HPDrainRate:6
CircleSize:4
OverallDifficulty:8
ApproachRate:9
SliderMultiplier:1.4
SliderTickRate:2

[Events]
//Background and Video events
0,0,"bg.jpg",0,0
//Break Periods
//Storyboard Layer 0 (Background)
//Storyboard Layer 1 (Fail)
//Storyboard Layer 2 (Pass)
//Storyboard Layer 3 (Foreground)
//Storyboard Sound Samples

[TimingPoints]
1533,352.941176470588,4,1,0,50,1,0
3827,-100,4,3,0,50,0,0
4356,-100,4,1,0,50,0,0
48827,-100,4,3,0,50,0,0
49532,-100,4,1,0,50,0,0
50944,-100,4,1,0,50,0,0
58003,-100,4,3,0,50,0,0
59944,-100,4,2,0,50,0,0
60121,-300,4,2,0,50,0,0
60827,-100,4,1,0,65,0,1
71415,-100,4,1,0,65,0,0
71856,-100,4,3,0,65,0,0
72121,-100,4,1,0,65,0,1
83062,-100,4,3,0,65,0,1
83415,-100,4,1,0,50,0,0
89062,-100,4,1,0,65,0,1
90474,-100,4,1,0,50,0,0
91180,-100,4,3,0,50,0,0
91885,-100,4,2,0,50,0,0

[Colours]
Combo1 : 128,128,128
Combo2 : 255,128,192
Combo3 : 192,192,192
Combo4 : 255,128,255

[HitObjects]
36,140,1533,5,2,0:0:0:0:
160,116,1885,1,6,0:0:0:0:
60,60,2238,5,2,0:0:0:0:
112,220,2415,1,2,0:0:0:0:
140,12,2591,1,6,0:0:0:0:
44,272,2944,6,0,P|36:248|28:200,2,70,10|8|10,0:0|0:0|0:0,0:0:0:0:
80,348,3474,1,8,0:0:0:0:
120,88,3827,5,8,0:0:0:0:
152,208,4003,1,4,0:0:0:0:
8,28,4356,6,0,P|44:36|152:48,1,140,14|10,0:0|0:0,0:0:0:0:
253,21,4885,1,8,0:0:0:0:
216,116,5062,2,0,P|208:156|204:196,1,70,2|0,0:0|0:0,0:0:0:0:
304,288,5415,2,0,P|299:253|292:218,1,70,8|0,0:0|0:0,0:0:0:0:
68,356,5768,6,0,P|124:344|212:336,2,140,10|10|10,0:0|0:0|0:0,0:0:0:0:
8,284,6650,1,8,0:0:0:0:
72,216,6827,2,0,P|80:176|84:128,1,70,10|0,0:0|0:0,0:0:0:0:
140,32,7180,5,10,0:0:0:0:
168,168,7356,1,0,0:0:0:0:
260,88,7532,5,10,0:0:0:0:
232,252,7709,1,8,0:0:0:0:
368,148,7885,6,0,P|356:100|348:8,1,140,10|8,0:0|0:0,0:0:0:0:
444,200,8415,1,8,0:0:0:0:
376,264,8591,2,0,P|340:256|284:248,1,70,10|0,0:0|0:0,0:0:0:0:
188,292,8944,1,8,0:0:0:0:
276,168,9121,1,10,0:0:0:0:
304,348,9297,1,0,0:0:0:0:
160,276,9474,1,0,0:0:0:0:
352,180,9650,2,0,P|388:172|424:168,1,70,8|0,0:0|0:0,0:0:0:0:
248,72,10003,6,0,P|180:88|96:92,1,140,14|10,0:0|0:0,0:0:0:0:
4,70,10532,1,8,0:0:0:0:
59,180,10709,2,0,P|67:216|71:260,1,70,2|0,0:0|0:0,0:0:0:0:
168,360,11062,2,0,P|171:325|179:291,1,70,8|0,0:0|0:0,0:0:0:0:
272,152,11415,6,0,P|296:204|312:288,2,140,10|10|10,0:0|0:0|0:0,0:0:0:0:
208,63,12297,1,0,0:0:0:0:
304,12,12474,2,0,P|336:20|372:24,1,70,10|0,0:0|0:0,0:0:0:0:
476,12,12827,5,10,0:0:0:0:
488,160,13003,1,0,0:0:0:0:
396,96,13180,5,10,0:0:0:0:
376,252,13356,1,8,0:0:0:0:
464,364,13532,6,0,P|400:344|312:328,1,140,10|8,0:0|0:0,0:0:0:0:
232,312,14062,1,0,0:0:0:0:
132,344,14238,2,0,P|140:312|144:272,1,70,2|0,0:0|0:0,0:0:0:0:
40,196,14591,2,0,P|43:230|51:264,1,70,8|10,0:0|0:0,0:0:0:0:
128,120,14944,1,0,0:0:0:0:
56,40,15121,1,0,0:0:0:0:
128,204,15297,2,0,P|168:196|224:192,1,70,8|0,0:0|0:0,0:0:0:0:
344,276,15650,6,0,P|328:236|316:132,1,140,14|10,0:0|0:0,0:0:0:0:
328,44,16180,1,8,0:0:0:0:
408,0,16356,2,0,P|416:32|420:68,1,70,2|0,0:0|0:0,0:0:0:0:
472,200,16709,2,0,P|475:165|484:131,1,70,8|0,0:0|0:0,0:0:0:0:
332,292,17062,6,0,P|388:284|472:280,2,140,10|10|10,0:0|0:0|0:0,0:0:0:0:
240,320,17944,1,0,0:0:0:0:
180,244,18121,2,0,P|212:232|248:224,1,70,10|0,0:0|0:0,0:0:0:0:
120,328,18474,5,8,0:0:0:0:
104,148,18650,1,0,0:0:0:0:
32,264,18827,5,10,0:0:0:0:
52,68,19003,1,8,0:0:0:0:
120,184,19180,6,0,P|184:160|264:144,1,140,10|8,0:0|0:0,0:0:0:0:
352,176,19709,1,0,0:0:0:0:
312,72,19885,2,0,P|304:36|300:0,1,70,10|0,0:0|0:0,0:0:0:0:
400,104,20238,1,8,0:0:0:0:
232,88,20415,1,10,0:0:0:0:
384,24,20591,1,0,0:0:0:0:
312,176,20768,1,0,0:0:0:0:
172,32,20944,2,0,P|200:20|240:8,1,70,8|0,0:0|0:0,0:0:0:0:
156,160,21297,6,0,P|100:132|24:116,1,140,14|10,0:0|0:0,0:0:0:0:
60,212,21827,1,8,0:0:0:0:
96,304,22003,2,0,P|104:332|112:376,1,70,2|0,0:0|0:0,0:0:0:0:
208,300,22356,2,0,P|214:265|223:231,1,70,8|0,0:0|0:0,0:0:0:0:
360,128,22709,6,0,P|380:176|400:272,2,140,10|10|10,0:0|0:0|0:0,0:0:0:0:
316,44,23591,1,0,0:0:0:0:
232,104,23768,2,0,P|224:76|216:32,1,70,10|0,0:0|0:0,0:0:0:0:
140,160,24121,5,10,0:0:0:0:
260,232,24297,1,0,0:0:0:0:
64,132,24474,5,10,0:0:0:0:
160,308,24650,1,8,0:0:0:0:
0,92,24827,6,0,P|20:148|40:232,1,140,10|8,0:0|0:0,0:0:0:0:
52,328,25356,1,0,0:0:0:0:
132,260,25532,2,0,P|160:252|208:244,1,70,10|0,0:0|0:0,0:0:0:0:
300,284,25885,1,8,0:0:0:0:
216,160,26062,1,10,0:0:0:0:
280,346,26238,2,0,P|308:334|352:326,1,70
448,200,26591,2,0,P|413:193|381:180,1,70,8|4,0:0|0:0,0:0:0:0:
216,48,26944,6,0,P|248:88|284:200,1,140,12|0,0:0|0:0,0:0:0:0:
276,264,27474,1,0,0:0:0:0:
276,264,27650,2,0,P|243:251|211:237,1,70,8|0,0:0|0:0,0:0:0:0:
108,240,28003,2,0,P|122:208|134:175,1,70,8|0,0:0|0:0,0:0:0:0:
104,64,28356,6,0,P|148:88|236:112,1,140,8|0,0:0|0:0,0:0:0:0:
320,96,28885,1,0,0:0:0:0:
404,72,29062,2,0,P|440:64|476:60,1,70,8|0,0:0|0:0,0:0:0:0:
456,176,29415,2,0,P|421:183|387:187,1,70,8|0,0:0|0:0,0:0:0:0:
264,128,29768,6,0,P|284:180|312:292,1,140,8|0,0:0|0:0,0:0:0:0:
324,352,30297,1,0,0:0:0:0:
324,352,30474,2,0,P|288:344|252:340,1,70,8|0,0:0|0:0,0:0:0:0:
192,272,30827,2,0,P|157:276|123:283,1,70,8|0,0:0|0:0,0:0:0:0:
24,328,31180,6,0,P|40:276|44:188,1,140,8|0,0:0|0:0,0:0:0:0:
32,96,31709,1,0,0:0:0:0:
100,40,31885,2,0,P|136:48|172:52,1,70,8|0,0:0|0:0,0:0:0:0:
232,120,32238,2,0,P|266:115|300:108,1,70,8|0,0:0|0:0,0:0:0:0:
416,32,32591,6,0,P|400:92|392:200,1,140,8|0,0:0|0:0,0:0:0:0:
388,264,33121,1,0,0:0:0:0:
388,264,33297,2,0,P|352:248|312:240,1,70,8|0,0:0|0:0,0:0:0:0:
248,344,33650,2,0,P|279:329|313:321,1,70,8|0,0:0|0:0,0:0:0:0:
452,336,34003,6,0,P|428:280|412:196,1,140,8|0,0:0|0:0,0:0:0:0:
404,112,34532,1,0,0:0:0:0:
332,56,34709,2,0,P|296:64|260:68,2,70,8|0|8,0:0|0:0|0:0,0:0:0:0:
188,20,35238,1,0,0:0:0:0:
152,156,35415,6,2,P|164:200|168:312,1,140,8|0,0:0|0:0,0:0:0:0:
164,380,35944,1,0,0:0:0:0:
284,312,36121,2,2,P|276:268|272:152,1,140,8|0,0:0|0:0,0:0:0:0:
288,80,36650,1,0,0:0:0:0:
376,184,36827,6,0,P|412:192|456:196,1,70,8|0,0:0|0:0,0:0:0:0:
380,80,37180,2,0,P|345:83|311:91,1,70,8|0,0:0|0:0,0:0:0:0:
215,167,37532,1,8,0:0:0:0:
224,56,37709,1,8,0:0:0:0:
278,289,37885,2,0,P|242:285|206:277,1,70,8|0,0:0|0:0,0:0:0:0:
64,184,38238,6,0,P|72:228|80:344,1,140,8|0,0:0|0:0,0:0:0:0:
180,364,38768,1,0,0:0:0:0:
180,364,38944,2,0,P|172:328|168:288,1,70,8|0,0:0|0:0,0:0:0:0:
96,236,39297,2,0,P|115:204|141:173,1,70,8|0,0:0|0:0,0:0:0:0:
260,96,39650,6,0,P|248:148|240:240,1,140,8|0,0:0|0:0,0:0:0:0:
256,320,40180,1,0,0:0:0:0:
328,272,40356,2,0,P|364:264|396:260,1,70,8|0,0:0|0:0,0:0:0:0:
496,300,40709,2,0,P|488:264|484:232,1,70,8|0,0:0|0:0,0:0:0:0:
492,112,41062,6,0,P|444:128|340:136,1,140,8|0,0:0|0:0,0:0:0:0:
268,120,41591,1,0,0:0:0:0:
268,120,41768,2,0,P|232:112|196:108,1,70,8|0,0:0|0:0,0:0:0:0:
148,184,42121,2,0,P|111:191|77:203,1,70,8|0,0:0|0:0,0:0:0:0:
16,304,42474,6,0,P|84:308|160:328,1,140,8|0,0:0|0:0,0:0:0:0:
232,360,43003,1,0,0:0:0:0:
292,296,43180,2,0,P|300:260|304:220,1,70,8|0,0:0|0:0,0:0:0:0:
272,140,43532,2,0,P|264:104|260:64,1,70,8|0,0:0|0:0,0:0:0:0:
324,8,43885,6,0,P|260:28|180:36,1,140,8|0,0:0|0:0,0:0:0:0:
100,28,44415,1,0,0:0:0:0:
100,28,44591,2,0,P|60:20|24:16,1,70,8|0,0:0|0:0,0:0:0:0:
0,128,44944,2,0,P|40:120|76:116,1,70,8|0,0:0|0:0,0:0:0:0:
192,96,45297,6,0,P|168:148|152:232,1,140,8|0,0:0|0:0,0:0:0:0:
144,316,45827,1,0,0:0:0:0:
228,280,46003,2,0,P|264:272|312:268,2,70,8|0|8,0:0|0:0|0:0,0:0:0:0:
372,320,46532,1,0,0:0:0:0:
332,192,46709,6,2,P|316:140|308:56,1,140,8|0,0:0|0:0,0:0:0:0:
408,116,47238,1,4,0:0:0:0:
241,228,47415,2,2,P|225:176|217:92,1,140,8|0,0:0|0:0,0:0:0:0:
228,2,47944,1,4,0:0:0:0:
92,104,48121,6,0,P|104:132|116:176,1,70,8|0,0:0|0:0,0:0:0:0:
202,13,48474,2,0,P|190:42|168:81,1,70,8|0,0:0|0:0,0:0:0:0:
104,200,48827,1,8,0:0:0:0:
188,168,49003,1,8,0:0:0:0:
36,148,49180,1,8,0:0:0:0:
92,288,49356,1,8,0:0:0:0:
224,156,49532,6,0,P|240:112|252:64,1,70,8|0,0:0|0:0,0:0:0:0:
328,68,49885,2,0,P|312:24|300:-24,1,70,8|0,0:0|0:0,0:0:0:0:
408,116,50238,2,0,P|404:156|356:272,1,140,8|0,0:0|0:0,0:0:0:0:
320,320,50768,1,4,0:0:0:0:
224,276,50944,6,0,P|192:268|148:264,1,70,8|0,0:0|0:0,0:0:0:0:
64,184,51297,2,0,P|96:176|140:172,1,70,8|0,0:0|0:0,0:0:0:0:
240,188,51650,2,0,P|224:144|212:48,1,140,8|4,0:0|0:0,0:0:0:0:
280,8,52180,1,0,0:0:0:0:
368,84,52356,6,0,P|400:96|448:108,1,70,8|0,0:0|0:0,0:0:0:0:
424,200,52709,2,0,P|458:197|506:187,1,70,8|0,0:0|0:0,0:0:0:0:
408,320,53062,2,0,P|372:288|280:228,1,140,8|4,0:0|0:0,0:0:0:0:
216,196,53591,1,0,0:0:0:0:
127,265,53768,6,0,P|91:273|55:277,1,70,8|0,0:0|0:0,0:0:0:0:
0,154,54121,2,0,P|36:146|72:142,1,70,8|0,0:0|0:0,0:0:0:0:
175,156,54474,1,8,0:0:0:0:
264,112,54650,1,4,0:0:0:0:
172,44,54827,1,8,0:0:0:0:
248,212,55003,1,4,0:0:0:0:
360,68,55180,6,0,P|368:32|372:-4,1,70,8|0,0:0|0:0,0:0:0:0:
264,96,55532,2,0,P|283:127|306:155,1,70,8|0,0:0|0:0,0:0:0:0:
392,220,55885,2,0,P|400:184|404:148,1,70,8|0,0:0|0:0,0:0:0:0:
300,280,56238,2,0,P|327:301|357:320,1,70,8|0,0:0|0:0,0:0:0:0:
204,220,56591,6,0,P|164:224|116:240,1,70,8|0,0:0|0:0,0:0:0:0:
268,88,56944,2,0,P|272:128|288:176,1,70,8|0,0:0|0:0,0:0:0:0:
132,28,57297,2,0,P|172:24|220:8,1,70,8|0,0:0|0:0,0:0:0:0:
68,160,57650,2,0,P|64:120|48:72,1,70,8|0,0:0|0:0,0:0:0:0:
176,124,58003,5,8,0:0:0:0:
136,300,58356,1,8,0:0:0:0:
240,40,58709,5,8,0:0:0:0:
263,301,58885,1,12,0:0:0:0:
392,360,59238,5,8,0:0:0:0:
429,72,59415,1,12,0:0:0:0:
132,203,59944,5,0,0:0:0:0:
154,201,60032,1,0,0:0:0:0:
178,199,60121,6,2,P|185:218|186:273,1,70,2|0,0:0|0:0,0:0:0:0:
231,213,60827,6,0,P|212:242|188:268,1,70,8|0,0:0|0:0,0:0:0:0:
248,85,61180,2,0,P|267:114|292:140,1,70,8|0,0:0|0:0,0:0:0:0:
92,94,61532,2,0,P|111:65|136:40,1,70,8|0,0:0|0:0,0:0:0:0:
75,222,61885,2,0,P|56:193|32:168,1,70,8|0,0:0|0:0,0:0:0:0:
169,156,62238,5,8,0:0:0:0:
116,348,62415,1,0,0:0:0:0:
80,232,62591,1,8,0:0:0:0:
216,344,62768,5,0,0:0:0:0:
104,132,62944,1,8,0:0:0:0:
336,152,63121,1,0,0:0:0:0:
140,264,63297,5,8,0:0:0:0:
276,72,63474,1,0,0:0:0:0:
412,248,63650,2,0,P|424:280|432:320,1,70,8|0,0:0|0:0,0:0:0:0:
280,200,64003,2,0,P|294:168|316:134,1,70,8|0,0:0|0:0,0:0:0:0:
204,24,64356,2,0,P|222:53|236:85,1,70,8|0,0:0|0:0,0:0:0:0:
85,200,64709,2,0,P|92:165|104:133,1,70,8|0,0:0|0:0,0:0:0:0:
196,352,65062,5,8,0:0:0:0:
8,268,65238,1,0,0:0:0:0:
200,212,65415,2,0,P|240:200|280:192,1,70,8|0,0:0|0:0,0:0:0:0:
344,288,65768,5,8,0:0:0:0:
292,60,65944,1,0,0:0:0:0:
388,156,66121,1,8,0:0:0:0:
176,120,66297,1,0,0:0:0:0:
456,48,66474,6,0,P|476:80|504:184,1,140,8|8,0:0|0:0,0:0:0:0:
488,288,67003,1,0,0:0:0:0:
360,204,67180,2,0,P|380:172|420:140,1,70,8|0,0:0|0:0,0:0:0:0:
328,304,67532,2,0,P|296:284|264:244,1,70,8|0,0:0|0:0,0:0:0:0:
220,128,67885,6,0,P|200:184|144:248,1,140,8|8,0:0|0:0,0:0:0:0:
116,140,68415,1,0,0:0:0:0:
160,52,68591,2,0,P|196:36|252:28,1,70,8|0,0:0|0:0,0:0:0:0:
44,200,68944,2,0,P|28:164|20:108,1,70,8|0,0:0|0:0,0:0:0:0:
216,248,69297,6,0,P|200:296|136:372,1,140,8|8,0:0|0:0,0:0:0:0:
112,264,69827,1,0,0:0:0:0:
192,168,70003,2,0,P|232:152|272:144,1,70,8|0,0:0|0:0,0:0:0:0:
388,220,70356,5,8,0:0:0:0:
328,56,70532,1,0,0:0:0:0:
416,244,70709,2,0,P|424:272|432:316,1,70,8|0,0:0|0:0,0:0:0:0:
470,96,71062,2,0,P|462:124|454:168,1,70,8|0,0:0|0:0,0:0:0:0:
316,12,71415,6,0,P|344:40|376:80,1,70,8|0,0:0|0:0,0:0:0:0:
432,156,71768,1,8,0:0:0:0:
432,156,71856,1,8,0:0:0:0:
432,156,71944,1,8,0:0:0:0:
432,156,72032,1,8,0:0:0:0:
432,156,72121,6,0,P|392:148|352:144,1,70,12|0,0:0|0:0,0:0:0:0:
264,280,72474,2,0,P|272:240|276:200,1,70,8|0,0:0|0:0,0:0:0:0:
144,124,72827,2,0,P|184:132|224:136,1,70,8|0,0:0|0:0,0:0:0:0:
312,0,73180,2,0,P|304:40|300:80,1,70,8|0,0:0|0:0,0:0:0:0:
372,244,73532,5,8,0:0:0:0:
184,220,73709,1,0,0:0:0:0:
428,156,73885,1,8,0:0:0:0:
412,368,74062,5,0,0:0:0:0:
292,188,74238,1,8,0:0:0:0:
496,96,74415,1,0,0:0:0:0:
400,280,74591,5,8,0:0:0:0:
168,224,74768,1,0,0:0:0:0:
356,88,74944,2,0,P|364:120|368:160,1,70,8|0,0:0|0:0,0:0:0:0:
248,8,75297,2,0,P|240:40|236:80,1,70,8|0,0:0|0:0,0:0:0:0:
136,212,75650,2,0,P|128:180|124:140,1,70,8|0,0:0|0:0,0:0:0:0:
244,292,76003,2,0,P|252:260|256:220,1,70,8|0,0:0|0:0,0:0:0:0:
140,360,76356,5,8,0:0:0:0:
328,332,76532,1,0,0:0:0:0:
104,272,76709,2,0,P|56:256|4:248,1,70,8|0,0:0|0:0,0:0:0:0:
208,180,77062,5,8,0:0:0:0:
352,200,77238,1,0,0:0:0:0:
196,92,77415,2,0,P|156:104|112:112,1,70,8|0,0:0|0:0,0:0:0:0:
352,16,77768,6,0,P|364:56|380:164,1,140,8|8,0:0|0:0,0:0:0:0:
384,256,78297,1,0,0:0:0:0:
304,316,78474,2,0,P|292:280|284:236,1,70,8|0,0:0|0:0,0:0:0:0:
196,148,78827,2,0,P|191:185|180:228,1,70,8|0,0:0|0:0,0:0:0:0:
144,344,79180,6,0,P|84:312|-8:292,1,140,8|8,0:0|0:0,0:0:0:0:
0,196,79709,1,0,0:0:0:0:
64,116,79885,2,0,P|80:84|92:48,1,70,8|0,0:0|0:0,0:0:0:0:
184,184,80238,1,8,0:0:0:0:
160,12,80415,1,0,0:0:0:0:
172,236,80591,6,0,P|212:220|256:212,1,70,8|0,0:0|0:0,0:0:0:0:
348,248,80944,1,8,0:0:0:0:
432,176,81121,2,0,P|444:144|452:104,1,70,0|8,0:0|0:0,0:0:0:0:
316,168,81474,5,0,0:0:0:0:
268,336,81650,1,8,0:0:0:0:
216,240,81827,1,0,0:0:0:0:
348,272,82003,5,8,0:0:0:0:
144,304,82180,1,0,0:0:0:0:
200,144,82356,2,0,P|216:184|228:220,1,70,8|0,0:0|0:0,0:0:0:0:
312,36,82709,2,0,P|296:76|284:112,1,70,8|0,0:0|0:0,0:0:0:0:
390,247,83062,5,8,0:0:0:0:
386,227,83150,1,8,0:0:0:0:
382,207,83238,1,8,0:0:0:0:
378,187,83327,1,8,0:0:0:0:
376,168,83415,6,0,P|404:192|444:216,1,70,8|0,0:0|0:0,0:0:0:0:
512,276,83768,2,0,P|484:300|444:324,1,70,8|0,0:0|0:0,0:0:0:0:
332,384,84121,2,0,P|344:336|352:232,1,140,8|0,0:0|0:0,0:0:0:0:
272,184,84650,1,0,0:0:0:0:
192,256,84827,6,0,P|152:264|104:268,1,70,8|0,0:0|0:0,0:0:0:0:
48,160,85180,1,8,0:0:0:0:
48,160,85356,2,0,P|88:168|136:172,1,70,0|8,0:0|0:0,0:0:0:0:
216,148,85709,1,0,0:0:0:0:
296,76,85885,2,0,P|304:36|308:0,1,70,8|0,0:0|0:0,0:0:0:0:
372,160,86238,6,0,P|360:208|352:300,1,140,8|8,0:0|0:0,0:0:0:0:
452,244,86768,1,0,0:0:0:0:
440,96,86944,2,0,P|400:84|364:76,1,70,8|0,0:0|0:0,0:0:0:0:
272,160,87297,1,4,0:0:0:0:
272,160,87474,2,0,P|228:168|184:172,1,70,4|0,0:0|0:0,0:0:0:0:
64,112,87827,2,0,P|88:140|116:184,1,70,4|0,0:0|0:0,0:0:0:0:
120,312,88180,1,4,0:0:0:0:
120,312,88356,2,0,P|135:278|163:234,1,70,0|4,0:0|0:0,0:0:0:0:
264,128,88709,2,0,P|284:156|304:200,1,70
284,344,89062,6,0,P|328:320|416:292,1,140,8|8,0:0|0:0,0:0:0:0:
504,276,89591,1,0,0:0:0:0:
448,200,89768,2,0,P|440:164|436:116,1,70,8|0,0:0|0:0,0:0:0:0:
344,44,90121,1,8,0:0:0:0:
320,223,90297,1,8,0:0:0:0:
211,0,90474,5,8,0:0:0:0:
227,368,90827,1,8,0:0:0:0:
44,188,91180,5,8,0:0:0:0:
78,183,91268,1,8,0:0:0:0:
113,186,91356,1,8,0:0:0:0:
146,197,91444,1,8,0:0:0:0:
180,207,91532,1,8,0:0:0:0:
214,211,91621,1,8,0:0:0:0:
249,209,91709,1,8,0:0:0:0:
276,200,91797,1,8,0:0:0:0:
308,187,91885,1,4,0:0:0:0:
