osu file format v14

[General]
AudioFilename: audio.mp3
AudioLeadIn: 0
PreviewTime: 60827
Countdown: 0
SampleSet: None
StackLeniency: 0.7
Mode: 0
LetterboxInBreaks: 0
WidescreenStoryboard: 0

[Editor]
Bookmarks: 2944,26944
DistanceSpacing: 1.1
BeatDivisor: 4
GridSize: 4
TimelineZoom: 1.9

[Metadata]
Title:Good-bye, Ms. Floral Thief
TitleUnicode:さようなら、花泥棒さん
Artist:sana
ArtistUnicode:鎖那
Creator:Lokidoki
Version:Collab Easy
Source:
Tags:sayounara hanadoroubou san mel vocaloid cover hatsune miku flower _dt3 turtle polkamocha veridian asaiga (un)sentimental spica
BeatmapID:1392320
BeatmapSetID:590092

[Difficulty]
HPDrainRate:3
CircleSize:3
OverallDifficulty:3
ApproachRate:3
SliderMultiplier:0.8
SliderTickRate:1

[Events]
//Background and Video events
0,0,"bg.jpg",0,0
//Break Periods
//Storyboard Layer 0 (Background)
//Storyboard Layer 1 (Fail)
//Storyboard Layer 2 (Pass)
//Storyboard Layer 3 (Foreground)
//Storyboard Sound Samples

[TimingPoints]
1533,352.941176470588,4,1,0,20,1,0
3827,-100,4,3,0,20,0,0
4356,-100,4,1,0,20,0,0
48827,-100,4,3,0,20,0,0
50944,-100,4,1,0,20,0,0
58003,-100,4,3,0,20,0,0
59944,-100,4,2,0,20,0,0
60827,-100,4,1,0,35,0,1
71415,-100,4,1,0,35,0,0
72121,-100,4,1,0,35,0,1
83062,-100,4,3,0,35,0,1
83415,-100,4,1,0,35,0,0
89062,-100,4,1,0,35,0,1
90474,-100,4,1,0,35,0,0
91180,-100,4,3,0,35,0,0

[Colours]
Combo1 : 128,128,128
Combo2 : 255,128,192
Combo3 : 192,192,192
Combo4 : 255,128,255

[HitObjects]
64,97,1533,6,0,B|152:121|136:73|224:97,1,160,8|0,0:0|0:0,0:0:0:0:
285,143,2591,1,8,0:0:0:0:
345,90,2944,2,0,L|348:8,2,80
400,148,4003,1,12,0:0:0:0:
455,206,4356,6,8,L|452:288,1,80
392,340,5062,2,0,L|310:337,1,80
317,257,5768,1,8,0:0:0:0:
244,290,6122,2,0,P|231:328|237:367,2,80
253,211,7180,6,0,P|214:200|177:211,1,80,8|0,0:0|0:0,0:0:0:0:
113,259,7885,2,0,P|74:269|37:258,1,80
0,189,8591,1,8,0:0:0:0:
34,118,8944,2,0,B|122:94|106:142|194:118,1,160
248,62,10003,6,0,L|330:65,1,80,8|0,0:0|0:0,0:0:0:0:
382,125,10709,2,0,L|379:207,1,80
342,276,11415,5,0,0:0:0:0:
300,207,11768,2,0,P|261:196|224:207,2,80
262,278,12827,6,0,P|223:288|186:277,1,80,8|0,0:0|0:0,0:0:0:0:
144,208,13532,2,0,L|141:128,1,80
178,56,14238,1,8,0:0:0:0:
221,123,14591,2,0,L|380:117,1,160
449,76,15650,6,0,P|461:114|452:153,1,80,12|0,0:0|0:0,0:0:0:0:
386,197,16356,2,0,P|374:234|383:273,1,80
433,336,17062,1,8,0:0:0:0:
354,349,17415,2,0,L|274:346,1,80
196,327,18121,1,0,0:0:0:0:
251,269,18474,6,0,L|253:189,1,80,8|0,0:0|0:0,0:0:0:0:
199,128,19180,2,0,L|119:125,1,80
50,84,19885,1,8,0:0:0:0:
122,45,20238,2,0,L|201:47,2,80
50,84,21297,6,0,P|38:121|47:160,1,80,8|0,0:0|0:0,0:0:0:0:
113,204,22003,2,0,P|124:241|115:280,1,80
66,343,22709,1,8,0:0:0:0:
145,356,23062,2,0,L|224:353,1,80
305,350,23768,1,0,0:0:0:0:
263,281,24121,6,0,P|300:269|339:278,1,80,8|0,0:0|0:0,0:0:0:0:
383,344,24827,2,0,P|420:355|459:346,1,80
422,274,25532,2,0,L|425:195,1,80,8|0,0:0|0:0,0:0:0:0:
370,134,26238,2,0,L|291:132,1,80
224,185,26944,6,12,P|208:153|268:48,1,160
336,25,28003,1,0,0:0:0:0:
392,89,28356,2,0,L|488:97,1,80,8|0,0:0|0:0,0:0:0:0:
504,169,29062,1,0,0:0:0:0:
488,249,29415,1,0,0:0:0:0:
408,281,29768,6,0,P|360:297|264:257,1,160,8|0,0:0|0:0,0:0:0:0:
224,185,30827,1,0,0:0:0:0:
168,129,31180,2,0,L|80:121,2,80,0|8|0,0:0|0:0|0:0,0:0:0:0:
240,97,32238,1,0,0:0:0:0:
304,49,32591,6,0,P|352:33|456:81,1,160,8|0,0:0|0:0,0:0:0:0:
488,145,33650,1,0,0:0:0:0:
440,208,34003,2,0,L|448:288,1,80,8|0,0:0|0:0,0:0:0:0:
400,353,34709,1,0,0:0:0:0:
320,337,35062,1,0,0:0:0:0:
256,289,35415,6,0,P|200:305|112:249,1,160,8|0,0:0|0:0,0:0:0:0:
72,185,36474,1,0,0:0:0:0:
136,129,36827,2,0,L|216:121,2,80,0|8|0,0:0|0:0|0:0,0:0:0:0:
64,89,37885,1,0,0:0:0:0:
128,41,38238,6,0,L|296:25,1,160,8|0,0:0|0:0,0:0:0:0:
368,17,39297,1,0,0:0:0:0:
432,65,39650,2,0,P|456:105|448:153,1,80,8|0,0:0|0:0,0:0:0:0:
416,209,40356,1,0,0:0:0:0:
432,289,40709,1,0,0:0:0:0:
384,353,41062,6,0,P|320:361|240:313,1,160,8|0,0:0|0:0,0:0:0:0:
192,249,42121,1,0,0:0:0:0:
144,185,42474,2,0,L|64:193,2,80,0|8|0,0:0|0:0|0:0,0:0:0:0:
216,145,43532,1,0,0:0:0:0:
288,105,43885,6,0,P|344:89|440:137,1,160,8|0,0:0|0:0,0:0:0:0:
480,193,44944,1,0,0:0:0:0:
440,265,45297,2,0,P|400:273|352:265,1,80,8|0,0:0|0:0,0:0:0:0:
284,244,46003,1,0,0:0:0:0:
208,276,46356,1,0,0:0:0:0:
128,265,46709,6,0,P|104:225|152:121,1,160,8|0,0:0|0:0,0:0:0:0:
216,97,47768,1,0,0:0:0:0:
272,153,48121,2,0,P|304:161|416:89,1,160,8|0,0:0|0:0,0:0:0:0:
436,28,49180,1,0,0:0:0:0:
504,73,49532,6,0,L|512:153,1,80,8|0,0:0|0:0,0:0:0:0:
472,225,50238,2,0,L|464:313,1,80
400,353,50944,2,0,P|352:345|304:353,1,80,8|0,0:0|0:0,0:0:0:0:
252,308,51650,2,0,P|212:316|164:308,1,80
112,257,52356,6,0,L|24:265,2,80,8|0|8,0:0|0:0|0:0,0:0:0:0:
160,193,53415,2,0,L|248:201,2,80,8|0|8,0:0|0:0|0:0,0:0:0:0:
88,161,54474,1,0,0:0:0:0:
16,201,54827,1,0,0:0:0:0:
16,121,55180,6,0,P|8:65|96:9,1,160,8|0,0:0|0:0,0:0:0:0:
160,33,56238,1,0,0:0:0:0:
232,65,56591,2,8,L|320:57,1,80
384,17,57297,2,0,L|464:25,1,80
512,89,58003,6,0,P|504:129|480:161,1,80,8|0,0:0|0:0,0:0:0:0:
404,148,58709,2,0,P|356:128|296:128,1,80
248,140,59415,1,8,0:0:0:0:
96,160,60121,2,0,L|90:239,1,80
12,256,60827,6,0,P|60:315|136:306,1,160
169,233,61885,1,0,0:0:0:0:
202,160,62238,2,2,L|281:154,1,80,0|0,0:0|0:0,0:0:0:0:
346,106,62944,1,0,0:0:0:0:
355,185,63297,1,0,0:0:0:0:
425,222,63650,6,0,P|360:264|291:233,1,160
282,154,64709,1,0,0:0:0:0:
271,74,65062,2,0,P|232:63|195:74,1,80
147,138,65768,1,0,0:0:0:0:
115,63,66121,1,0,0:0:0:0:
67,129,66474,6,0,L|63:208,2,80
115,63,67532,1,0,0:0:0:0:
147,138,67885,2,0,P|184:148|222:137,1,80
265,68,68591,2,0,P|302:57|340:68,1,80
303,139,69297,6,0,L|300:221,1,80
259,292,70003,1,0,0:0:0:0:
220,219,70356,2,0,L|140:216,2,80
259,292,71415,2,0,P|296:302|334:291,1,80
383,355,72121,6,0,P|418:282|377:217,1,160
300,218,73180,1,0,0:0:0:0:
221,213,73532,2,2,L|215:134,1,80,0|0,0:0|0:0,0:0:0:0:
167,69,74238,1,0,0:0:0:0:
246,60,74591,1,0,0:0:0:0:
325,51,74944,6,0,P|370:107|341:185,1,160
265,198,76003,1,0,0:0:0:0:
185,212,76356,2,0,P|177:250|186:289,1,80
261,331,77062,1,0,0:0:0:0:
336,373,77415,1,0,0:0:0:0:
404,331,77768,6,0,P|415:292|404:255,2,80
333,293,78827,1,0,0:0:0:0:
335,213,79180,2,0,L|337:133,1,80
283,74,79885,2,0,L|203:71,1,80
132,108,80591,6,0,P|121:69|132:32,2,80
200,150,81650,2,0,P|211:188|200:226,1,80
136,275,82356,1,0,0:0:0:0:
209,305,82709,2,0,L|288:302,1,80
369,299,83415,6,0,B|393:211|345:227|369:139,1,160
448,137,84474,1,0,0:0:0:0:
405,70,84827,2,0,P|334:38|270:80,1,160
254,158,85885,1,0,0:0:0:0:
237,235,86238,6,0,B|149:259|165:211|77:235,1,160
23,290,87297,1,0,0:0:0:0:
80,346,87650,2,0,P|117:356|155:345,1,80
229,314,88356,2,0,P|266:303|304:314,1,80
353,378,89062,6,0,P|384:307|342:243,1,160
264,223,90121,1,0,0:0:0:0:
186,202,90474,2,0,P|175:165|186:127,1,80
264,105,91180,1,0,0:0:0:0:
342,84,91532,1,0,0:0:0:0:
420,105,91885,5,0,0:0:0:0:
