osu file format v14

[General]
AudioFilename: audio.mp3
AudioLeadIn: 0
PreviewTime: 70524
Countdown: 0
SampleSet: Soft
StackLeniency: 0.7
Mode: 0
LetterboxInBreaks: 0
WidescreenStoryboard: 1

[Editor]
DistanceSpacing: 1.2
BeatDivisor: 4
GridSize: 32
TimelineZoom: 1.2

[Metadata]
Title:smile more
TitleUnicode:smile more
Artist:sammy rash
ArtistUnicode:sammy rash
Creator:Asphyxia
Version:normal
Source:
Tags:english pop indie male vocal guitar
BeatmapID:4455731
BeatmapSetID:2109584

[Difficulty]
HPDrainRate:4
CircleSize:3.4
OverallDifficulty:4
ApproachRate:5
SliderMultiplier:1.59999990463257
SliderTickRate:1

[Events]
//Background and Video events
0,0,"bg.jpg",0,0
//Break Periods
2,44956,53983
2,66291,69324
//Storyboard Layer 0 (Background)
//Storyboard Layer 1 (Fail)
//Storyboard Layer 2 (Pass)
//Storyboard Layer 3 (Foreground)
//Storyboard Layer 4 (Overlay)
//Storyboard Sound Samples

[TimingPoints]
638,674.157303370787,4,2,7,60,1,0
638,-111.111111111111,4,2,7,60,0,0
1312,689.655172413793,4,2,7,55,1,0
2001,710.059171597634,4,2,7,55,1,0
2001,-111.111111111111,4,2,7,55,0,0
2533,549.199084668192,4,2,7,55,1,0
2670,695.652173913044,4,2,7,55,1,0
3365,666.666666666667,4,2,7,55,1,0
3365,-111.111111111111,4,2,7,55,0,0
4031,691.64265129683,4,2,7,55,1,0
4722,685.714285714286,4,2,7,55,1,0
4722,-111.111111111111,4,2,7,55,0,0
6093,670.391061452515,4,2,7,55,1,0
6093,-111.111111111111,4,2,7,55,0,0
6595,597.014925373135,4,2,7,55,1,0
6744,705.882352941177,4,2,7,55,1,0
7449,681.818181818183,4,2,7,55,1,0
7449,-111.111111111111,4,2,7,55,0,0
7960,652.173913043479,4,2,7,55,1,0
8123,648.648648648649,4,2,7,55,1,0
8771,740.740740740742,4,2,7,55,1,0
8771,-111.111111111111,4,2,7,55,0,0
9326,623.376623376624,4,2,7,55,1,0
9481,701.754385964913,4,2,7,55,1,0
10182,666.666666666668,4,2,7,55,1,0
10182,-111.111111111111,4,2,7,55,0,0
10848,697.674418604652,4,2,7,55,1,0
10848,-111.111111111111,4,2,7,55,0,0
11196,722.891566265061,4,2,7,55,1,0
11557,689.655172413794,4,2,7,55,1,0
11557,-111.111111111111,4,2,7,55,0,0
12246,705.882352941177,4,2,7,55,1,0
12246,-111.111111111111,4,2,7,55,0,0
12598,652.173913043479,4,2,7,55,1,0
12598,-111.111111111111,4,2,7,55,0,0
12924,681.818181818183,4,2,7,55,1,0
12924,-111.111111111111,4,2,7,55,0,0
13605,674.157303370787,4,2,7,55,1,0
13605,-111.111111111111,4,2,7,55,0,0
14279,693.64161849711,4,2,7,55,1,0
14279,-111.111111111111,4,2,7,55,0,0
14972,-111.111111111111,4,2,7,55,0,0
15319,659.340659340659,4,2,7,55,1,0
15648,681.818181818182,4,2,7,55,1,0
15648,-111.111111111111,4,2,7,55,0,0
16329,-111.111111111111,4,2,7,55,0,0
16670,659.340659340659,4,2,7,55,1,0
16999,705.882352941176,4,2,7,55,1,0
16999,-111.111111111111,4,2,7,55,0,0
17704,681.818181818182,4,2,7,55,1,0
17704,-111.111111111111,4,2,7,55,0,0
18044,638.297872340426,4,2,7,55,1,0
18363,689.655172413793,4,2,7,55,1,0
18363,-111.111111111111,4,2,7,55,0,0
19052,631.578947368421,4,2,7,55,1,0
19052,-111.111111111111,4,2,7,55,0,0
19683,759.493670886076,4,2,7,55,1,0
19683,-111.111111111111,4,2,7,55,0,0
20062,674.157303370787,4,2,7,55,1,0
20399,-111.111111111111,4,2,7,55,0,0
20736,705.882352941176,4,2,7,55,1,0
20736,-111.111111111111,4,2,7,55,0,0
21088,684.150513112885,4,2,7,55,1,0
21088,-111.111111111111,4,2,7,55,0,0
21772,-111.111111111111,4,2,7,55,0,0
22456,681.818181818182,4,2,7,60,1,0
22456,-100,4,2,7,60,0,0
22711,-100,4,2,7,5,0,0
22797,-100,4,2,7,60,0,0
23819,-100,4,2,7,60,0,0
26120,-100,4,2,7,5,0,0
26206,-100,4,2,7,60,0,0
27228,-100,4,2,7,60,0,0
27910,-100,4,2,7,70,0,0
28166,-100,4,2,7,5,0,0
28251,-100,4,2,7,70,0,0
29615,-100,4,2,7,70,0,0
29956,-100,4,2,7,70,0,0
30211,-100,4,2,7,5,0,0
30296,-100,4,2,7,70,0,0
31575,-100,4,2,7,5,0,0
31660,-100,4,2,7,70,0,0
32001,-100,4,2,7,70,0,0
32257,-100,4,2,7,5,0,0
32342,-100,4,2,7,70,0,0
32598,-100,4,2,7,5,0,0
32683,-100,4,2,7,70,0,0
33365,-90.9090909090909,4,2,7,80,0,0
33620,-90.9090909090909,4,2,7,5,0,0
33706,-90.9090909090909,4,2,7,80,0,0
34984,-90.9090909090909,4,2,7,5,0,0
35069,-90.9090909090909,4,2,7,80,0,0
36348,-90.9090909090909,4,2,7,5,0,0
36433,-90.9090909090909,4,2,7,80,0,0
37030,-90.9090909090909,4,2,7,5,0,0
37115,-90.9090909090909,4,2,7,80,0,0
37711,-90.9090909090909,4,2,7,5,0,0
37796,-90.9090909090909,4,2,7,80,0,0
39671,-90.9090909090909,4,2,7,80,0,0
40098,-90.9090909090909,4,2,7,5,0,0
40183,-90.9090909090909,4,2,7,80,0,0
40694,-90.9090909090909,4,2,7,80,0,0
55183,-100,4,2,7,70,0,0
56120,-100,4,2,7,5,0,0
56206,-100,4,2,7,70,0,0
57228,-100,4,2,7,70,0,0
57910,-100,4,2,7,70,0,0
58848,-100,4,2,7,5,0,0
58933,-100,4,2,7,70,0,0
59530,-100,4,2,7,5,0,0
59615,-100,4,2,7,70,0,0
59956,-100,4,2,7,70,0,0
60637,-111.111111111111,4,2,7,70,0,0
62171,-111.111111111111,4,2,7,70,0,0
62342,-111.111111111111,4,2,7,50,0,0
62512,-111.111111111111,4,2,7,70,0,0
62683,-111.111111111111,4,2,7,50,0,0
63365,-111.111111111111,4,2,7,40,0,0
70865,-90.9090909090909,4,2,7,70,0,0
71206,-90.9090909090909,4,2,7,70,0,0
71546,-90.9090909090909,4,2,7,80,0,0
71887,-90.9090909090909,4,2,7,80,0,0
72228,-90.9090909090909,4,2,7,70,0,0
72825,-90.9090909090909,4,2,7,5,0,0
72910,-90.9090909090909,4,2,7,80,0,0
73251,-90.9090909090909,4,2,7,80,0,0
74274,-90.9090909090909,4,2,7,80,0,0
74956,-90.9090909090909,4,2,7,80,0,0
75297,-90.9090909090909,4,2,7,80,0,0
75637,-90.9090909090909,4,2,7,80,0,0
75978,-90.9090909090909,4,2,7,80,0,0
76234,-90.9090909090909,4,2,7,5,0,0
76319,-90.9090909090909,4,2,7,80,0,0
77001,-90.9090909090909,4,2,7,80,0,0
77342,-90.9090909090909,4,2,7,80,0,0
78024,-90.9090909090909,4,2,7,80,0,0
78280,-90.9090909090909,4,2,7,5,0,0
78365,-90.9090909090909,4,2,7,80,0,0
78876,-90.9090909090909,4,2,7,80,0,0
79387,-90.9090909090909,4,2,7,80,0,0
79728,-90.9090909090909,4,2,7,80,0,0
80666,-90.9090909090909,4,2,7,5,0,0
80751,-90.9090909090909,4,2,7,80,0,0
81092,-90.9090909090909,4,2,7,80,0,0
81348,-90.9090909090909,4,2,7,5,0,0
81433,-90.9090909090909,4,2,7,80,0,0
81774,-90.9090909090909,4,2,7,80,0,0
82029,-90.9090909090909,4,2,7,5,0,0
82115,-90.9090909090909,4,2,7,80,0,0
82456,-90.9090909090909,4,2,7,45,0,0
84331,-90.9090909090909,4,2,7,70,0,0
84501,-90.9090909090909,4,2,7,70,0,0
84757,-90.9090909090909,4,2,7,5,0,0
84842,-90.9090909090909,4,2,7,70,0,0
85183,-90.9090909090909,4,2,7,80,0,0
85439,-90.9090909090909,4,2,7,5,0,0
85524,-90.9090909090909,4,2,7,80,0,0
86120,-90.9090909090909,4,2,7,5,0,0
86206,-90.9090909090909,4,2,7,80,0,0
86461,-90.9090909090909,4,2,7,5,0,0
86546,-90.9090909090909,4,2,7,80,0,0
87910,-90.9090909090909,4,2,7,80,0,0
88251,-90.9090909090909,4,2,7,80,0,0
89189,-90.9090909090909,4,2,7,5,0,0
89274,-90.9090909090909,4,2,7,80,0,0
89529,-90.9090909090909,4,2,7,5,0,0
89615,-90.9090909090909,4,2,7,80,0,0
90211,-90.9090909090909,4,2,7,5,0,0
90296,-90.9090909090909,4,2,7,80,0,0
91319,-90.9090909090909,4,2,7,70,0,0
91660,-90.9090909090909,4,2,7,70,0,0
92683,-90.9090909090909,4,2,7,70,0,0
92938,-90.9090909090909,4,2,7,5,0,0
93024,-90.9090909090909,4,2,7,70,0,0

[Colours]
Combo1 : 208,85,79
Combo2 : 88,124,22
Combo3 : 133,190,46

[HitObjects]
9,40,638,6,0,P|59:44|148:64,1,107.9999902668,2|0,0:0|0:0,0:0:0:0:
155,80,1312,1,2,0:0:0:0:
315,30,2001,2,0,P|281:80|310:122,1,107.9999902668,2|0,0:0|0:0,0:0:0:0:
335,132,2670,1,2,0:0:0:0:
411,295,3365,5,0,0:0:0:0:
498,301,3698,2,0,P|493:262|472:231,1,71.9999935112002
301,241,4722,2,0,P|269:264|253:298,2,71.9999935112002
336,319,5750,1,2,0:0:0:0:
413,275,6093,6,0,P|417:222|378:166,1,107.9999902668,2|0,0:0|0:0,0:0:0:0:
356,153,6744,1,2,0:0:0:0:
494,39,7449,2,0,P|431:30|368:25,1,107.9999902668,2|0,0:0|0:0,0:0:0:0:
341,41,8123,1,2,0:0:0:0:
194,78,8771,5,0,0:0:0:0:
6,25,9481,1,2,0:0:0:0:
60,198,10182,2,0,P|57:244|47:283,1,71.9999935112002,2|2,0:0|0:0,0:0:0:0:
118,316,10848,2,0,P|152:285|187:265,1,71.9999935112002,2|2,0:0|0:0,0:0:0:0:
246,326,11557,6,0,P|264:279|221:200,1,143.9999870224,2|2,0:0|0:0,0:0:0:0:
133,172,12598,1,2,0:0:0:0:
176,102,12924,2,0,B|272:98|239:142|334:128,1,143.9999870224,2|2,0:0|0:0,0:0:0:0:
459,44,14279,6,0,P|464:103|484:196,1,143.9999870224,2|2,0:0|0:0,0:0:0:0:
408,340,15648,2,0,P|405:310|395:264,1,71.9999935112002,2|0,0:0|0:0,0:0:0:0:
313,294,16329,2,0,P|284:271|254:252,1,71.9999935112002,2|2,0:0|0:0,0:0:0:0:
200,311,16999,6,0,P|131:296|121:214,1,143.9999870224,2|2,0:0|0:0,0:0:0:0:
223,109,18363,1,2,0:0:0:0:
141,80,18707,2,0,L|98:88,2,35.9999967556001,0|0|2,0:0|0:0|0:0,0:0:0:0:
280,43,19683,1,0,0:0:0:0:
384,68,20062,2,0,L|377:118,1,39.9999976158142,2|0,0:0|0:0,0:0:0:0:
348,322,21088,5,2,0:0:0:0:
263,339,21430,1,0,0:0:0:0:
214,267,21772,2,0,P|170:276|151:283,1,35.9999967556001
135,271,22114,2,0,P|97:246|79:237,1,35.9999967556001
57,244,22456,5,2,0:0:0:0:
156,80,23137,2,0,P|161:49|154:14,1,39.9999976158142
114,26,23478,1,2,0:0:0:0:
26,65,23819,1,2,0:0:0:0:
84,247,24501,1,0,0:0:0:0:
178,263,24842,2,0,P|173:294|180:329,1,39.9999976158142
188,348,25183,6,0,P|224:349|271:321,1,79.9999952316285,2|2,0:0|0:0,0:0:0:0:
332,262,25865,2,0,P|368:261|415:289,1,79.9999952316285,2|2,0:0|0:0,0:0:0:0:
453,364,26546,1,2,0:0:0:0:
502,178,27228,1,2,0:0:0:0:
413,141,27569,1,2,0:0:0:0:
426,45,27910,6,0,P|384:26|330:32,1,79.9999952316285,2|2,0:0|0:0,0:0:0:0:
286,97,28592,2,0,L|277:138,2,39.9999976158142,0|0|2,0:0|0:0|0:0,0:0:0:0:
217,30,29274,2,0,P|162:40|119:44,1,79.9999952316285,2|0,0:0|0:0,0:0:0:0:
83,121,29956,2,0,P|138:131|181:135,1,79.9999952316285
232,198,30637,6,0,P|238:231|238:250,1,39.9999976158142,2|2,0:0|0:0,0:0:0:0:
240,285,30978,1,2,0:0:0:0:
161,340,31319,1,2,0:0:0:0:
79,288,31660,2,0,L|28:294,2,39.9999976158142,2|2|2,0:0|0:0|0:0,0:0:0:0:
264,339,32683,1,10,0:0:0:0:
330,271,33024,2,0,P|324:225|318:211,1,39.9999976158142,10|8,0:0|0:0,0:0:0:0:
284,197,33365,6,0,P|296:142|336:123,1,87.9999974403381,6|2,3:2|0:0,0:0:0:0:
422,101,34046,2,0,P|410:46|370:27,1,87.9999974403381,10|2,0:0|3:2,0:0:0:0:
280,22,34728,1,2,0:0:0:0:
193,82,35069,1,0,3:2:0:0:
99,33,35410,2,0,P|89:86|69:128,1,87.9999974403381,10|0,0:0|0:0,0:0:0:0:
20,207,36092,6,0,P|30:260|50:302,1,87.9999974403381,0|2,3:2|0:0,0:0:0:0:
62,345,36603,1,0,3:2:0:0:
62,345,36774,2,0,P|136:354|168:361,1,87.9999974403381,10|2,0:0|3:2,0:0:0:0:
253,341,37456,1,2,0:0:0:0:
356,362,37796,1,0,3:2:0:0:
373,257,38137,1,10,0:0:0:0:
476,279,38478,1,2,3:2:0:0:
509,178,38819,6,0,P|510:134|489:96,1,87.9999974403381,2|2,3:2|0:0,0:0:0:0:
437,87,39331,1,0,0:0:0:0:
437,87,39501,2,0,L|428:34,2,43.9999987201691,8|0|2,0:0|0:0|0:0,0:0:0:0:
336,120,40183,2,0,P|279:110|232:104,1,87.9999974403381,2|0,3:2|0:0,0:0:0:0:
200,117,40694,1,0,0:0:0:0:
200,117,40865,1,8,0:0:0:0:
102,157,41206,2,0,P|58:152|44:146,1,43.9999987201691,2|2,0:0|0:0,0:0:0:0:
35,104,41546,6,0,P|30:60|24:46,1,43.9999987201691,2|2,3:2|0:0,0:0:0:0:
8,12,41887,1,2,0:0:0:0:
113,16,42228,2,0,P|134:20|156:20,1,43.9999987201691,10|2,0:0|0:0,0:0:0:0:
208,10,42569,1,2,0:0:0:0:
305,50,42910,2,0,P|326:47|386:17,1,87.9999974403381,2|2,0:0|0:0,0:0:0:0:
440,108,43592,2,0,B|430:160|448:210|470:173|488:221|477:282,1,175.999994880676,10|2,0:0|0:0,0:0:0:0:
478,272,55183,6,0,P|427:266|298:260,1,159.999990463257,2|10,3:2|0:0,0:0:0:0:
224,280,56206,1,2,0:0:0:0:
139,325,56546,1,0,3:2:0:0:
35,224,57058,1,2,0:0:0:0:
35,224,57228,2,0,P|25:165|16:137,1,79.9999952316285,10|0,0:0|0:0,0:0:0:0:
113,128,57910,6,0,P|123:187|132:215,1,79.9999952316285,2|2,3:2|0:0,0:0:0:0:
171,238,58421,1,2,0:0:0:0:
171,238,58592,2,0,P|209:227|249:222,1,79.9999952316285,10|2,0:0|0:0,0:0:0:0:
344,237,59274,1,0,3:2:0:0:
353,141,59615,1,2,0:0:0:0:
448,153,59956,2,0,P|458:191|463:231,1,79.9999952316285,10|2,0:0|0:0,0:0:0:0:
412,300,60637,5,2,3:2:0:0:
287,287,61149,1,2,0:0:0:0:
287,287,61319,2,0,P|281:247|271:208,2,71.9999935112002,10|2|0,0:0|0:0|0:0,0:0:0:0:
178,356,62512,1,0,0:0:0:0:
178,356,62683,2,0,P|142:351|107:342,2,71.9999935112002,10|0|2,0:0|0:0|0:0,0:0:0:0:
178,356,64728,5,0,0:0:0:0:
148,274,65069,1,0,0:0:0:0:
221,229,65410,2,0,P|226:176|240:80,1,143.9999870224,2|2,0:0|0:0,0:0:0:0:
317,262,70524,5,0,0:0:0:0:
286,160,70865,1,10,0:0:0:0:
379,110,71206,2,0,P|376:88|368:67,1,43.9999987201691,10|8,0:0|0:0,0:0:0:0:
320,46,71546,6,0,P|270:41|223:22,1,87.9999974403381,6|2,3:2|0:0,0:0:0:0:
190,8,72058,1,0,0:0:0:0:
190,8,72228,1,8,0:0:0:0:
98,60,72569,2,0,P|129:95|183:108,1,87.9999974403381,2|2,0:0|3:2,0:0:0:0:
254,185,73251,1,0,0:0:0:0:
254,185,73421,1,0,0:0:0:0:
254,185,73592,2,0,P|214:213|166:218,1,87.9999974403381,8|0,0:0|0:0,0:0:0:0:
73,193,74274,5,2,3:2:0:0:
38,292,74615,2,0,P|45:331|48:361,1,43.9999987201691,2|2,0:0|0:0,0:0:0:0:
85,370,74956,2,0,P|153:355|184:358,1,87.9999974403381,10|2,0:0|0:0,0:0:0:0:
259,299,75637,2,0,P|302:300|344:313,1,87.9999974403381,2|2,3:2|0:0,0:0:0:0:
431,373,76319,1,10,0:0:0:0:
494,288,76660,2,0,L|487:234,1,43.9999987201691,2|0,0:0|3:2,0:0:0:0:
480,191,77001,6,0,P|420:184|392:153,1,87.9999974403381,2|2,3:2|0:0,0:0:0:0:
370,123,77512,1,0,0:0:0:0:
370,123,77683,1,8,0:0:0:0:
454,59,78024,1,2,0:0:0:0:
359,11,78365,2,0,P|291:16|243:26,1,87.9999974403381,2|0,3:2|0:0,0:0:0:0:
226,42,78876,1,0,0:0:0:0:
226,42,79046,2,0,P|182:35|138:33,1,87.9999974403381,8|0,0:0|0:0,0:0:0:0:
50,92,79728,6,0,P|52:135|58:179,1,87.9999974403381,2|2,3:2|0:0,0:0:0:0:
91,228,80240,1,2,0:0:0:0:
91,228,80410,1,10,0:0:0:0:
188,186,80751,2,0,P|231:181|262:174,1,43.9999987201691,2|2,0:0|0:0,0:0:0:0:
278,155,81092,2,0,P|299:202|292:245,1,87.9999974403381,2|2,3:2|0:0,0:0:0:0:
266,282,81603,1,0,0:0:0:0:
266,282,81774,1,10,0:0:0:0:
328,367,82115,2,0,L|383:358,1,43.9999987201691,2|0,0:0|3:2,0:0:0:0:
423,353,82456,5,2,0:0:0:0:
485,81,84331,1,2,0:0:0:0:
485,81,84501,2,0,P|437:89|383:100,1,87.9999974403381,10|8,0:0|0:0,0:0:0:0:
354,125,85012,1,8,0:0:0:0:
354,125,85183,6,0,P|298:107|269:67,1,87.9999974403381,6|2,3:2|0:0,0:0:0:0:
214,2,85865,2,0,P|185:34|175:77,1,87.9999974403381,10|2,0:0|0:0,0:0:0:0:
109,159,86546,2,0,P|150:172|179:204,1,87.9999974403381,2|2,3:2|0:0,0:0:0:0:
203,257,87058,1,0,0:0:0:0:
203,257,87228,2,0,P|240:234|283:232,1,87.9999974403381,8|2,0:0|0:0,0:0:0:0:
383,268,87910,5,2,3:2:0:0:
409,370,88251,1,2,0:0:0:0:
409,370,88421,1,0,0:0:0:0:
409,370,88592,2,0,P|474:368|508:341,1,87.9999974403381,8|2,0:0|0:0,0:0:0:0:
487,251,89274,2,0,P|497:184|510:143,1,87.9999974403381,2|0,3:2|0:0,0:0:0:0:
467,133,89785,1,0,0:0:0:0:
467,133,89956,1,8,0:0:0:0:
402,49,90296,2,0,L|343:41,1,43.9999987201691,2|2,0:0|0:0,0:0:0:0:
306,32,90637,5,2,3:2:0:0:
221,95,90978,2,0,L|226:138,1,43.9999987201691,2|2,0:0|0:0,0:0:0:0:
237,190,91319,1,2,0:0:0:0:
315,260,91660,2,0,L|309:303,1,43.9999987201691,2|2,0:0|0:0,0:0:0:0:
330,351,92001,2,0,P|276:362|232:349,1,87.9999974403381,2|0,0:0|0:0,0:0:0:0:
216,309,92512,1,0,0:0:0:0:
216,309,92683,2,0,L|118:297,1,87.9999974403381,2|2,0:0|0:0,0:0:0:0:
23,283,93365,5,2,0:0:0:0:
