osu file format v14

[General]
AudioFilename: audio.mp3
AudioLeadIn: 0
PreviewTime: 70524
Countdown: 0
SampleSet: Soft
StackLeniency: 0.7
Mode: 0
LetterboxInBreaks: 0
WidescreenStoryboard: 1

[Editor]
DistanceSpacing: 1.4
BeatDivisor: 4
GridSize: 32
TimelineZoom: 1.4

[Metadata]
Title:smile more
TitleUnicode:smile more
Artist:sammy rash
ArtistUnicode:sammy rash
Creator:Asphyxia
Version:hard
Source:
Tags:english pop indie male vocal guitar
BeatmapID:4454323
BeatmapSetID:2109584

[Difficulty]
HPDrainRate:4.5
CircleSize:3.8
OverallDifficulty:6
ApproachRate:7.5
SliderMultiplier:2.39999990463257
SliderTickRate:1

[Events]
//Background and Video events
0,0,"bg.jpg",0,0
//Break Periods
2,44956,54358
2,66292,69699
//Storyboard Layer 0 (Background)
//Storyboard Layer 1 (Fail)
//Storyboard Layer 2 (Pass)
//Storyboard Layer 3 (Foreground)
//Storyboard Layer 4 (Overlay)
//Storyboard Sound Samples

[TimingPoints]
638,674.157303370787,4,2,7,60,1,0
638,-166.666666666667,4,2,7,60,0,0
1312,689.655172413793,4,2,7,55,1,0
2001,710.059171597634,4,2,7,55,1,0
2001,-166.666666666667,4,2,7,55,0,0
2533,549.199084668192,4,2,7,55,1,0
2670,695.652173913044,4,2,7,55,1,0
3365,666.666666666667,4,2,7,55,1,0
3365,-166.666666666667,4,2,7,55,0,0
4031,691.64265129683,4,2,7,55,1,0
4722,685.714285714286,4,2,7,55,1,0
4722,-166.666666666667,4,2,7,55,0,0
6093,670.391061452515,4,2,7,55,1,0
6093,-166.666666666667,4,2,7,55,0,0
6595,597.014925373135,4,2,7,55,1,0
6744,705.882352941177,4,2,7,55,1,0
7449,681.818181818183,4,2,7,55,1,0
7449,-166.666666666667,4,2,7,55,0,0
7960,652.173913043479,4,2,7,55,1,0
8123,648.648648648649,4,2,7,55,1,0
8771,740.740740740742,4,2,7,55,1,0
8771,-166.666666666667,4,2,7,55,0,0
9326,623.376623376624,4,2,7,55,1,0
9481,701.754385964913,4,2,7,55,1,0
10182,666.666666666668,4,2,7,55,1,0
10182,-166.666666666667,4,2,7,55,0,0
10848,697.674418604652,4,2,7,55,1,0
10848,-166.666666666667,4,2,7,55,0,0
11196,722.891566265061,4,2,7,55,1,0
11557,689.655172413794,4,2,7,55,1,0
11557,-166.666666666667,4,2,7,55,0,0
12246,705.882352941177,4,2,7,55,1,0
12246,-100,4,2,7,55,0,0
12598,652.173913043479,4,2,7,55,1,0
12598,-100,4,2,7,55,0,0
12924,681.818181818183,4,2,7,55,1,0
12924,-166.666666666667,4,2,7,55,0,0
13605,674.157303370787,4,2,7,55,1,0
13605,-100,4,2,7,55,0,0
14279,693.64161849711,4,2,7,55,1,0
14279,-166.666666666667,4,2,7,55,0,0
14972,-100,4,2,7,55,0,0
15319,659.340659340659,4,2,7,55,1,0
15648,681.818181818182,4,2,7,55,1,0
15648,-166.666666666667,4,2,7,55,0,0
16329,-166.666666666667,4,2,7,55,0,0
16670,659.340659340659,4,2,7,55,1,0
16999,705.882352941176,4,2,7,55,1,0
16999,-166.666666666667,4,2,7,55,0,0
17704,681.818181818182,4,2,7,55,1,0
17704,-166.666666666667,4,2,7,55,0,0
18044,638.297872340426,4,2,7,55,1,0
18363,689.655172413793,4,2,7,55,1,0
18363,-166.666666666667,4,2,7,55,0,0
19052,631.578947368421,4,2,7,55,1,0
19052,-100,4,2,7,55,0,0
19683,759.493670886076,4,2,7,55,1,0
19683,-100,4,2,7,55,0,0
20062,674.157303370787,4,2,7,55,1,0
20399,-100,4,2,7,55,0,0
20736,705.882352941176,4,2,7,55,1,0
20736,-166.666666666667,4,2,7,55,0,0
21088,684.150513112885,4,2,7,55,1,0
21088,-100,4,2,7,55,0,0
21772,-166.666666666667,4,2,7,55,0,0
22456,681.818181818182,4,2,7,60,1,0
22456,-125,4,2,7,60,0,0
22711,-125,4,2,7,5,0,0
22797,-125,4,2,7,60,0,0
23819,-125,4,2,7,60,0,0
26120,-125,4,2,7,5,0,0
26206,-125,4,2,7,60,0,0
27228,-125,4,2,7,60,0,0
27910,-125,4,2,7,70,0,0
28166,-125,4,2,7,5,0,0
28251,-125,4,2,7,70,0,0
29615,-125,4,2,7,70,0,0
29956,-125,4,2,7,70,0,0
30211,-125,4,2,7,5,0,0
30296,-125,4,2,7,70,0,0
31575,-125,4,2,7,5,0,0
31660,-125,4,2,7,70,0,0
32001,-125,4,2,7,70,0,0
32257,-125,4,2,7,5,0,0
32342,-125,4,2,7,70,0,0
32598,-125,4,2,7,5,0,0
32683,-125,4,2,7,70,0,0
33365,-100,4,2,7,80,0,0
33620,-100,4,2,7,5,0,0
33706,-100,4,2,7,80,0,0
34984,-100,4,2,7,5,0,0
35069,-100,4,2,7,80,0,0
36348,-100,4,2,7,5,0,0
36433,-100,4,2,7,80,0,0
37030,-100,4,2,7,5,0,0
37115,-100,4,2,7,80,0,0
37711,-100,4,2,7,5,0,0
37796,-100,4,2,7,80,0,0
39671,-100,4,2,7,80,0,0
40098,-100,4,2,7,5,0,0
40183,-100,4,2,7,80,0,0
40694,-100,4,2,7,80,0,0
55183,-125,4,2,7,70,0,0
56120,-125,4,2,7,5,0,0
56206,-125,4,2,7,70,0,0
57228,-125,4,2,7,70,0,0
57910,-125,4,2,7,70,0,0
58848,-125,4,2,7,5,0,0
58933,-125,4,2,7,70,0,0
59530,-125,4,2,7,5,0,0
59615,-125,4,2,7,70,0,0
59956,-125,4,2,7,70,0,0
60637,-142.857142857143,4,2,7,70,0,0
62171,-142.857142857143,4,2,7,70,0,0
62342,-142.857142857143,4,2,7,50,0,0
62512,-142.857142857143,4,2,7,70,0,0
62683,-142.857142857143,4,2,7,50,0,0
63365,-142.857142857143,4,2,7,40,0,0
70865,-100,4,2,7,70,0,0
71206,-100,4,2,7,70,0,0
71546,-100,4,2,7,80,0,0
71887,-100,4,2,7,80,0,0
72228,-100,4,2,7,70,0,0
72825,-100,4,2,7,5,0,0
72910,-100,4,2,7,80,0,0
73251,-100,4,2,7,80,0,0
74274,-100,4,2,7,80,0,0
74956,-100,4,2,7,80,0,0
75297,-100,4,2,7,80,0,0
75637,-100,4,2,7,80,0,0
75978,-100,4,2,7,80,0,0
76234,-100,4,2,7,5,0,0
76319,-100,4,2,7,80,0,0
77001,-100,4,2,7,80,0,0
77342,-100,4,2,7,80,0,0
78024,-100,4,2,7,80,0,0
78280,-100,4,2,7,5,0,0
78365,-100,4,2,7,80,0,0
78876,-100,4,2,7,80,0,0
79387,-100,4,2,7,80,0,0
79728,-100,4,2,7,80,0,0
80666,-100,4,2,7,5,0,0
80751,-100,4,2,7,80,0,0
81092,-100,4,2,7,80,0,0
81348,-100,4,2,7,5,0,0
81433,-100,4,2,7,80,0,0
81774,-100,4,2,7,80,0,0
82029,-100,4,2,7,5,0,0
82115,-100,4,2,7,80,0,0
82456,-100,4,2,7,45,0,0
84331,-100,4,2,7,70,0,0
84501,-100,4,2,7,70,0,0
84757,-100,4,2,7,5,0,0
84842,-100,4,2,7,70,0,0
85183,-100,4,2,7,80,0,0
85439,-100,4,2,7,5,0,0
85524,-100,4,2,7,80,0,0
86120,-100,4,2,7,5,0,0
86206,-100,4,2,7,80,0,0
86461,-100,4,2,7,5,0,0
86546,-100,4,2,7,80,0,0
87910,-100,4,2,7,80,0,0
88251,-100,4,2,7,80,0,0
89189,-100,4,2,7,5,0,0
89274,-100,4,2,7,80,0,0
89529,-100,4,2,7,5,0,0
89615,-100,4,2,7,80,0,0
90211,-100,4,2,7,5,0,0
90296,-100,4,2,7,80,0,0
91319,-100,4,2,7,70,0,0
91660,-100,4,2,7,70,0,0
92683,-100,4,2,7,70,0,0
92938,-100,4,2,7,5,0,0
93024,-100,4,2,7,70,0,0

[Colours]
Combo1 : 208,85,79
Combo2 : 88,124,22
Combo3 : 133,190,46

[HitObjects]
293,199,638,6,0,P|239:194|204:186,1,71.9999949417116,2|2,0:0|0:0,0:0:0:0:
157,147,1143,1,0,0:0:0:0:
157,147,1312,1,2,0:0:0:0:
293,199,2001,6,0,P|239:194|204:186,1,71.9999949417116,2|2,0:0|0:0,0:0:0:0:
157,147,2533,1,0,0:0:0:0:
215,98,2670,1,2,0:0:0:0:
293,199,3365,6,0,P|239:194|204:186,1,71.9999949417116
157,147,3865,1,0,0:0:0:0:
126,78,4031,1,0,0:0:0:0:
470,24,4722,6,0,P|475:78|483:113,1,71.9999949417116
394,223,5407,2,0,P|396:187|403:151,1,71.9999949417116,0|2,0:0|0:0,0:0:0:0:
477,207,5922,1,0,0:0:0:0:
382,301,6093,6,0,P|420:298|454:275,1,71.9999949417116,2|2,0:0|0:0,0:0:0:0:
477,207,6595,1,0,0:0:0:0:
492,132,6744,1,2,0:0:0:0:
382,301,7449,6,0,P|420:298|454:275,1,71.9999949417116,2|2,0:0|0:0,0:0:0:0:
477,207,7960,1,0,0:0:0:0:
404,182,8123,1,2,0:0:0:0:
382,301,8771,6,0,P|420:298|454:275,1,71.9999949417116,0|2,0:0|0:0,0:0:0:0:
477,207,9326,1,2,0:0:0:0:
477,207,9481,1,2,0:0:0:0:
249,300,10182,6,0,P|284:298|315:280,1,71.9999949417116,2|2,0:0|0:0,0:0:0:0:
382,301,10848,2,0,P|351:283|315:280,1,71.9999949417116,2|2,0:0|0:0,0:0:0:0:
171,315,11557,6,0,P|170:291|174:267,2,47.9999966278078,2|2|2,0:0|0:0|0:0,0:0:0:0:
108,373,12246,6,0,P|36:349|34:285,1,119.999995231629,2|2,0:0|0:0,0:0:0:0:
173,267,12924,6,0,P|174:243|157:183,1,71.9999949417116,2|0,0:0|0:0,0:0:0:0:
111,136,13435,1,0,0:0:0:0:
137,55,13605,6,0,P|193:43|234:84,1,119.999995231629,2|0,0:0|0:0,0:0:0:0:
455,72,14279,6,0,P|445:107|442:163,1,71.9999949417116,2|0,0:0|0:0,0:0:0:0:
474,216,14799,1,0,0:0:0:0:
368,263,14972,6,0,P|365:203|353:144,1,119.999995231629,2|2,0:0|0:0,0:0:0:0:
455,72,15648,6,0,P|445:107|442:163,1,71.9999949417116,2|0,0:0|0:0,0:0:0:0:
473,215,16329,2,0,P|463:250|460:306,1,71.9999949417116,2|2,0:0|0:0,0:0:0:0:
512,374,16999,6,0,L|411:389,1,71.9999949417116,2|0,0:0|0:0,0:0:0:0:
373,342,17528,1,0,0:0:0:0:
297,369,17704,1,2,0:0:0:0:
352,260,18044,5,2,0:0:0:0:
285,137,18363,2,0,P|342:141|382:151,1,71.9999949417116,2|0,0:0|0:0,0:0:0:0:
435,127,18880,1,0,0:0:0:0:
375,65,19052,6,0,P|380:34|385:2,2,59.9999976158143,2|0|0,0:0|0:0|0:0,0:0:0:0:
198,93,19683,5,0,0:0:0:0:
30,69,20062,1,2,0:0:0:0:
113,101,20230,1,0,0:0:0:0:
198,93,20399,1,2,0:0:0:0:
232,229,20736,2,0,P|155:240|140:240,1,71.9999949417116,2|2,0:0|0:0,0:0:0:0:
0,365,21430,1,0,0:0:0:0:
73,338,21601,1,0,0:0:0:0:
73,338,21772,2,0,P|76:302|94:282,1,35.9999974708558
29,210,22114,2,0,P|25:245|7:265,1,35.9999974708558
92,149,22456,6,0,P|83:97|37:56,1,95.9999961853028,2|2,0:0|0:0,0:0:0:0:
236,29,23137,1,0,0:0:0:0:
317,30,23308,1,0,0:0:0:0:
364,96,23478,2,0,P|411:98|471:68,1,95.9999961853028,2|2,0:0|0:0,0:0:0:0:
467,352,24501,2,0,P|419:353|375:336,1,95.9999961853028
350,258,25012,1,0,0:0:0:0:
411,204,25183,6,0,P|430:228|431:256,1,47.9999980926514,2|2,0:0|0:0,0:0:0:0:
350,258,25524,2,0,P|331:234|330:206,1,47.9999980926514,2|2,0:0|0:0,0:0:0:0:
348,138,25865,2,0,P|303:120|256:122,1,95.9999961853028,2|2,0:0|0:0,0:0:0:0:
65,172,26546,2,0,P|112:173|156:156,1,95.9999961853028,2|2,0:0|0:0,0:0:0:0:
194,294,27228,2,0,P|219:254|226:206,1,95.9999961853028,2|2,0:0|0:0,0:0:0:0:
27,288,27910,6,0,P|33:335|59:375,1,95.9999961853028,2|2,0:0|0:0,0:0:0:0:
194,294,28592,1,0,0:0:0:0:
257,345,28762,1,0,0:0:0:0:
313,285,28933,2,0,P|321:231|326:218,1,47.9999980926514,2|0,0:0|0:0,0:0:0:0:
388,311,29274,2,0,P|396:253|412:198,1,95.9999961853028,2|0,0:0|0:0,0:0:0:0:
243,186,29956,2,0,P|235:244|219:299,1,95.9999961853028
151,245,30467,1,0,0:0:0:0:
147,326,30637,6,0,P|123:320|99:318,1,47.9999980926514,2|2,0:0|0:0,0:0:0:0:
25,239,30978,2,0,P|48:241|72:246,1,47.9999980926514,2|2,0:0|0:0,0:0:0:0:
151,245,31319,2,0,P|139:198|133:150,1,95.9999961853028,2|2,0:0|0:0,0:0:0:0:
172,78,31831,1,2,0:0:0:0:
120,15,32001,1,2,0:0:0:0:
426,32,32683,2,0,P|449:35|473:41,1,47.9999980926514,10|0,0:0|0:0,0:0:0:0:
509,114,33024,1,10,0:0:0:0:
450,170,33194,1,8,0:0:0:0:
483,247,33365,5,6,3:2:0:0:
315,233,33706,1,2,0:0:0:0:
149,208,34046,2,0,P|138:147|131:129,1,59.9999976158143,10|0,0:0|0:0,0:0:0:0:
189,81,34387,1,2,3:2:0:0:
32,36,34728,2,0,P|3:84|13:174,1,119.999995231629,2|0,0:0|3:2,0:0:0:0:
44,309,35410,1,10,0:0:0:0:
211,295,35751,2,0,P|266:287|286:282,1,59.9999976158143
316,218,36092,6,0,P|351:283|329:339,1,119.999995231629,0|2,3:2|0:0,0:0:0:0:
420,350,36603,1,0,3:2:0:0:
429,266,36774,2,0,P|410:203|352:144,1,119.999995231629,10|2,0:0|3:2,0:0:0:0:
298,129,37285,1,0,0:0:0:0:
312,45,37456,2,0,P|367:12|430:28,2,119.999995231629,2|0|10,0:0|3:2|0:0,0:0:0:0:
298,129,38308,1,0,0:0:0:0:
221,163,38478,1,2,3:2:0:0:
46,6,38819,6,0,P|75:7|105:11,1,59.9999976158143,2|0,3:2|0:0,0:0:0:0:
83,93,39160,1,2,0:0:0:0:
167,92,39331,1,0,0:0:0:0:
221,163,39501,1,8,0:0:0:0:
386,134,39842,2,0,P|387:163|391:193,1,59.9999976158143,2|0,0:0|0:0,0:0:0:0:
473,176,40183,2,0,P|490:239|481:308,1,119.999995231629,2|0,3:2|0:0,0:0:0:0:
401,296,40694,1,0,0:0:0:0:
337,351,40865,1,8,0:0:0:0:
176,318,41206,1,2,0:0:0:0:
176,318,41376,1,2,0:0:0:0:
100,282,41546,5,2,3:2:0:0:
40,341,41717,1,2,0:0:0:0:
100,282,41887,2,0,P|92:244|73:214,1,59.9999976158143,2|2,0:0|0:0,0:0:0:0:
154,152,42228,2,0,P|162:190|181:220,1,59.9999976158143,10|2,0:0|0:0,0:0:0:0:
262,231,42569,2,0,P|275:204|279:174,1,59.9999976158143,2|2,0:0|0:0,0:0:0:0:
223,77,42910,1,2,0:0:0:0:
382,24,43251,2,0,L|447:16,1,59.9999976158143,2|2,0:0|0:0,0:0:0:0:
481,90,43592,2,0,L|421:97,1,59.9999976158143,10|2,0:0|0:0,0:0:0:0:
388,174,43933,1,2,0:0:0:0:
382,24,44274,5,2,0:0:0:0:
341,127,55183,5,2,3:2:0:0:
179,152,55524,1,2,0:0:0:0:
233,212,55694,2,0,L|226:279,1,47.9999980926514,2|10,0:0|0:0,0:0:0:0:
379,197,56206,2,0,L|372:264,1,47.9999980926514,2|2,0:0|0:0,0:0:0:0:
410,317,56546,1,0,3:2:0:0:
252,358,56887,1,2,0:0:0:0:
171,342,57058,1,2,0:0:0:0:
91,326,57228,1,10,0:0:0:0:
227,236,57569,1,0,0:0:0:0:
84,156,57910,6,0,P|79:87|57:30,1,95.9999961853028,2|2,3:2|0:0,0:0:0:0:
163,52,58421,1,2,0:0:0:0:
163,52,58592,2,0,P|168:121|190:178,1,95.9999961853028,10|2,0:0|0:0,0:0:0:0:
254,126,59103,1,2,0:0:0:0:
292,198,59274,2,0,P|328:158|328:95,1,95.9999961853028,0|2,3:2|0:0,0:0:0:0:
486,189,59956,2,0,P|452:222|444:269,1,95.9999961853028,10|2,0:0|0:0,0:0:0:0:
337,366,60637,6,0,P|328:319|295:285,1,83.9999940986636,2|0,3:2|0:0,0:0:0:0:
261,354,61149,1,2,0:0:0:0:
222,289,61319,2,0,P|191:326|186:373,1,83.9999940986636,10|2,0:0|0:0,0:0:0:0:
47,297,62001,1,0,0:0:0:0:
121,165,62342,1,2,0:0:0:0:
94,94,62512,1,0,0:0:0:0:
94,94,62683,2,0,P|146:75|194:58,1,83.9999940986636,10|0,0:0|0:0,0:0:0:0:
319,103,63365,5,2,0:0:0:0:
319,103,64728,1,0,0:0:0:0:
178,126,65069,1,0,0:0:0:0:
267,165,65410,1,2,0:0:0:0:
267,165,65751,1,0,0:0:0:0:
221,300,66092,5,2,0:0:0:0:
221,300,70524,6,0,P|228:251|237:229,1,41.9999970493318
311,271,70865,2,0,P|304:320|295:342,1,59.9999976158143,10|0,0:0|0:0,0:0:0:0:
131,294,71206,2,0,P|138:245|147:223,1,59.9999976158143,10|8,0:0|0:0,0:0:0:0:
140,153,71546,6,0,B|211:159|183:185|278:188,1,119.999995231629,6|2,3:2|0:0,0:0:0:0:
331,151,72058,1,0,0:0:0:0:
307,70,72228,1,8,0:0:0:0:
458,38,72569,1,2,0:0:0:0:
478,204,72910,2,0,L|469:267,2,59.9999976158143,2|0|0,3:2|0:0|0:0,0:0:0:0:
422,140,73421,1,0,0:0:0:0:
354,189,73592,1,8,0:0:0:0:
223,295,73933,1,0,0:0:0:0:
141,315,74103,1,0,0:0:0:0:
64,280,74274,6,0,P|58:250|53:220,1,59.9999976158143,2|2,3:2|0:0,0:0:0:0:
115,163,74615,2,0,P|120:133|125:103,1,59.9999976158143,2|2,0:0|0:0,0:0:0:0:
154,24,74956,2,0,P|203:55|214:112,1,119.999995231629,10|2,0:0|0:0,0:0:0:0:
207,196,75467,1,0,0:0:0:0:
154,261,75637,2,0,P|200:297|257:289,1,119.999995231629,2|2,3:2|0:0,0:0:0:0:
379,172,76319,2,0,P|433:193|453:248,1,119.999995231629,10|2,0:0|0:0,0:0:0:0:
394,310,76831,1,0,3:2:0:0:
315,279,77001,6,0,P|285:277|257:288,1,59.9999976158143,2|0,3:2|0:0,0:0:0:0:
239,370,77342,1,2,0:0:0:0:
158,345,77512,1,0,0:0:0:0:
74,356,77683,2,0,P|79:326|82:296,1,59.9999976158143,8|0,0:0|0:0,0:0:0:0:
21,238,78024,1,2,0:0:0:0:
85,82,78365,2,0,P|165:88|195:134,1,119.999995231629,2|0,3:2|0:0,0:0:0:0:
202,197,78876,1,0,0:0:0:0:
168,273,79046,2,0,P|226:278|272:241,1,119.999995231629,8|0,0:0|0:0,0:0:0:0:
330,179,79558,1,0,0:0:0:0:
377,247,79728,6,0,P|374:276|387:303,1,59.9999976158143,2|2,3:2|0:0,0:0:0:0:
470,291,80069,2,0,P|472:261|459:234,1,59.9999976158143,2|2,0:0|0:0,0:0:0:0:
416,162,80410,2,0,P|400:105|427:53,1,119.999995231629,10|2,0:0|0:0,0:0:0:0:
509,34,80921,1,2,0:0:0:0:
493,116,81092,1,2,3:2:0:0:
299,125,81433,1,2,0:0:0:0:
220,95,81603,1,0,0:0:0:0:
159,153,81774,2,0,P|129:156|99:162,1,59.9999976158143,10|0,0:0|0:0,0:0:0:0:
136,70,82115,2,0,P|139:40|146:10,1,59.9999976158143,2|0,0:0|3:2,0:0:0:0:
220,95,82456,5,2,0:0:0:0:
304,332,82967,1,0,0:0:0:0:
479,151,83478,1,0,0:0:0:0:
269,182,84331,1,2,0:0:0:0:
229,256,84501,2,0,P|193:220|203:141,1,119.999995231629,10|8,0:0|0:0,0:0:0:0:
253,94,85012,1,8,0:0:0:0:
180,51,85183,6,0,P|123:30|66:12,1,119.999995231629,6|2,3:2|0:0,0:0:0:0:
0,57,85694,1,0,0:0:0:0:
9,140,85865,2,0,P|26:197|47:253,1,119.999995231629,10|2,0:0|0:0,0:0:0:0:
183,351,86546,2,0,P|112:364|73:321,1,119.999995231629,2|2,3:2|0:0,0:0:0:0:
202,275,87058,1,0,0:0:0:0:
118,208,87228,2,0,P|166:175|222:193,1,119.999995231629,8|2,0:0|0:0,0:0:0:0:
294,237,87740,1,0,0:0:0:0:
294,237,87910,6,0,P|299:191|308:155,1,59.9999976158143,2|0,3:2|0:0,0:0:0:0:
446,175,88251,1,2,0:0:0:0:
380,216,88421,2,0,P|374:245|372:275,2,59.9999976158143,0|8|0,0:0|0:0|0:0,0:0:0:0:
446,175,88933,2,0,P|427:113|360:95,1,119.999995231629,2|2,0:0|3:2,0:0:0:0:
299,118,89444,1,0,0:0:0:0:
318,35,89615,2,0,P|367:11|394:14,2,59.9999976158143,0|0|8,0:0|0:0|0:0,0:0:0:0:
168,113,90296,2,0,L|136:54,1,59.9999976158143,2|2,0:0|0:0,0:0:0:0:
144,215,90637,5,2,3:2:0:0:
227,200,90808,1,2,0:0:0:0:
309,183,90978,2,0,L|366:200,1,59.9999976158143,2|2,0:0|0:0,0:0:0:0:
378,93,91319,5,2,0:0:0:0:
461,103,91490,1,2,0:0:0:0:
457,186,91660,2,0,L|474:243,1,59.9999976158143,2|2,0:0|0:0,0:0:0:0:
361,289,92001,5,2,0:0:0:0:
202,334,92342,1,0,0:0:0:0:
277,370,92512,1,0,0:0:0:0:
202,334,92683,2,0,P|161:348|127:354,1,59.9999976158143,2|0,0:0|0:0,0:0:0:0:
90,286,93024,1,2,0:0:0:0:
256,128,93365,1,2,0:0:0:0:
