osu file format v14

[General]
AudioFilename: audio.mp3
AudioLeadIn: 0
PreviewTime: -1
Countdown: 0
SampleSet: None
StackLeniency: 0.7
Mode: 0
LetterboxInBreaks: 0
WidescreenStoryboard: 1

[Editor]
Bookmarks: 83,8430,16778,25126,33474,41822
DistanceSpacing: 2
BeatDivisor: 8
GridSize: 16
TimelineZoom: 2.699999

[Metadata]
Title:Main Menu Theme
TitleUnicode:Main Menu Theme
Artist:samfree
ArtistUnicode:samfree
Creator:Hishiro Chizuru
Version:Xenon's Atomosphere
Source:
Tags:
BeatmapID:1850290
BeatmapSetID:884913

[Difficulty]
HPDrainRate:5.2
CircleSize:3.5
OverallDifficulty:8.2
ApproachRate:8.2
SliderMultiplier:3
SliderTickRate:1

[Events]
//Background and Video events
0,0,"100-Percent-Orange-Juice-Title-Screen.jpg",0,0
//Break Periods
//Storyboard Layer 0 (Background)
//Storyboard Layer 1 (Fail)
//Storyboard Layer 2 (Pass)
//Storyboard Layer 3 (Foreground)
//Storyboard Sound Samples

[TimingPoints]
344,521.739130434783,4,2,0,60,1,0
344,-100,4,2,0,60,0,0
16778,-83.3333333333333,4,2,0,60,0,0
25126,-100,4,2,0,60,0,0

[HitObjects]
192,361,83,5,0,0:0:0:0:
181,263,213,1,0,0:0:0:0:
169,165,344,2,0,B|191:145|191:145|274:156,1,112.5
321,215,604,2,0,P|292:162|332:127,1,112.5
394,104,865,1,0,0:0:0:0:
158,68,1126,5,0,0:0:0:0:
169,165,1257,1,0,0:0:0:0:
181,263,1387,1,0,0:0:0:0:
149,82,1648,5,0,0:0:0:0:
160,165,1778,1,0,0:0:0:0:
170,248,1909,2,0,B|180:337|180:337|162:312,1,112.5
241,220,2170,2,0,L|243:202,6,18.75
312,248,2430,1,0,0:0:0:0:
380,47,2691,5,0,0:0:0:0:
392,161,2822,1,0,0:0:0:0:
406,273,2952,1,0,0:0:0:0:
370,64,3213,5,0,0:0:0:0:
382,159,3344,1,0,0:0:0:0:
393,255,3474,2,0,B|370:274|370:274|287:263,1,112.5
241,205,3735,2,0,P|270:258|230:293,1,112.5
168,316,3996,1,0,0:0:0:0:
370,351,4257,5,0,0:0:0:0:
381,254,4387,1,0,0:0:0:0:
393,156,4517,2,0,B|371:136|371:136|288:146,1,112.5
241,205,4778,2,0,P|270:153|230:117,1,112.5
168,95,5039,1,0,0:0:0:0:
340,314,5300,5,0,0:0:0:0:
351,217,5430,1,0,0:0:0:0:
363,118,5561,1,0,0:0:0:0:
331,300,5822,5,0,0:0:0:0:
341,217,5952,1,0,0:0:0:0:
352,133,6083,2,0,B|362:43|362:43|344:68,1,112.5
423,161,6344,2,0,L|425:179,6,18.75
494,133,6604,1,0,0:0:0:0:
261,126,6865,5,0,0:0:0:0:
275,239,6996,1,0,0:0:0:0:
287,351,7126,2,0,B|364:342|364:342|365:346|365:346|364:342|364:342|436:333,1,150
374,194,7517,1,0,0:0:0:0:
434,253,7648,2,0,B|414:231|414:231|425:147,1,112.5
484,101,7909,2,0,P|431:130|396:90,1,112.5
373,28,8170,1,0,0:0:0:0:
127,127,8430,5,0,0:0:0:0:
224,115,8561,1,0,0:0:0:0:
323,103,8691,2,0,B|368:108|368:108|386:100|386:100|432:107,1,112.5
486,165,8952,2,0,P|512:116|495:60,1,112.5
428,29,9213,1,0,0:0:0:0:
305,194,9474,5,0,0:0:0:0:
207,205,9604,1,0,0:0:0:0:
109,217,9735,1,0,0:0:0:0:
291,186,9996,5,0,0:0:0:0:
207,196,10126,1,0,0:0:0:0:
124,206,10257,2,0,B|95:209|95:209|70:201|70:201|47:215|47:215|17:218,1,112.5
174,273,10517,2,0,L|172:291,6,18.75
207,196,10778,1,0,0:0:0:0:
408,121,11039,5,0,0:0:0:0:
295,109,11170,1,0,0:0:0:0:
182,95,11300,1,0,0:0:0:0:
391,131,11561,5,0,0:0:0:0:
295,119,11691,1,0,0:0:0:0:
200,108,11822,2,0,B|154:102|154:102|135:109|135:109|89:103,1,112.5
37,46,12083,2,0,P|11:95|27:151,1,112.5
95,183,12344,1,0,0:0:0:0:
387,264,12604,5,0,0:0:0:0:
290,276,12735,1,0,0:0:0:0:
191,288,12865,2,0,B|145:282|145:282|126:289|126:289|80:283,1,112.5
28,226,13126,2,0,P|2:275|18:331,1,112.5
86,363,13387,1,0,0:0:0:0:
345,143,13648,5,0,0:0:0:0:
248,132,13778,1,0,0:0:0:0:
149,120,13909,1,0,0:0:0:0:
331,152,14170,5,0,0:0:0:0:
248,142,14300,1,0,0:0:0:0:
164,131,14430,2,0,B|135:127|135:127|110:136|110:136|87:122|87:122|57:118,1,112.5
214,65,14691,2,0,L|212:46,6,18.75
248,142,14952,1,0,0:0:0:0:
408,269,15213,5,0,0:0:0:0:
295,281,15344,1,0,0:0:0:0:
182,295,15474,2,0,B|173:218|173:218|176:217|176:217|173:218|173:218|163:146,1,150
316,112,15865,1,0,0:0:0:0:
269,185,15996,2,0,B|275:139|275:139|268:120|268:120|274:74,1,112.5
331,22,16257,2,0,P|282:-4|226:12,1,112.5
194,80,16518,1,0,0:0:0:0:
388,245,16778,6,0,L|393:200,1,44.999998626709
269,230,16909,2,0,L|269:185,1,44.999998626709
149,245,17039,2,0,L|132:109,1,134.999995880127
42,291,17300,2,0,L|57:157,1,134.999995880127
135,362,17561,1,0,0:0:0:0:
254,66,17822,6,0,L|299:61,1,44.999998626709
269,185,17952,2,0,L|314:185,1,44.999998626709
254,305,18083,2,0,L|299:309,1,44.999998626709
245,83,18344,5,0,0:0:0:0:
258,185,18474,1,0,0:0:0:0:
245,286,18604,2,0,L|111:269,1,134.999995880127
53,348,18865,2,0,L|89:343,6,22.4999993133545
15,254,19126,1,0,0:0:0:0:
389,118,19387,6,0,L|394:168,1,44.999998626709
258,135,19517,2,0,L|258:185,1,44.999998626709
126,118,19648,2,0,L|121:168,1,44.999998626709
378,107,19909,6,0,L|383:152,1,44.999998626709
258,122,20039,2,0,L|258:167,1,44.999998626709
138,107,20170,2,0,L|121:243,1,134.999995880127
44,318,20430,2,0,L|28:184,1,134.999995880127
150,346,20691,1,0,0:0:0:0:
238,87,20952,6,0,L|283:83,1,44.999998626709
253,206,21083,2,0,L|298:206,1,44.999998626709
238,326,21213,2,0,L|374:343,1,134.999995880127
177,261,21474,2,0,L|43:276,1,134.999995880127
150,346,21735,1,0,0:0:0:0:
414,136,21996,6,0,L|418:181,1,44.999998626709
295,151,22126,2,0,L|295:196,1,44.999998626709
175,136,22257,2,0,L|170:181,1,44.999998626709
396,127,22517,5,0,0:0:0:0:
295,140,22648,1,0,0:0:0:0:
193,127,22778,2,0,L|176:261,1,134.999995880127
252,59,23039,2,0,L|249:37,6,22.4999993133545
295,140,23300,1,0,0:0:0:0:
440,39,23561,6,0,L|390:35,1,44.999998626709
423,171,23691,2,0,L|373:171,1,44.999998626709
440,303,23822,2,0,B|349:313|349:313|348:309|348:309|349:313|349:313|265:324,1,179.999994506836
202,235,24213,2,0,L|197:280,1,44.999998626709
169,152,24344,2,0,L|305:169,1,134.999995880127
122,260,24604,2,0,L|256:244,1,134.999995880127
52,166,24865,1,0,0:0:0:0:
279,47,25126,5,0,0:0:0:0:
268,145,25256,1,0,0:0:0:0:
256,243,25387,2,0,B|278:263|278:263|361:252,1,112.5
459,219,25648,2,0,P|401:218|359:251,1,112.5
431,298,25908,1,0,0:0:0:0:
158,302,26169,5,0,0:0:0:0:
169,205,26300,1,0,0:0:0:0:
181,107,26430,1,0,0:0:0:0:
149,288,26691,5,0,0:0:0:0:
160,205,26821,1,0,0:0:0:0:
170,122,26952,2,0,B|180:33|180:33|162:58,1,112.5
241,150,27213,2,0,L|243:168,6,18.75
312,122,27473,1,0,0:0:0:0:
132,323,27734,5,0,0:0:0:0:
120,209,27865,1,0,0:0:0:0:
106,97,27995,1,0,0:0:0:0:
142,306,28256,5,0,0:0:0:0:
130,211,28387,1,0,0:0:0:0:
119,115,28517,2,0,B|141:95|141:95|224:106,1,112.5
322,139,28778,2,0,P|264:139|222:106,1,112.5
293,60,29038,1,0,0:0:0:0:
130,18,29300,5,0,0:0:0:0:
119,115,29430,1,0,0:0:0:0:
107,213,29561,2,0,B|129:233|129:233|212:222,1,112.5
310,189,29821,2,0,P|252:188|210:221,1,112.5
281,268,30082,1,0,0:0:0:0:
358,36,30343,5,0,0:0:0:0:
369,133,30473,1,0,0:0:0:0:
381,232,30604,1,0,0:0:0:0:
349,50,30865,5,0,0:0:0:0:
359,133,30995,1,0,0:0:0:0:
370,217,31126,2,0,B|380:307|380:307|362:282,1,112.5
441,189,31387,2,0,L|443:171,6,18.75
512,217,31647,1,0,0:0:0:0:
251,244,31908,5,0,0:0:0:0:
237,131,32039,1,0,0:0:0:0:
225,19,32169,2,0,B|148:28|148:28|147:24|147:24|148:28|148:28|76:37,1,150
138,176,32560,1,0,0:0:0:0:
78,117,32691,2,0,B|98:139|98:139|87:222,1,112.5
54,320,32952,2,0,P|53:262|86:220,1,112.5
133,291,33212,1,0,0:0:0:0:
440,275,33473,5,0,0:0:0:0:
343,287,33604,1,0,0:0:0:0:
244,299,33735,2,0,B|195:293|195:293|182:297|182:297|134:291,1,112.5
96,184,33996,2,0,P|74:218|79:178,1,112.5
62,336,34256,1,0,0:0:0:0:
341,63,34517,5,0,0:0:0:0:
243,74,34647,1,0,0:0:0:0:
145,86,34778,1,0,0:0:0:0:
327,55,35039,5,0,0:0:0:0:
243,65,35169,1,0,0:0:0:0:
160,75,35300,2,0,B|131:78|131:78|106:70|106:70|83:84|83:84|53:87,1,112.5
210,142,35561,2,0,L|208:160,6,18.75
243,65,35821,1,0,0:0:0:0:
39,232,36082,5,0,0:0:0:0:
152,244,36213,1,0,0:0:0:0:
265,258,36343,1,0,0:0:0:0:
56,222,36604,5,0,0:0:0:0:
152,234,36734,1,0,0:0:0:0:
246,245,36865,2,0,B|295:251|295:251|308:247|308:247|356:253,1,112.5
413,184,37126,2,0,P|417:143|396:178,1,112.5
440,263,37386,1,0,0:0:0:0:
0,189,37647,5,0,0:0:0:0:
97,177,37778,1,0,0:0:0:0:
196,165,37909,2,0,B|245:159|245:159|258:163|258:163|306:157,1,112.5
344,50,38170,2,0,P|365:84|360:44,1,112.5
378,202,38430,1,0,0:0:0:0:
310,366,38691,5,0,0:0:0:0:
213,355,38821,1,0,0:0:0:0:
114,343,38952,1,0,0:0:0:0:
296,375,39213,5,0,0:0:0:0:
213,365,39343,1,0,0:0:0:0:
129,354,39474,2,0,B|100:350|100:350|75:359|75:359|52:345|52:345|22:341,1,112.5
179,288,39734,2,0,L|177:269,6,18.75
213,365,39995,1,0,0:0:0:0:
176,93,40257,5,0,0:0:0:0:
289,81,40387,1,0,0:0:0:0:
402,67,40517,2,0,B|411:144|411:144|408:145|408:145|411:144|411:144|421:216,1,150
268,250,40908,1,0,0:0:0:0:
315,177,41039,2,0,B|309:226|309:226|313:239|313:239|307:287,1,112.5
376,344,41300,2,0,P|416:348|381:327,1,112.5
297,371,41560,1,0,0:0:0:0:
