osu file format v14

[General]
AudioFilename: audio.mp3
AudioLeadIn: 0
PreviewTime: -1
Countdown: 1
SampleSet: Soft
StackLeniency: 0.7
Mode: 0
LetterboxInBreaks: 0
WidescreenStoryboard: 1

[Editor]
Bookmarks: 8691
DistanceSpacing: 0.7
BeatDivisor: 4
GridSize: 8
TimelineZoom: 1

[Metadata]
Title:Main Menu Theme
TitleUnicode:Main Menu Theme
Artist:samfree
ArtistUnicode:samfree
Creator:Hishiro Chizuru
Version:Mir's Krusty Krab Remix
Source:
Tags:
BeatmapID:1850194
BeatmapSetID:884913

[Difficulty]
HPDrainRate:5
CircleSize:4
OverallDifficulty:7
ApproachRate:9
SliderMultiplier:3
SliderTickRate:1

[Events]
//Background and Video events
0,0,"nigward.png",0,0
//Break Periods
//Storyboard Layer 0 (Background)
//Storyboard Layer 1 (Fail)
//Storyboard Layer 2 (Pass)
//Storyboard Layer 3 (Foreground)
//Storyboard Sound Samples

[TimingPoints]
344,521.739130434783,4,2,0,100,1,0
344,-133.333333333333,4,2,0,100,0,0

[HitObjects]
167,69,83,5,0,0:0:0:0:
167,69,213,1,0,0:0:0:0:
167,69,344,2,0,B|230:82|221:45|284:57,2,112.500004291535
55,120,1126,1,0,0:0:0:0:
55,120,1257,1,0,0:0:0:0:
55,120,1387,2,0,P|40:183|40:254,1,112.500004291535
91,309,1778,1,0,0:0:0:0:
91,309,1909,2,0,P|170:286|220:280,1,112.500004291535
317,230,2430,6,0,L|299:379,1,112.500004291535
395,340,2822,1,0,0:0:0:0:
395,340,2952,2,0,L|408:228,1,112.500004291535
508,229,3344,1,0,0:0:0:0:
508,229,3474,2,0,L|494:340,2,112.500004291535
216,66,4257,5,0,0:0:0:0:
216,66,4387,1,0,0:0:0:0:
216,66,4517,2,0,P|123:37|80:31,2,112.500004291535
285,155,5300,1,0,0:0:0:0:
285,155,5430,1,0,0:0:0:0:
285,155,5560,2,0,P|378:126|421:120,1,112.500004291535
477,185,5952,1,0,0:0:0:0:
477,185,6083,2,0,L|465:318,1,112.500004291535
382,314,6604,6,0,P|310:297|243:316,1,112.500004291535
275,209,6996,1,0,0:0:0:0:
275,209,7126,2,0,P|330:203|384:219,1,112.500004291535
389,130,7517,1,0,0:0:0:0:
389,130,7647,2,0,P|335:114|280:120,2,112.500004291535
167,315,8430,5,0,0:0:0:0:
167,315,8560,1,0,0:0:0:0:
167,315,8691,2,0,B|230:302|221:339|284:327,2,112.500004291535
55,264,9473,1,0,0:0:0:0:
55,264,9604,1,0,0:0:0:0:
55,264,9734,2,0,P|40:201|40:130,1,112.500004291535
91,75,10125,1,0,0:0:0:0:
91,75,10256,2,0,P|170:98|220:104,1,112.500004291535
317,154,10777,6,0,L|299:5,1,112.500004291535
395,44,11169,1,0,0:0:0:0:
395,44,11299,2,0,L|408:155,1,112.500004291535
508,155,11691,1,0,0:0:0:0:
508,155,11821,2,0,L|494:43,2,112.500004291535
216,318,12604,5,0,0:0:0:0:
216,318,12734,1,0,0:0:0:0:
216,318,12864,2,0,P|123:347|80:353,2,112.500004291535
285,229,13647,1,0,0:0:0:0:
285,229,13777,1,0,0:0:0:0:
285,229,13907,2,0,P|378:258|421:264,1,112.500004291535
477,199,14299,1,0,0:0:0:0:
477,199,14430,2,0,L|465:66,1,112.500004291535
382,70,14951,6,0,P|310:87|243:68,1,112.500004291535
275,175,15343,1,0,0:0:0:0:
275,175,15473,2,0,P|330:180|384:164,1,112.500004291535
389,254,15864,1,0,0:0:0:0:
389,253,15994,2,0,P|335:269|280:264,2,112.500004291535
379,103,16778,5,0,0:0:0:0:
379,103,16908,1,0,0:0:0:0:
379,103,17039,2,0,B|366:166|403:157|391:220,2,112.500004291535
345,31,17821,1,0,0:0:0:0:
345,31,17952,1,0,0:0:0:0:
345,31,18082,2,0,P|282:16|211:16,1,112.500004291535
139,27,18473,1,0,0:0:0:0:
139,27,18604,2,0,P|162:106|168:156,1,112.500004291535
218,253,19125,6,0,L|69:235,1,112.500004291535
108,331,19517,1,0,0:0:0:0:
108,331,19647,2,0,L|219:344,1,112.500004291535
314,371,20039,1,0,0:0:0:0:
314,371,20169,2,0,L|327:259,2,112.500004291535
382,152,20952,5,0,0:0:0:0:
382,152,21082,1,0,0:0:0:0:
382,152,21212,2,0,P|411:59|417:16,2,112.500004291535
293,221,21995,1,0,0:0:0:0:
293,221,22125,1,0,0:0:0:0:
293,221,22255,2,0,P|322:314|328:357,1,112.500004291535
241,382,22647,1,0,0:0:0:0:
241,382,22778,2,0,L|108:370,1,112.500004291535
37,278,23299,6,0,P|54:206|35:139,1,112.500004291535
142,171,23691,1,0,0:0:0:0:
142,171,23821,2,0,P|147:226|131:280,1,112.500004291535
221,285,24212,1,0,0:0:0:0:
220,285,24342,2,0,P|236:231|230:175,2,112.500004291535
400,96,25126,5,0,0:0:0:0:
400,96,25256,1,0,0:0:0:0:
400,96,25387,2,0,B|336:92|354:59|290:54,2,112.500004291535
495,174,26169,1,0,0:0:0:0:
495,174,26300,1,0,0:0:0:0:
495,174,26430,2,0,P|493:239|475:307,1,112.500004291535
412,347,26821,1,0,0:0:0:0:
412,347,26952,2,0,P|341:305|294:286,1,112.500004291535
214,212,27473,6,0,L|192:361,1,112.500004291535
110,298,27865,1,0,0:0:0:0:
110,298,27995,2,0,L|126:187,1,112.500004291535
29,162,28387,1,0,0:0:0:0:
29,162,28517,2,0,L|14:273,2,112.500004291535
354,80,29300,5,0,0:0:0:0:
354,80,29430,1,0,0:0:0:0:
354,80,29560,2,0,P|451:76|494:82,2,112.500004291535
264,148,30343,1,0,0:0:0:0:
264,148,30473,1,0,0:0:0:0:
264,148,30603,2,0,P|182:96|142:79,1,112.500004291535
71,128,30995,1,0,0:0:0:0:
71,128,31126,2,0,L|48:259,1,112.500004291535
129,277,31647,6,0,P|203:279|263:315,1,112.500004291535
260,203,32039,1,0,0:0:0:0:
260,203,32169,2,0,P|207:183|151:185,1,112.500004291535
170,97,32560,1,0,0:0:0:0:
169,97,32690,2,0,P|225:95|277:115,2,112.500004291535
167,315,33474,5,0,0:0:0:0:
167,315,33604,1,0,0:0:0:0:
167,315,33735,2,0,B|230:302|221:339|284:327,2,112.500004291535
55,264,34517,1,0,0:0:0:0:
55,264,34648,1,0,0:0:0:0:
55,264,34778,2,0,P|40:201|40:130,1,112.500004291535
91,75,35169,1,0,0:0:0:0:
91,75,35300,2,0,P|170:98|220:104,1,112.500004291535
317,154,35821,6,0,L|299:5,1,112.500004291535
395,44,36213,1,0,0:0:0:0:
395,44,36343,2,0,L|408:155,1,112.500004291535
508,155,36735,1,0,0:0:0:0:
508,155,36865,2,0,L|494:43,2,112.500004291535
216,318,37648,5,0,0:0:0:0:
216,318,37778,1,0,0:0:0:0:
216,318,37908,2,0,P|123:347|80:353,2,112.500004291535
285,229,38691,1,0,0:0:0:0:
285,229,38821,1,0,0:0:0:0:
285,229,38951,2,0,P|378:258|421:264,1,112.500004291535
477,199,39343,1,0,0:0:0:0:
477,199,39474,2,0,L|465:66,1,112.500004291535
382,70,39995,6,0,P|310:87|243:68,1,112.500004291535
275,175,40387,1,0,0:0:0:0:
275,175,40517,2,0,P|330:180|384:164,1,112.500004291535
389,254,40908,1,0,0:0:0:0:
389,253,41038,2,0,P|335:269|280:264,2,112.500004291535
