osu file format v14

[General]
AudioFilename: audio.mp3
AudioLeadIn: 0
PreviewTime: -1
Countdown: 1
SampleSet: Soft
StackLeniency: 0.7
Mode: 0
LetterboxInBreaks: 0
WidescreenStoryboard: 1

[Editor]
Bookmarks: 8691
DistanceSpacing: 1
BeatDivisor: 4
GridSize: 8
TimelineZoom: 1

[Metadata]
Title:Main Menu Theme
TitleUnicode:Main Menu Theme
Artist:samfree
ArtistUnicode:samfree
Creator:Hishiro Chizuru
Version:Lasse's owo
Source:
Tags:
BeatmapID:1850216
BeatmapSetID:884913

[Difficulty]
HPDrainRate:5
CircleSize:4.4
OverallDifficulty:8
ApproachRate:8.2
SliderMultiplier:3.19999990463257
SliderTickRate:1

[Events]
//Background and Video events
0,0,"100-Percent-Orange-Juice-Title-Screen.jpg",0,0
//Break Periods
//Storyboard Layer 0 (Background)
//Storyboard Layer 1 (Fail)
//Storyboard Layer 2 (Pass)
//Storyboard Layer 3 (Foreground)
//Storyboard Sound Samples

[TimingPoints]
344,521.739130434783,4,2,0,60,1,0
344,-100,4,2,0,60,0,0
8430,-90.9090909090909,4,2,0,60,0,0
16778,-83.3333333333333,4,2,0,60,0,0
25126,-76.9230769230769,4,2,0,60,0,0
33474,-71.4285714285714,4,2,0,60,0,0

[HitObjects]
72,50,83,5,0,0:0:0:0:
147,23,213,1,0,0:0:0:0:
132,101,344,1,0,0:0:0:0:
128,120,604,1,0,0:0:0:0:
124,139,865,1,0,0:0:0:0:
62,319,1126,5,0,0:0:0:0:
0,268,1257,1,0,0:0:0:0:
75,240,1387,1,0,0:0:0:0:
191,355,1648,5,0,0:0:0:0:
253,304,1779,1,0,0:0:0:0:
178,276,1909,1,0,0:0:0:0:
175,257,2170,1,0,0:0:0:0:
256,88,2430,5,0,0:0:0:0:
457,185,2691,5,0,0:0:0:0:
468,105,2822,1,0,0:0:0:0:
394,134,2952,1,0,0:0:0:0:
461,189,3213,5,0,0:0:0:0:
472,109,3344,1,0,0:0:0:0:
398,138,3474,1,0,0:0:0:0:
204,344,4257,5,0,0:0:0:0:
175,269,4388,1,0,0:0:0:0:
125,331,4518,1,0,0:0:0:0:
113,345,4778,1,0,0:0:0:0:
101,359,5039,1,0,0:0:0:0:
0,186,5300,5,0,0:0:0:0:
74,154,5431,1,0,0:0:0:0:
65,233,5561,1,0,0:0:0:0:
249,141,5822,5,0,0:0:0:0:
185,92,5953,1,0,0:0:0:0:
174,171,6083,1,0,0:0:0:0:
170,189,6344,1,0,0:0:0:0:
290,11,6604,5,0,0:0:0:0:
464,115,6865,5,0,0:0:0:0:
512,51,6996,1,0,0:0:0:0:
433,40,7126,1,0,0:0:0:0:
360,294,7517,5,0,0:0:0:0:
437,315,7648,1,0,0:0:0:0:
97,228,8430,5,0,0:0:0:0:
49,301,8560,1,0,0:0:0:0:
137,306,8691,1,0,0:0:0:0:
148,320,8952,1,0,0:0:0:0:
159,334,9213,1,0,0:0:0:0:
86,147,9474,5,0,0:0:0:0:
5,112,9604,1,0,0:0:0:0:
16,199,9735,1,0,0:0:0:0:
247,78,9996,5,0,0:0:0:0:
190,10,10126,1,0,0:0:0:0:
161,92,10257,1,0,0:0:0:0:
166,109,10517,1,0,0:0:0:0:
357,28,10778,5,0,0:0:0:0:
451,198,11039,5,0,0:0:0:0:
474,112,11170,1,0,0:0:0:0:
389,136,11300,1,0,0:0:0:0:
455,202,11561,5,0,0:0:0:0:
478,116,11692,1,0,0:0:0:0:
393,140,11822,1,0,0:0:0:0:
486,279,12604,5,0,2:0:0:0:
512,364,12735,1,0,0:0:0:0:
426,344,12865,1,0,0:0:0:0:
413,356,13126,1,0,0:0:0:0:
400,368,13387,1,0,0:0:0:0:
308,208,13647,5,0,0:0:0:0:
382,253,13777,1,0,0:0:0:0:
384,167,13909,1,0,0:0:0:0:
223,130,14170,5,0,0:0:0:0:
243,45,14300,1,0,0:0:0:0:
305,104,14432,1,0,0:0:0:0:
321,99,14691,1,0,0:0:0:0:
140,9,14952,5,0,0:0:0:0:
0,165,15213,5,0,0:0:0:0:
60,99,15344,1,0,0:0:0:0:
86,184,15474,1,0,0:0:0:0:
0,360,15865,5,0,0:0:0:0:
79,320,15996,1,0,0:0:0:0:
339,329,16778,5,0,0:0:0:0:
401,256,16908,1,0,0:0:0:0:
433,346,17039,1,0,0:0:0:0:
448,354,17300,1,0,0:0:0:0:
463,362,17560,1,0,0:0:0:0:
482,197,17822,5,0,0:0:0:0:
391,229,17952,1,0,0:0:0:0:
409,135,18083,1,0,0:0:0:0:
247,110,18344,5,0,0:0:0:0:
326,164,18474,1,0,0:0:0:0:
333,69,18605,1,0,0:0:0:0:
342,54,18865,1,0,0:0:0:0:
229,224,19125,5,0,0:0:0:0:
136,54,19387,5,0,0:0:0:0:
43,26,19517,1,0,0:0:0:0:
66,119,19648,1,0,0:0:0:0:
140,58,19909,5,0,0:0:0:0:
47,30,20039,1,0,0:0:0:0:
70,123,20170,1,0,0:0:0:0:
266,344,20952,5,0,0:0:0:0:
346,289,21082,1,0,0:0:0:0:
259,248,21213,1,0,0:0:0:0:
245,257,21473,1,0,0:0:0:0:
231,265,21734,1,0,0:0:0:0:
342,133,21996,5,0,0:0:0:0:
439,130,22126,1,0,0:0:0:0:
392,213,22257,1,0,0:0:0:0:
284,46,22517,5,0,0:0:0:0:
191,18,22647,1,0,0:0:0:0:
214,111,22778,1,0,0:0:0:0:
201,123,23039,1,0,0:0:0:0:
0,60,23299,5,0,0:0:0:0:
130,252,23561,5,0,0:0:0:0:
88,164,23691,1,0,0:0:0:0:
34,243,23822,1,0,0:0:0:0:
285,346,24212,5,0,0:0:0:0:
310,253,24343,1,0,0:0:0:0:
512,89,25126,5,0,0:0:0:0:
456,175,25255,1,0,0:0:0:0:
409,83,25387,1,0,0:0:0:0:
404,67,25647,1,0,0:0:0:0:
401,51,25908,1,0,0:0:0:0:
217,141,26170,5,0,0:0:0:0:
273,55,26299,1,0,0:0:0:0:
320,147,26431,1,0,0:0:0:0:
461,281,26691,5,0,0:0:0:0:
405,195,26820,1,0,0:0:0:0:
358,287,26952,1,0,0:0:0:0:
342,291,27212,1,0,0:0:0:0:
217,141,27473,5,0,0:0:0:0:
0,288,27735,5,0,0:0:0:0:
95,323,27864,1,0,0:0:0:0:
79,222,27996,1,0,0:0:0:0:
4,292,28257,5,0,0:0:0:0:
99,327,28386,1,0,0:0:0:0:
83,226,28518,1,0,0:0:0:0:
375,287,29300,5,0,0:0:0:0:
334,191,29430,1,0,0:0:0:0:
437,203,29561,1,0,0:0:0:0:
448,192,29821,1,0,0:0:0:0:
460,181,30082,1,0,0:0:0:0:
283,116,30344,5,0,0:0:0:0:
329,22,30474,1,0,0:0:0:0:
387,108,30605,1,0,0:0:0:0:
180,101,30865,5,0,0:0:0:0:
218,197,30995,1,0,0:0:0:0:
283,116,31126,1,0,0:0:0:0:
295,106,31386,1,0,0:0:0:0:
314,338,31647,5,0,0:0:0:0:
512,209,31909,5,0,0:0:0:0:
446,127,32039,1,0,0:0:0:0:
408,224,32170,1,0,0:0:0:0:
218,18,32560,5,0,0:0:0:0:
191,119,32691,1,0,0:0:0:0:
0,309,33474,5,0,0:0:0:0:
110,293,33604,1,0,0:0:0:0:
42,206,33735,1,0,0:0:0:0:
37,189,33996,1,0,0:0:0:0:
33,172,34256,1,0,0:0:0:0:
237,133,34517,5,0,0:0:0:0:
195,30,34647,1,0,0:0:0:0:
127,117,34778,1,0,0:0:0:0:
278,211,35039,5,0,0:0:0:0:
320,108,35169,1,0,0:0:0:0:
388,195,35300,1,0,0:0:0:0:
405,193,35561,1,0,0:0:0:0:
512,32,35821,5,0,0:0:0:0:
447,296,36083,5,0,0:0:0:0:
405,193,36213,1,0,0:0:0:0:
337,280,36344,1,0,0:0:0:0:
451,300,36604,5,0,0:0:0:0:
409,197,36734,1,0,0:0:0:0:
341,284,36865,1,0,0:0:0:0:
0,225,37648,5,0,0:0:0:0:
42,122,37778,1,0,0:0:0:0:
110,209,37909,1,0,0:0:0:0:
126,210,38169,1,0,0:0:0:0:
141,209,38430,1,0,0:0:0:0:
339,62,38691,5,0,0:0:0:0:
235,22,38821,1,0,0:0:0:0:
252,131,38952,1,0,0:0:0:0:
424,226,39213,5,0,0:0:0:0:
343,148,39343,1,0,0:0:0:0:
317,256,39474,1,0,0:0:0:0:
312,274,39735,1,0,0:0:0:0:
165,77,39995,5,0,0:0:0:0:
0,312,40257,5,0,0:0:0:0:
42,209,40387,1,0,0:0:0:0:
110,296,40518,1,0,0:0:0:0:
356,46,40908,5,0,0:0:0:0:
248,12,41039,1,0,0:0:0:0:
