osu file format v14

[General]
AudioFilename: audio.mp3
AudioLeadIn: 0
PreviewTime: -1
Countdown: 1
SampleSet: Soft
StackLeniency: 0.7
Mode: 0
LetterboxInBreaks: 0
WidescreenStoryboard: 0

[Editor]
DistanceSpacing: 0.7
BeatDivisor: 4
GridSize: 8
TimelineZoom: 1

[Metadata]
Title:Main Menu Theme
TitleUnicode:Main Menu Theme
Artist:samfree
ArtistUnicode:samfree
Creator:Hishiro Chizuru
Version:Easy
Source:
Tags:
BeatmapID:1849586
BeatmapSetID:884913

[Difficulty]
HPDrainRate:5
CircleSize:3
OverallDifficulty:5
ApproachRate:7
SliderMultiplier:2
SliderTickRate:1

[Events]
//Background and Video events
0,0,"100-Percent-Orange-Juice-Title-Screen.jpg",0,0
//Break Periods
//Storyboard Layer 0 (Background)
//Storyboard Layer 1 (Fail)
//Storyboard Layer 2 (Pass)
//Storyboard Layer 3 (Foreground)
//Storyboard Sound Samples

[TimingPoints]
344,521.739130434783,4,2,0,100,1,0
344,-133.333333333333,4,2,0,100,0,0

[HitObjects]
88,43,344,6,0,B|89:90|76:125|79:139|79:139|91:144|108:138|133:144,1,150.000005722046
236,145,1387,2,0,B|234:192|247:227|244:241|244:241|232:246|215:240|190:246,1,150.000005722046
87,251,2430,1,0,0:0:0:0:
143,339,2952,1,0,0:0:0:0:
232,283,3474,2,0,B|279:284|314:271|328:274|328:274|333:286|327:303|333:328,1,150.000005722046
426,279,4517,6,0,B|424:231|437:196|434:182|434:182|422:177|405:183|380:177,1,150.000005722046
276,177,5561,2,0,B|277:224|264:259|267:273|267:273|279:278|296:272|321:278,1,150.000005722046
388,198,6604,1,0,0:0:0:0:
358,97,7126,1,0,0:0:0:0:
259,61,7648,2,0,B|257:108|270:143|267:157|267:157|255:162|238:156|213:162,1,150.000005722046
110,162,8691,6,0,B|111:209|98:244|101:258|101:258|113:263|130:257|155:263,1,150.000005722046
258,255,9735,2,0,B|259:302|246:337|249:351|249:351|261:356|278:350|303:356,1,150.000005722046
383,290,10778,1,0,0:0:0:0:
359,187,11300,1,0,0:0:0:0:
451,136,11822,2,0,B|449:88|462:53|459:39|459:39|447:34|430:40|405:34,1,150.000005722046
303,51,12865,6,0,B|304:98|291:133|294:147|294:147|306:152|323:146|348:152,1,150.000005722046
451,157,13909,2,0,B|449:204|462:239|459:253|459:253|447:258|430:252|405:258,1,150.000005722046
302,261,14952,1,0,0:0:0:0:
232,339,15474,1,0,0:0:0:0:
145,279,15996,2,0,B|143:231|156:196|153:182|153:182|141:177|124:183|99:177,1,150.000005722046
3,138,17039,6,0,B|4:90|-8:55|-5:41|-5:41|6:36|23:42|48:36,1,150.000005722046
151,44,18083,2,0,B|152:91|139:126|142:140|142:140|154:145|171:139|196:145,1,150.000005722046
295,115,19126,1,0,0:0:0:0:
391,157,19648,1,0,0:0:0:0:
472,222,20170,2,0,B|470:269|483:304|480:318|480:318|468:323|451:317|426:323,1,150.000005722046
323,332,21213,6,0,B|321:284|334:249|331:235|331:235|319:230|302:236|277:230,1,150.000005722046
173,230,22257,2,0,B|171:182|184:147|181:133|181:133|169:128|152:134|127:128,1,150.000005722046
27,101,23300,1,0,0:0:0:0:
94,20,23822,1,0,0:0:0:0:
195,45,24344,1,0,0:0:0:0:
195,45,25387,6,0,B|196:92|183:127|186:141|186:141|198:146|215:140|240:146,1,150.000005722046
343,146,26430,2,0,B|344:193|331:228|334:242|334:242|346:247|363:241|388:247,1,150.000005722046
486,279,27474,1,0,0:0:0:0:
416,357,27996,1,0,0:0:0:0:
315,327,28517,2,0,B|267:325|232:338|218:335|218:335|213:323|219:306|213:281,1,150.000005722046
187,181,29561,6,0,B|185:133|198:98|195:84|195:84|183:79|166:85|141:79,1,150.000005722046
39,96,30604,2,0,B|40:143|27:178|30:192|30:192|42:197|59:191|84:197,1,150.000005722046
149,278,31648,1,0,0:0:0:0:
67,344,32170,1,0,0:0:0:0:
8,257,32691,2,0,B|9:209|-3:174|0:160|0:160|11:155|28:161|53:155,1,150.000005722046
150,119,33735,6,0,B|151:166|138:201|141:215|141:215|153:220|170:214|195:220,1,150.000005722046
298,211,34778,2,0,B|299:163|286:128|289:114|289:114|301:109|318:115|343:109,1,150.000005722046
430,53,35822,1,0,0:0:0:0:
444,157,36344,1,0,0:0:0:0:
401,253,36865,2,0,B|399:300|412:335|409:349|409:349|397:354|380:348|355:354,1,150.000005722046
253,332,37909,6,0,B|251:285|264:250|261:236|261:236|249:231|232:237|207:231,1,150.000005722046
103,237,38952,2,0,B|105:190|92:155|95:141|95:141|107:136|124:142|149:136,1,150.000005722046
241,88,39996,1,0,0:0:0:0:
328,145,40517,1,0,0:0:0:0:
412,82,41039,2,0,B|415:103|411:122|416:137|416:137|427:139|441:134|457:139,2,75.0000028610231
