osu file format v14

[General]
AudioFilename: audio.mp3
AudioLeadIn: 0
PreviewTime: 69222
Countdown: 0
SampleSet: Normal
StackLeniency: 0.3
Mode: 1
LetterboxInBreaks: 0
WidescreenStoryboard: 0

[Editor]
Bookmarks: 49156,109471
DistanceSpacing: 0.8
BeatDivisor: 8
GridSize: 32
TimelineZoom: 1

[Metadata]
Title:afterDEADafter
TitleUnicode:afterDEADafter
Artist:samayuzame
ArtistUnicode:samayuzame
Creator:Alchyr
Version:oni
Source:
Tags:hip hop rap
BeatmapID:2100327
BeatmapSetID:935878

[Difficulty]
HPDrainRate:7
CircleSize:2
OverallDifficulty:5
ApproachRate:10
SliderMultiplier:1.4
SliderTickRate:1

[Events]
//Background and Video events
0,0,"bg.jpg",0,0
//Break Periods
//Storyboard Layer 0 (Background)
//Storyboard Layer 1 (Fail)
//Storyboard Layer 2 (Pass)
//Storyboard Layer 3 (Foreground)
//Storyboard Layer 4 (Overlay)
//Storyboard Sound Samples

[TimingPoints]
7376,628.272251308901,4,1,0,70,1,0
9261,-150.15015015015,4,1,0,70,0,0
9889,-125,4,1,0,70,0,0
14602,628.272251308901,4,1,0,70,1,0
14602,-125,4,1,0,70,0,0
18371,-125,4,1,0,70,0,0
18528,-121.951219512195,4,1,0,70,0,0
18607,-120.481927710843,4,1,0,70,0,0
18685,-119.047619047619,4,1,0,70,0,0
18842,-117.647058823529,4,1,0,70,0,0
18921,-116.279069767442,4,1,0,70,0,0
18999,-114.942528735632,4,1,0,70,0,0
19078,-113.636363636364,4,1,0,70,0,0
19156,-112.359550561798,4,1,0,70,0,0
19314,628.272251308901,4,1,0,70,1,0
19942,-111.111111111111,4,1,0,70,0,0
24026,628.272251308901,4,1,0,70,1,0
24026,-111.111111111111,4,1,0,70,0,0
26539,-100,4,1,0,70,0,0
28109,-94.3396226415094,4,1,0,70,0,0
28266,-89.2857142857143,4,1,0,70,0,0
28423,-84.7457627118644,4,1,0,70,0,0
28502,-81.9672131147541,4,1,0,70,0,0
28580,-79.3650793650794,4,1,0,70,0,0
28659,-76.9230769230769,4,1,0,70,0,0
28738,-74.6268656716418,4,1,0,70,0,0
28816,-72.463768115942,4,1,0,70,0,0
28895,-70.4225352112676,4,1,0,70,0,0
28973,-68.4931506849315,4,1,0,70,0,0
29052,-66.6666666666667,4,1,0,70,0,0
99104,-62.5,4,1,0,70,0,0
99261,-66.6666666666667,4,1,0,70,0,0
106957,-100,4,1,0,70,0,0
108528,-83.3333333333333,4,1,0,70,0,0
108685,-71.4285714285714,4,1,0,70,0,0
108842,-50,4,1,0,70,0,0
109471,-66.6666666666667,4,1,0,70,0,1
113868,-50,4,1,0,70,0,1
114183,-66.6666666666667,4,1,0,70,0,1
149052,-66.6666666666667,4,1,0,70,0,0

[HitObjects]
160,192,9261,6,0,B|176:224|176:224|160:256,1,69.9300017072754
64,64,9889,1,0,0:0:0:0:
320,64,10517,1,8,0:0:0:0:
64,64,11303,1,0,0:0:0:0:
64,64,11617,1,0,0:0:0:0:
320,64,11774,1,8,0:0:0:0:
64,64,12403,1,0,0:0:0:0:
320,64,12874,1,8,0:0:0:0:
320,64,13449,1,8,0:0:0:0:
64,64,13815,1,0,0:0:0:0:
64,64,14130,1,0,0:0:0:0:
320,64,14287,1,8,0:0:0:0:
64,64,14602,1,0,0:0:0:0:
320,64,15230,1,8,0:0:0:0:
64,64,16015,1,0,0:0:0:0:
64,64,16329,1,0,0:0:0:0:
320,64,16486,1,8,0:0:0:0:
64,64,17115,1,0,0:0:0:0:
320,64,17429,1,8,0:0:0:0:
320,64,17586,1,8,0:0:0:0:
320,64,18371,1,8,0:0:0:0:
64,64,18528,1,0,0:0:0:0:
64,64,18607,1,0,0:0:0:0:
320,64,18685,1,8,0:0:0:0:
64,64,18842,1,0,0:0:0:0:
64,64,18921,1,0,0:0:0:0:
320,64,18999,1,8,0:0:0:0:
320,64,19078,1,8,0:0:0:0:
64,64,19156,1,0,0:0:0:0:
320,64,19314,1,8,0:0:0:0:
64,64,19942,1,0,0:0:0:0:
320,64,20413,1,8,0:0:0:0:
64,64,20727,1,0,0:0:0:0:
64,64,21041,1,0,0:0:0:0:
320,64,21198,1,8,0:0:0:0:
64,64,21827,1,0,0:0:0:0:
64,64,22141,1,0,0:0:0:0:
320,64,22298,1,8,0:0:0:0:
64,64,23240,1,0,0:0:0:0:
64,64,23554,1,0,0:0:0:0:
320,64,23711,1,8,0:0:0:0:
64,64,24026,1,0,0:0:0:0:
320,64,24654,1,8,0:0:0:0:
64,64,25439,1,0,0:0:0:0:
64,64,25753,1,0,0:0:0:0:
320,64,25910,1,8,0:0:0:0:
320,64,25989,1,8,0:0:0:0:
64,64,26067,1,0,0:0:0:0:
320,64,26224,1,8,0:0:0:0:
64,64,26303,1,0,0:0:0:0:
320,64,26382,1,8,0:0:0:0:
64,64,26539,5,4,0:0:0:0:
320,64,26853,1,8,0:0:0:0:
320,64,27481,1,8,0:0:0:0:
320,64,28109,1,8,0:0:0:0:
64,64,28266,1,0,0:0:0:0:
64,64,28423,1,0,0:0:0:0:
64,64,28502,1,0,0:0:0:0:
320,64,28580,1,8,0:0:0:0:
320,64,28738,1,8,0:0:0:0:
64,64,28895,1,0,0:0:0:0:
320,64,29052,1,8,0:0:0:0:
320,64,29209,1,8,0:0:0:0:
64,64,29366,1,0,0:0:0:0:
64,64,29444,1,0,0:0:0:0:
320,64,29523,1,8,0:0:0:0:
64,64,29680,1,0,0:0:0:0:
320,64,29837,1,8,0:0:0:0:
320,64,30151,1,8,0:0:0:0:
320,64,30230,1,8,0:0:0:0:
64,64,30308,1,0,0:0:0:0:
320,64,30465,1,8,0:0:0:0:
64,64,30779,1,0,0:0:0:0:
64,64,30858,1,0,0:0:0:0:
320,64,30936,1,8,0:0:0:0:
320,64,31094,1,8,0:0:0:0:
320,64,31408,1,8,0:0:0:0:
64,64,31565,1,0,0:0:0:0:
64,64,31722,1,0,0:0:0:0:
320,64,31879,1,8,0:0:0:0:
320,64,32036,1,8,0:0:0:0:
64,64,32193,1,0,0:0:0:0:
64,64,32350,1,0,0:0:0:0:
320,64,32507,1,8,0:0:0:0:
64,64,32664,1,0,0:0:0:0:
320,64,32821,1,8,0:0:0:0:
320,64,32978,1,8,0:0:0:0:
64,64,33135,1,0,0:0:0:0:
64,64,33450,1,0,0:0:0:0:
320,64,33607,1,8,0:0:0:0:
64,64,33764,1,0,0:0:0:0:
320,64,34078,1,8,0:0:0:0:
64,64,34183,1,0,0:0:0:0:
64,64,34287,1,0,0:0:0:0:
320,64,34392,1,8,0:0:0:0:
64,64,34706,1,0,0:0:0:0:
320,64,34863,1,8,0:0:0:0:
64,64,35020,1,0,0:0:0:0:
64,64,35177,1,0,0:0:0:0:
320,64,35334,1,8,0:0:0:0:
320,64,35439,1,8,0:0:0:0:
320,64,35544,1,8,0:0:0:0:
64,64,35649,1,0,0:0:0:0:
320,64,35963,1,8,0:0:0:0:
320,64,36277,1,8,0:0:0:0:
320,64,36434,1,8,0:0:0:0:
64,64,36591,1,0,0:0:0:0:
320,64,36748,1,8,0:0:0:0:
64,64,36905,1,0,0:0:0:0:
320,64,37219,1,8,0:0:0:0:
320,64,37376,1,8,0:0:0:0:
64,64,37533,1,0,0:0:0:0:
64,64,37690,1,0,0:0:0:0:
320,64,37847,1,8,0:0:0:0:
64,64,38005,1,0,0:0:0:0:
320,64,38162,1,8,0:0:0:0:
64,64,38319,1,0,0:0:0:0:
64,64,38633,1,0,0:0:0:0:
320,64,38790,1,8,0:0:0:0:
320,64,39104,1,8,0:0:0:0:
64,64,39418,1,0,0:0:0:0:
64,64,39497,1,0,0:0:0:0:
64,64,39575,1,0,0:0:0:0:
320,64,39732,1,8,0:0:0:0:
320,64,40046,1,8,0:0:0:0:
320,64,40204,1,8,0:0:0:0:
64,64,40361,1,0,0:0:0:0:
64,64,40518,1,0,0:0:0:0:
320,64,40675,1,8,0:0:0:0:
64,64,40832,1,0,0:0:0:0:
320,64,40989,1,8,0:0:0:0:
320,64,41146,1,8,0:0:0:0:
64,64,41303,1,0,0:0:0:0:
320,64,41460,1,8,0:0:0:0:
64,64,41617,1,0,0:0:0:0:
64,64,41774,1,0,0:0:0:0:
64,64,41931,1,0,0:0:0:0:
320,64,42088,1,8,0:0:0:0:
64,64,42402,1,0,0:0:0:0:
320,64,42560,1,8,0:0:0:0:
320,64,42874,1,8,0:0:0:0:
64,64,43031,1,0,0:0:0:0:
64,64,43345,1,0,0:0:0:0:
320,64,43502,1,8,0:0:0:0:
320,64,43659,1,8,0:0:0:0:
64,64,43816,1,0,0:0:0:0:
64,64,43973,1,0,0:0:0:0:
320,64,44130,1,8,0:0:0:0:
64,64,44287,1,0,0:0:0:0:
320,64,44444,1,8,0:0:0:0:
64,64,44601,1,0,0:0:0:0:
64,64,44758,1,0,0:0:0:0:
320,64,44916,1,8,0:0:0:0:
64,64,45230,1,0,0:0:0:0:
64,64,45387,1,0,0:0:0:0:
64,64,45544,1,0,0:0:0:0:
320,64,45701,1,8,0:0:0:0:
64,64,45779,1,0,0:0:0:0:
320,64,45858,1,8,0:0:0:0:
64,64,46172,1,0,0:0:0:0:
320,64,46329,1,8,0:0:0:0:
64,64,46486,1,0,0:0:0:0:
320,64,46643,1,8,0:0:0:0:
320,64,46800,1,8,0:0:0:0:
64,64,46957,1,0,0:0:0:0:
64,64,47115,1,0,0:0:0:0:
320,64,47272,1,8,0:0:0:0:
64,64,47429,1,0,0:0:0:0:
320,64,47586,1,8,0:0:0:0:
320,64,47743,1,8,0:0:0:0:
64,64,47900,1,0,0:0:0:0:
64,64,48214,1,0,0:0:0:0:
320,64,48371,1,8,0:0:0:0:
256,192,48528,12,0,48999,0:0:0:0:
320,64,49156,5,8,0:0:0:0:
320,64,49313,1,8,0:0:0:0:
320,64,49471,1,8,0:0:0:0:
320,64,49785,1,8,0:0:0:0:
64,64,50099,1,0,0:0:0:0:
64,64,50256,1,0,0:0:0:0:
320,64,50413,1,8,0:0:0:0:
64,64,50570,1,0,0:0:0:0:
320,64,50727,1,8,0:0:0:0:
64,64,50884,1,0,0:0:0:0:
320,64,51041,1,8,0:0:0:0:
320,64,51355,1,8,0:0:0:0:
320,64,51512,1,8,0:0:0:0:
64,64,51669,1,0,0:0:0:0:
64,64,51827,1,0,0:0:0:0:
320,64,51984,1,8,0:0:0:0:
64,64,52298,1,0,0:0:0:0:
64,64,52455,1,0,0:0:0:0:
64,64,52533,1,0,0:0:0:0:
320,64,52612,1,8,0:0:0:0:
320,64,52769,1,8,0:0:0:0:
64,64,52926,1,0,0:0:0:0:
64,64,53083,1,0,0:0:0:0:
320,64,53240,1,8,0:0:0:0:
64,64,53554,1,0,0:0:0:0:
320,64,53711,1,8,0:0:0:0:
320,64,53868,1,8,0:0:0:0:
64,64,54183,1,0,0:0:0:0:
320,64,54340,1,8,0:0:0:0:
320,64,54418,1,8,0:0:0:0:
64,64,54497,1,0,0:0:0:0:
320,64,54654,1,8,0:0:0:0:
64,64,54811,1,0,0:0:0:0:
64,64,54968,1,0,0:0:0:0:
320,64,55125,1,8,0:0:0:0:
320,64,55282,1,8,0:0:0:0:
64,64,55439,1,0,0:0:0:0:
320,64,55596,1,8,0:0:0:0:
64,64,55753,1,0,0:0:0:0:
64,64,55910,1,0,0:0:0:0:
320,64,56067,1,8,0:0:0:0:
64,64,56224,1,0,0:0:0:0:
320,64,56382,1,8,0:0:0:0:
64,64,56539,1,0,0:0:0:0:
64,64,56696,1,0,0:0:0:0:
320,64,56853,1,8,0:0:0:0:
320,64,57010,1,8,0:0:0:0:
64,64,57167,1,0,0:0:0:0:
320,64,57324,1,8,0:0:0:0:
64,64,57481,1,0,0:0:0:0:
320,64,57638,1,8,0:0:0:0:
320,64,57795,1,8,0:0:0:0:
320,64,58109,1,8,0:0:0:0:
64,64,58266,1,0,0:0:0:0:
64,64,58423,1,0,0:0:0:0:
320,64,58580,1,8,0:0:0:0:
64,64,58790,1,0,0:0:0:0:
64,64,58999,1,0,0:0:0:0:
320,64,59209,1,8,0:0:0:0:
64,64,59366,1,0,0:0:0:0:
320,64,59523,1,8,0:0:0:0:
320,64,59837,1,8,0:0:0:0:
64,64,59994,1,0,0:0:0:0:
320,64,60151,1,8,0:0:0:0:
320,64,60308,1,8,0:0:0:0:
64,64,60465,1,0,0:0:0:0:
320,64,60622,1,8,0:0:0:0:
64,64,60936,1,0,0:0:0:0:
64,64,61015,1,0,0:0:0:0:
320,64,61094,1,8,0:0:0:0:
64,64,61251,1,0,0:0:0:0:
320,64,61408,1,8,0:0:0:0:
320,64,61565,1,8,0:0:0:0:
64,64,61722,1,0,0:0:0:0:
320,64,61879,1,8,0:0:0:0:
320,64,62193,1,8,0:0:0:0:
320,64,62272,1,8,0:0:0:0:
64,64,62350,1,0,0:0:0:0:
64,64,62507,1,0,0:0:0:0:
320,64,62664,1,8,0:0:0:0:
64,64,62821,1,0,0:0:0:0:
64,64,63135,1,0,0:0:0:0:
320,64,63293,1,8,0:0:0:0:
64,64,63450,1,0,0:0:0:0:
320,64,63607,1,8,0:0:0:0:
64,64,63764,1,0,0:0:0:0:
64,64,63843,1,0,0:0:0:0:
320,64,63921,1,8,0:0:0:0:
320,64,64078,1,8,0:0:0:0:
64,64,64235,1,0,0:0:0:0:
320,64,64392,1,8,0:0:0:0:
64,64,64549,1,0,0:0:0:0:
64,64,64706,1,0,0:0:0:0:
320,64,64863,1,8,0:0:0:0:
320,64,65177,1,8,0:0:0:0:
320,64,65491,1,8,0:0:0:0:
64,64,65649,1,0,0:0:0:0:
320,64,65806,1,8,0:0:0:0:
320,64,65963,1,8,0:0:0:0:
64,64,66120,1,0,0:0:0:0:
64,64,66277,1,0,0:0:0:0:
320,64,66434,1,8,0:0:0:0:
64,64,66748,1,0,0:0:0:0:
320,64,66905,1,8,0:0:0:0:
320,64,67062,1,8,0:0:0:0:
320,64,67219,1,8,0:0:0:0:
64,64,67376,1,0,0:0:0:0:
320,64,67533,1,8,0:0:0:0:
64,64,67690,1,0,0:0:0:0:
320,64,68005,1,8,0:0:0:0:
320,64,68083,1,8,0:0:0:0:
320,64,68162,1,8,0:0:0:0:
320,64,68240,1,8,0:0:0:0:
64,64,68319,1,0,0:0:0:0:
64,64,68476,1,0,0:0:0:0:
320,64,68633,1,8,0:0:0:0:
64,64,68947,1,0,0:0:0:0:
64,64,69026,1,0,0:0:0:0:
64,64,69104,1,0,0:0:0:0:
320,64,69261,1,8,0:0:0:0:
64,64,69471,1,0,0:0:0:0:
320,64,69575,1,8,0:0:0:0:
64,64,69680,1,0,0:0:0:0:
320,64,69889,1,8,0:0:0:0:
64,64,70099,1,0,0:0:0:0:
320,64,70204,1,8,0:0:0:0:
64,64,70308,1,0,0:0:0:0:
320,64,70518,1,8,0:0:0:0:
64,64,70675,1,0,0:0:0:0:
64,64,70989,1,0,0:0:0:0:
320,64,71146,1,8,0:0:0:0:
64,64,71303,1,0,0:0:0:0:
320,64,71460,1,8,0:0:0:0:
64,64,71774,1,0,0:0:0:0:
320,64,71984,1,8,0:0:0:0:
64,64,72088,1,0,0:0:0:0:
320,64,72193,1,8,0:0:0:0:
64,64,72402,1,0,0:0:0:0:
320,64,72612,1,8,0:0:0:0:
64,64,72717,1,0,0:0:0:0:
320,64,72821,1,8,0:0:0:0:
320,64,73031,1,8,0:0:0:0:
64,64,73188,1,0,0:0:0:0:
64,64,73502,1,0,0:0:0:0:
320,64,73659,1,8,0:0:0:0:
320,64,73816,1,8,0:0:0:0:
64,64,73973,1,0,0:0:0:0:
320,64,74287,1,8,0:0:0:0:
320,64,74497,1,8,0:0:0:0:
320,64,74601,1,8,0:0:0:0:
64,64,74706,1,0,0:0:0:0:
320,64,74916,1,8,0:0:0:0:
320,64,75126,1,8,0:0:0:0:
320,64,75230,1,8,0:0:0:0:
64,64,75335,1,0,0:0:0:0:
320,64,75544,1,8,0:0:0:0:
64,64,75701,1,0,0:0:0:0:
64,64,76015,1,0,0:0:0:0:
320,64,76172,1,8,0:0:0:0:
64,64,76486,1,0,0:0:0:0:
320,64,76643,1,8,0:0:0:0:
64,64,76800,1,0,0:0:0:0:
320,64,77010,1,8,0:0:0:0:
320,64,77219,1,8,0:0:0:0:
64,64,77429,1,0,0:0:0:0:
320,64,77638,1,8,0:0:0:0:
64,64,77847,1,0,0:0:0:0:
320,64,78057,1,8,0:0:0:0:
64,64,78266,1,0,0:0:0:0:
64,64,78476,1,0,0:0:0:0:
320,64,78685,1,8,0:0:0:0:
64,64,78842,1,0,0:0:0:0:
64,64,78921,1,0,0:0:0:0:
320,64,78999,1,8,0:0:0:0:
64,64,79156,1,0,0:0:0:0:
320,64,79313,1,8,0:0:0:0:
64,64,79523,1,0,0:0:0:0:
320,64,79628,1,8,0:0:0:0:
64,64,79732,1,0,0:0:0:0:
320,64,79942,1,8,0:0:0:0:
64,64,80151,1,0,0:0:0:0:
320,64,80256,1,8,0:0:0:0:
64,64,80361,1,0,0:0:0:0:
320,64,80570,1,8,0:0:0:0:
64,64,80727,1,0,0:0:0:0:
64,64,81041,1,0,0:0:0:0:
320,64,81198,1,8,0:0:0:0:
64,64,81355,1,0,0:0:0:0:
320,64,81512,1,8,0:0:0:0:
64,64,81827,1,0,0:0:0:0:
320,64,82036,1,8,0:0:0:0:
64,64,82141,1,0,0:0:0:0:
320,64,82245,1,8,0:0:0:0:
64,64,82455,1,0,0:0:0:0:
320,64,82664,1,8,0:0:0:0:
64,64,82769,1,0,0:0:0:0:
320,64,82874,1,8,0:0:0:0:
320,64,83083,1,8,0:0:0:0:
64,64,83240,1,0,0:0:0:0:
64,64,83554,1,0,0:0:0:0:
320,64,83711,1,8,0:0:0:0:
64,64,83868,1,0,0:0:0:0:
320,64,84026,1,8,0:0:0:0:
320,64,84183,1,8,0:0:0:0:
64,64,84340,1,0,0:0:0:0:
64,64,84549,1,0,0:0:0:0:
64,64,84654,1,0,0:0:0:0:
320,64,84758,1,8,0:0:0:0:
64,64,84968,1,0,0:0:0:0:
64,64,85177,1,0,0:0:0:0:
64,64,85282,1,0,0:0:0:0:
320,64,85386,1,8,0:0:0:0:
320,64,85596,1,8,0:0:0:0:
64,64,85753,1,0,0:0:0:0:
64,64,86067,1,0,0:0:0:0:
320,64,86224,1,8,0:0:0:0:
64,64,86382,1,0,0:0:0:0:
320,64,86539,1,8,0:0:0:0:
320,64,86696,1,8,0:0:0:0:
64,64,86853,1,0,0:0:0:0:
320,64,87062,1,8,0:0:0:0:
64,64,87167,1,0,0:0:0:0:
320,64,87272,1,8,0:0:0:0:
320,64,87481,1,8,0:0:0:0:
64,64,87638,1,0,0:0:0:0:
64,64,87952,1,0,0:0:0:0:
64,64,88266,1,0,0:0:0:0:
64,64,88580,1,0,0:0:0:0:
320,64,88738,1,8,0:0:0:0:
320,64,88895,1,8,0:0:0:0:
64,64,89052,1,0,0:0:0:0:
320,64,89209,1,8,0:0:0:0:
64,64,89366,1,0,0:0:0:0:
64,64,89523,1,0,0:0:0:0:
64,64,89837,1,0,0:0:0:0:
64,64,89916,1,0,0:0:0:0:
320,64,89994,1,8,0:0:0:0:
64,64,90151,1,0,0:0:0:0:
320,64,90465,1,8,0:0:0:0:
320,64,90622,1,8,0:0:0:0:
64,64,90779,1,0,0:0:0:0:
320,64,90936,1,8,0:0:0:0:
64,64,91094,1,0,0:0:0:0:
320,64,91408,1,8,0:0:0:0:
64,64,91565,1,0,0:0:0:0:
64,64,91722,1,0,0:0:0:0:
320,64,91879,1,8,0:0:0:0:
320,64,91957,1,8,0:0:0:0:
64,64,92036,1,0,0:0:0:0:
64,64,92193,1,0,0:0:0:0:
320,64,92350,1,8,0:0:0:0:
64,64,92507,1,0,0:0:0:0:
320,64,92821,1,8,0:0:0:0:
320,64,92978,1,8,0:0:0:0:
64,64,93135,1,0,0:0:0:0:
64,64,93293,1,0,0:0:0:0:
320,64,93450,1,8,0:0:0:0:
64,64,93607,1,0,0:0:0:0:
320,64,93921,1,8,0:0:0:0:
320,64,94078,1,8,0:0:0:0:
320,64,94235,1,8,0:0:0:0:
64,64,94392,1,0,0:0:0:0:
64,64,94471,1,0,0:0:0:0:
320,64,94549,1,8,0:0:0:0:
320,64,94706,1,8,0:0:0:0:
64,64,94863,1,0,0:0:0:0:
64,64,95020,1,0,0:0:0:0:
320,64,95177,1,8,0:0:0:0:
320,64,95491,1,8,0:0:0:0:
64,64,95806,1,0,0:0:0:0:
64,64,96120,1,0,0:0:0:0:
320,64,96434,1,8,0:0:0:0:
320,64,96591,1,8,0:0:0:0:
320,64,96748,1,8,0:0:0:0:
64,64,96905,1,0,0:0:0:0:
64,64,97062,1,0,0:0:0:0:
64,64,97141,1,0,0:0:0:0:
320,64,97219,1,8,0:0:0:0:
320,64,97376,1,8,0:0:0:0:
64,64,97533,1,0,0:0:0:0:
320,64,97690,1,8,0:0:0:0:
64,64,98005,1,0,0:0:0:0:
320,64,98162,1,8,0:0:0:0:
64,64,98319,1,0,0:0:0:0:
320,64,98476,1,8,0:0:0:0:
64,64,98633,1,0,0:0:0:0:
64,64,98790,1,0,0:0:0:0:
64,64,98947,1,0,0:0:0:0:
320,64,99104,1,8,0:0:0:0:
64,64,99418,1,0,0:0:0:0:
64,64,99575,1,0,0:0:0:0:
64,64,99732,1,0,0:0:0:0:
64,64,99889,1,0,0:0:0:0:
320,64,100046,1,8,0:0:0:0:
320,64,100361,1,8,0:0:0:0:
64,64,100675,1,0,0:0:0:0:
64,64,100832,1,0,0:0:0:0:
320,64,100989,1,8,0:0:0:0:
64,64,101146,1,0,0:0:0:0:
320,64,101303,1,8,0:0:0:0:
320,64,101460,1,8,0:0:0:0:
320,64,101774,1,8,0:0:0:0:
64,64,101931,1,0,0:0:0:0:
64,64,102088,1,0,0:0:0:0:
64,64,102167,1,0,0:0:0:0:
320,64,102245,1,8,0:0:0:0:
320,64,102402,1,8,0:0:0:0:
64,64,102560,1,0,0:0:0:0:
320,64,102717,1,8,0:0:0:0:
320,64,103031,1,8,0:0:0:0:
64,64,103345,1,0,0:0:0:0:
320,64,103502,1,8,0:0:0:0:
64,64,103659,1,0,0:0:0:0:
320,64,103816,1,8,0:0:0:0:
64,64,104130,1,0,0:0:0:0:
320,64,104287,1,8,0:0:0:0:
64,64,104444,1,0,0:0:0:0:
64,64,104601,1,0,0:0:0:0:
320,64,104758,1,8,0:0:0:0:
64,64,104916,1,0,0:0:0:0:
320,64,105073,1,8,0:0:0:0:
320,64,105230,1,8,0:0:0:0:
64,64,105387,1,0,0:0:0:0:
320,64,105544,1,8,0:0:0:0:
64,64,105701,1,0,0:0:0:0:
64,64,105858,1,0,0:0:0:0:
320,64,106015,1,8,0:0:0:0:
64,64,106172,1,0,0:0:0:0:
320,64,106329,1,8,0:0:0:0:
320,64,106486,1,8,0:0:0:0:
64,64,106957,1,4,0:0:0:0:
320,64,107272,1,8,0:0:0:0:
320,64,107900,1,8,0:0:0:0:
64,64,108371,1,0,0:0:0:0:
320,64,108528,1,8,0:0:0:0:
64,64,108685,1,0,0:0:0:0:
256,192,108842,12,0,109313,0:0:0:0:
64,64,109471,5,0,0:0:0:0:
64,64,109575,1,0,0:0:0:0:
320,64,109680,1,8,0:0:0:0:
320,64,109889,1,8,0:0:0:0:
320,64,110099,1,8,0:0:0:0:
320,64,110204,1,8,0:0:0:0:
64,64,110308,1,0,0:0:0:0:
64,64,110518,1,0,0:0:0:0:
320,64,110727,1,8,0:0:0:0:
64,64,110884,1,0,0:0:0:0:
64,64,111198,1,0,0:0:0:0:
320,64,111355,1,8,0:0:0:0:
320,64,111565,1,8,0:0:0:0:
320,64,111774,1,8,0:0:0:0:
64,64,111984,1,0,0:0:0:0:
320,64,112088,1,8,0:0:0:0:
64,64,112193,1,0,0:0:0:0:
320,64,112402,1,8,0:0:0:0:
64,64,112612,1,0,0:0:0:0:
320,64,112717,1,8,0:0:0:0:
64,64,112821,1,0,0:0:0:0:
64,64,113031,1,0,0:0:0:0:
320,64,113240,1,8,0:0:0:0:
64,64,113397,1,0,0:0:0:0:
64,64,113711,1,0,0:0:0:0:
320,64,113868,1,8,0:0:0:0:
320,64,114183,1,8,0:0:0:0:
320,64,114340,1,8,0:0:0:0:
320,64,114418,1,8,0:0:0:0:
64,64,114497,1,0,0:0:0:0:
64,64,114601,1,0,0:0:0:0:
320,64,114706,1,8,0:0:0:0:
64,64,114916,1,0,0:0:0:0:
64,64,115125,1,0,0:0:0:0:
64,64,115230,1,0,0:0:0:0:
320,64,115334,1,8,0:0:0:0:
64,64,115544,1,0,0:0:0:0:
320,64,115753,1,8,0:0:0:0:
64,64,115910,1,0,0:0:0:0:
64,64,116224,1,0,0:0:0:0:
320,64,116382,1,8,0:0:0:0:
320,64,116539,1,8,0:0:0:0:
64,64,116853,1,0,0:0:0:0:
320,64,117010,1,8,0:0:0:0:
320,64,117115,1,8,0:0:0:0:
64,64,117219,1,0,0:0:0:0:
320,64,117429,1,8,0:0:0:0:
320,64,117638,1,8,0:0:0:0:
320,64,117743,1,8,0:0:0:0:
64,64,117847,1,0,0:0:0:0:
64,64,118057,1,0,0:0:0:0:
320,64,118266,1,8,0:0:0:0:
320,64,118423,1,8,0:0:0:0:
64,64,118738,1,0,0:0:0:0:
320,64,118895,1,8,0:0:0:0:
64,64,118999,1,0,0:0:0:0:
64,64,119104,1,0,0:0:0:0:
64,64,119209,1,0,0:0:0:0:
64,64,119313,1,0,0:0:0:0:
64,64,119418,1,0,0:0:0:0:
320,64,119523,1,8,0:0:0:0:
64,64,119680,1,0,0:0:0:0:
320,64,119837,1,8,0:0:0:0:
320,64,119994,1,8,0:0:0:0:
64,64,120151,1,0,0:0:0:0:
320,64,120308,1,8,0:0:0:0:
64,64,120622,1,0,0:0:0:0:
320,64,120779,1,8,0:0:0:0:
320,64,120858,1,8,0:0:0:0:
64,64,120936,1,0,0:0:0:0:
64,64,121094,1,0,0:0:0:0:
320,64,121251,1,8,0:0:0:0:
64,64,121408,1,0,0:0:0:0:
320,64,121722,1,8,0:0:0:0:
64,64,122036,1,0,0:0:0:0:
64,64,122193,1,0,0:0:0:0:
320,64,122507,1,8,0:0:0:0:
64,64,122664,1,0,0:0:0:0:
320,64,122821,1,8,0:0:0:0:
64,64,123135,1,0,0:0:0:0:
64,64,123450,1,0,0:0:0:0:
320,64,123607,1,8,0:0:0:0:
64,64,123764,1,0,0:0:0:0:
320,64,123921,1,8,0:0:0:0:
320,64,124078,1,8,0:0:0:0:
64,64,124235,1,0,0:0:0:0:
64,64,124392,1,0,0:0:0:0:
320,64,124549,1,8,0:0:0:0:
64,64,124706,1,0,0:0:0:0:
320,64,124863,1,8,0:0:0:0:
320,64,125020,1,8,0:0:0:0:
64,64,125177,1,0,0:0:0:0:
64,64,125334,1,0,0:0:0:0:
320,64,125491,1,8,0:0:0:0:
320,64,125649,1,8,0:0:0:0:
64,64,125806,1,0,0:0:0:0:
320,64,125963,1,8,0:0:0:0:
320,64,126277,1,8,0:0:0:0:
64,64,126434,1,0,0:0:0:0:
320,64,126591,1,8,0:0:0:0:
320,64,126853,1,8,0:0:0:0:
64,64,127062,1,0,0:0:0:0:
320,64,127219,1,8,0:0:0:0:
64,64,127376,1,0,0:0:0:0:
64,64,127533,1,0,0:0:0:0:
320,64,127690,1,8,0:0:0:0:
64,64,127847,1,0,0:0:0:0:
320,64,128005,1,8,0:0:0:0:
320,64,128162,1,8,0:0:0:0:
64,64,128319,1,0,0:0:0:0:
320,64,128476,1,8,0:0:0:0:
64,64,128790,1,0,0:0:0:0:
320,64,128947,1,8,0:0:0:0:
64,64,129261,1,0,0:0:0:0:
64,64,129340,1,0,0:0:0:0:
64,64,129418,1,0,0:0:0:0:
320,64,129575,1,8,0:0:0:0:
320,64,129785,1,8,0:0:0:0:
320,64,129889,1,8,0:0:0:0:
64,64,129994,1,0,0:0:0:0:
320,64,130204,1,8,0:0:0:0:
320,64,130413,1,8,0:0:0:0:
320,64,130518,1,8,0:0:0:0:
64,64,130622,1,0,0:0:0:0:
320,64,130832,1,8,0:0:0:0:
64,64,130989,1,0,0:0:0:0:
64,64,131303,1,0,0:0:0:0:
320,64,131460,1,8,0:0:0:0:
64,64,131617,1,0,0:0:0:0:
320,64,131774,1,8,0:0:0:0:
64,64,132088,1,0,0:0:0:0:
64,64,132298,1,0,0:0:0:0:
64,64,132402,1,0,0:0:0:0:
320,64,132507,1,8,0:0:0:0:
64,64,132717,1,0,0:0:0:0:
64,64,132926,1,0,0:0:0:0:
64,64,133031,1,0,0:0:0:0:
320,64,133135,1,8,0:0:0:0:
64,64,133345,1,0,0:0:0:0:
320,64,133502,1,8,0:0:0:0:
320,64,133816,1,8,0:0:0:0:
64,64,133973,1,0,0:0:0:0:
320,64,134130,1,8,0:0:0:0:
320,64,134287,1,8,0:0:0:0:
64,64,134601,1,0,0:0:0:0:
320,64,134811,1,8,0:0:0:0:
320,64,134916,1,8,0:0:0:0:
64,64,135020,1,0,0:0:0:0:
64,64,135230,1,0,0:0:0:0:
320,64,135439,1,8,0:0:0:0:
320,64,135544,1,8,0:0:0:0:
64,64,135649,1,0,0:0:0:0:
320,64,135858,1,8,0:0:0:0:
64,64,136015,1,0,0:0:0:0:
64,64,136329,1,0,0:0:0:0:
320,64,136486,1,8,0:0:0:0:
320,64,136800,1,8,0:0:0:0:
64,64,136957,1,0,0:0:0:0:
320,64,137115,1,8,0:0:0:0:
64,64,137429,1,0,0:0:0:0:
320,64,137586,1,8,0:0:0:0:
64,64,137900,1,0,0:0:0:0:
320,64,138057,1,8,0:0:0:0:
64,64,138214,1,0,0:0:0:0:
64,64,138528,1,0,0:0:0:0:
320,64,138685,1,8,0:0:0:0:
64,64,138842,1,0,0:0:0:0:
320,64,138999,1,8,0:0:0:0:
64,64,139078,1,0,0:0:0:0:
320,64,139156,1,8,0:0:0:0:
64,64,139313,1,0,0:0:0:0:
64,64,139471,1,0,0:0:0:0:
320,64,139628,1,8,0:0:0:0:
320,64,139837,1,8,0:0:0:0:
320,64,139942,1,8,0:0:0:0:
64,64,140046,1,0,0:0:0:0:
320,64,140256,1,8,0:0:0:0:
320,64,140465,1,8,0:0:0:0:
320,64,140570,1,8,0:0:0:0:
64,64,140675,1,0,0:0:0:0:
320,64,140884,1,8,0:0:0:0:
64,64,141041,1,0,0:0:0:0:
64,64,141355,1,0,0:0:0:0:
320,64,141512,1,8,0:0:0:0:
320,64,141669,1,8,0:0:0:0:
64,64,141827,1,0,0:0:0:0:
64,64,142141,1,0,0:0:0:0:
320,64,142350,1,8,0:0:0:0:
64,64,142455,1,0,0:0:0:0:
320,64,142560,1,8,0:0:0:0:
64,64,142769,1,0,0:0:0:0:
320,64,142978,1,8,0:0:0:0:
64,64,143083,1,0,0:0:0:0:
320,64,143188,1,8,0:0:0:0:
320,64,143397,1,8,0:0:0:0:
64,64,143554,1,0,0:0:0:0:
64,64,143868,1,0,0:0:0:0:
320,64,144026,1,8,0:0:0:0:
64,64,144183,1,0,0:0:0:0:
320,64,144340,1,8,0:0:0:0:
64,64,144654,1,0,0:0:0:0:
64,64,144863,1,0,0:0:0:0:
320,64,144968,1,8,0:0:0:0:
64,64,145073,1,0,0:0:0:0:
64,64,145282,1,0,0:0:0:0:
64,64,145491,1,0,0:0:0:0:
320,64,145596,1,8,0:0:0:0:
64,64,145701,1,0,0:0:0:0:
320,64,145910,1,8,0:0:0:0:
64,64,146067,1,0,0:0:0:0:
64,64,146382,1,0,0:0:0:0:
64,64,146539,1,0,0:0:0:0:
64,64,146696,1,0,0:0:0:0:
320,64,146853,1,8,0:0:0:0:
64,64,147167,1,0,0:0:0:0:
320,64,147376,1,8,0:0:0:0:
64,64,147481,1,0,0:0:0:0:
320,64,147586,1,8,0:0:0:0:
64,64,147795,1,0,0:0:0:0:
320,64,148004,1,8,0:0:0:0:
64,64,148109,1,0,0:0:0:0:
320,64,148214,1,8,0:0:0:0:
64,64,148423,1,0,0:0:0:0:
64,64,148580,1,0,0:0:0:0:
320,64,148738,1,8,0:0:0:0:
64,64,148895,1,0,0:0:0:0:
320,64,149052,1,8,0:0:0:0:
320,64,149209,1,8,0:0:0:0:
320,64,149366,1,8,0:0:0:0:
