osu file format v14

[General]
AudioFilename: audio.mp3
AudioLeadIn: 0
PreviewTime: 27514
Countdown: 0
SampleSet: Soft
StackLeniency: 0.7
Mode: 3
LetterboxInBreaks: 0
SpecialStyle: 0
WidescreenStoryboard: 1

[Editor]
DistanceSpacing: 1.5
BeatDivisor: 12
GridSize: 4
TimelineZoom: 1.8

[Metadata]
Title:Ugandan Knuckles Tribe
TitleUnicode:Ugandan Knuckles Tribe
Artist:samanake
ArtistUnicode:samanake
Creator:deadbill
Version:EBOLA
Source:
Tags:de wei
BeatmapID:1530706
BeatmapSetID:724900

[Difficulty]
HPDrainRate:10
CircleSize:4
OverallDifficulty:8
ApproachRate:5
SliderMultiplier:1.4
SliderTickRate:1

[Events]
//Background and Video events
0,0,"kween.jpg",0,0
//Break Periods
//Storyboard Layer 0 (Background)
//Storyboard Layer 1 (Fail)
//Storyboard Layer 2 (Pass)
//Storyboard Layer 3 (Foreground)
//Storyboard Sound Samples

[TimingPoints]
14,500,4,2,0,30,1,0
14143,-111.111111111111,4,2,0,30,0,0
14268,-125,4,2,0,30,0,0
14393,-142.857142857143,4,2,0,30,0,0
14518,-166.666666666667,4,2,0,30,0,0
14643,-200,4,2,0,30,0,0
14768,-250,4,2,0,30,0,0
14893,-333.333333333333,4,2,0,30,0,0
15018,-500,4,2,0,30,0,0
16018,-100,4,2,0,30,0,0
48014,-100,4,2,0,30,0,1
64013,-100,4,2,0,30,0,0

[HitObjects]
64,192,14,128,0,3889:0:0:0:0:
320,192,1014,1,0,0:0:0:0:
448,192,2014,1,0,0:0:0:0:
192,192,3014,1,0,0:0:0:0:
448,192,4014,1,0,0:0:0:0:
64,192,4014,128,0,7014:0:0:0:0:
192,192,5014,1,0,0:0:0:0:
320,192,6014,1,0,0:0:0:0:
192,192,7014,1,0,0:0:0:0:
320,192,7014,128,0,8014:0:0:0:0:
448,192,7347,128,0,8014:0:0:0:0:
64,192,8014,128,0,11889:0:0:0:0:
320,192,9014,1,0,0:0:0:0:
448,192,10014,1,0,0:0:0:0:
192,192,11014,1,0,0:0:0:0:
448,192,12014,1,0,0:0:0:0:
64,192,12014,128,0,15014:0:0:0:0:
192,192,13014,1,0,0:0:0:0:
320,192,14014,128,0,15014:0:0:0:0:
448,192,16014,128,0,19014:0:0:0:0:
320,192,16014,1,0,0:0:0:0:
192,192,16514,1,0,0:0:0:0:
320,192,17014,1,0,0:0:0:0:
64,192,17514,1,0,0:0:0:0:
192,192,18014,1,0,0:0:0:0:
64,192,18514,1,0,0:0:0:0:
192,192,19014,128,0,20014:0:0:0:0:
320,192,19014,1,0,0:0:0:0:
64,192,19514,1,0,0:0:0:0:
448,192,20014,128,0,23014:0:0:0:0:
320,192,20014,1,0,0:0:0:0:
192,192,20514,1,0,0:0:0:0:
320,192,21014,1,0,0:0:0:0:
64,192,21514,1,0,0:0:0:0:
192,192,22014,1,0,0:0:0:0:
64,192,22514,1,0,0:0:0:0:
64,192,23014,128,0,24014:0:0:0:0:
320,192,23014,1,0,0:0:0:0:
192,192,23514,1,0,0:0:0:0:
448,192,24014,128,0,27014:0:0:0:0:
320,192,24014,1,0,0:0:0:0:
192,192,24514,1,0,0:0:0:0:
320,192,25014,1,0,0:0:0:0:
64,192,25514,1,0,0:0:0:0:
192,192,26014,1,0,0:0:0:0:
64,192,26514,1,0,0:0:0:0:
192,192,27014,128,0,28014:0:0:0:0:
320,192,27014,1,0,0:0:0:0:
64,192,27514,1,0,0:0:0:0:
448,192,28014,128,0,30014:0:0:0:0:
320,192,28014,1,0,0:0:0:0:
192,192,28514,1,0,0:0:0:0:
320,192,29014,1,0,0:0:0:0:
64,192,29514,1,0,0:0:0:0:
192,192,30014,1,0,0:0:0:100:de snare.wav
320,192,30076,1,0,0:0:0:100:de snare.wav
448,192,30139,1,0,0:0:0:100:de snare.wav
320,192,30514,1,0,0:0:0:100:de snare.wav
192,192,30576,1,0,0:0:0:100:de snare.wav
64,192,30639,1,0,0:0:0:100:de snare.wav
448,192,31014,1,0,0:0:0:100:de snare.wav
320,192,31076,1,0,0:0:0:100:de snare.wav
192,192,31139,1,0,0:0:0:100:de snare.wav
64,192,31514,1,0,0:0:0:100:de kick.wav
192,192,31514,1,0,0:0:0:100:de snare.wav
320,192,31680,1,0,0:0:0:100:de snare.wav
448,192,31680,1,0,0:0:0:100:de kick.wav
64,192,31847,1,0,0:0:0:100:de kick.wav
192,192,31847,1,0,0:0:0:100:de snare.wav
64,192,32014,1,0,0:0:0:100:de kick deeper.wav
448,192,32014,1,0,0:0:0:100:de kick deeper.wav
320,192,32014,1,0,0:0:0:100:de kick deeper.wav
192,192,32389,1,0,0:0:0:100:de wei.wav
320,192,32514,1,0,0:0:0:100:de kick deeper.wav
448,192,32514,1,0,0:0:0:100:de kick deeper.wav
64,192,32514,1,0,0:0:0:100:de wei.wav
192,192,32597,1,0,0:0:0:100:de wei.wav
448,192,32764,1,0,0:0:0:100:de wei.wav
320,192,32889,1,0,0:0:0:100:de wei.wav
448,192,32972,1,0,0:0:0:100:de wei.wav
64,192,33014,1,0,0:0:0:100:de snare.wav
192,192,33014,1,0,0:0:0:100:de snare.wav
320,192,33139,1,0,0:0:0:100:de wei.wav
192,192,33264,1,0,0:0:0:100:de wei.wav
64,192,33389,1,0,0:0:0:100:de wei.wav
320,192,33514,1,0,0:0:0:100:de wei.wav
448,192,33639,1,0,0:0:0:100:de wei.wav
192,192,33764,1,0,0:0:0:100:de wei.wav
320,192,33889,1,0,0:0:0:100:de wei.wav
64,192,34014,1,0,0:0:0:100:de wei.wav
448,192,34139,1,0,0:0:0:100:de wei.wav
320,192,34264,1,0,0:0:0:100:de wei.wav
192,192,34389,1,0,0:0:0:100:de wei.wav
320,192,34514,1,0,0:0:0:100:de kick deeper.wav
448,192,34514,1,0,0:0:0:100:de kick deeper.wav
64,192,34514,1,0,0:0:0:100:de wei.wav
192,192,34639,1,0,0:0:0:100:de wei.wav
64,192,34764,1,0,0:0:0:100:de wei.wav
448,192,34889,1,0,0:0:0:100:de wei.wav
320,192,35014,1,0,0:0:0:100:de wei.wav
64,192,35014,1,0,0:0:0:100:de snare.wav
192,192,35014,1,0,0:0:0:100:de snare.wav
448,192,35139,1,0,0:0:0:100:de wei.wav
320,192,35180,1,0,0:0:0:100:de wei.wav
192,192,35222,1,0,0:0:0:100:de wei.wav
448,192,35264,1,0,0:0:0:100:de kick deeper.wav
64,192,35264,1,0,0:0:0:100:de wei.wav
320,192,35305,1,0,0:0:0:100:de wei.wav
192,192,35347,1,0,0:0:0:100:de wei.wav
64,192,35389,1,0,0:0:0:100:de wei.wav
64,192,35514,1,0,0:0:0:100:de wei.wav
192,192,35555,1,0,0:0:0:100:de wei.wav
320,192,35597,1,0,0:0:0:100:de wei.wav
64,192,35639,1,0,0:0:0:100:de kick deeper.wav
448,192,35639,1,0,0:0:0:100:de wei.wav
192,192,35680,1,0,0:0:0:100:de wei.wav
320,192,35722,1,0,0:0:0:100:de wei.wav
448,192,35764,1,0,0:0:0:100:de wei.wav
64,192,35764,1,0,0:0:0:100:de kick deeper.wav
448,192,36014,1,0,0:0:0:100:de kick deeper.wav
64,192,36014,1,0,0:0:0:100:de kick deeper.wav
192,192,36389,1,0,0:0:0:100:de wei.wav
320,192,36514,1,0,0:0:0:100:de kick deeper.wav
448,192,36514,1,0,0:0:0:100:de kick deeper.wav
64,192,36514,1,0,0:0:0:100:de wei.wav
192,192,36597,1,0,0:0:0:100:de wei.wav
448,192,36764,1,0,0:0:0:100:de wei.wav
320,192,36889,1,0,0:0:0:100:de wei.wav
448,192,36972,1,0,0:0:0:100:de wei.wav
192,192,37014,1,0,0:0:0:100:de snare.wav
64,192,37014,1,0,0:0:0:100:de snare.wav
320,192,37139,1,0,0:0:0:100:de wei.wav
192,192,37264,1,0,0:0:0:100:de wei.wav
64,192,37389,1,0,0:0:0:100:de wei.wav
320,192,37514,1,0,0:0:0:100:de wei.wav
448,192,37639,1,0,0:0:0:100:de wei.wav
192,192,37764,1,0,0:0:0:100:de wei.wav
320,192,37889,1,0,0:0:0:100:de wei.wav
64,192,38014,1,0,0:0:0:100:de wei.wav
448,192,38139,1,0,0:0:0:100:de wei.wav
320,192,38264,1,0,0:0:0:100:de wei.wav
192,192,38389,1,0,0:0:0:100:de wei.wav
64,192,38514,1,0,0:0:0:100:de wei.wav
448,192,38514,1,0,0:0:0:100:de kick deeper.wav
320,192,38514,1,0,0:0:0:100:de kick deeper.wav
192,192,38639,1,0,0:0:0:100:de wei.wav
64,192,38764,1,0,0:0:0:100:de wei.wav
448,192,38889,1,0,0:0:0:100:de wei.wav
320,192,39014,1,0,0:0:0:100:de wei.wav
64,192,39014,1,0,0:0:0:100:de snare.wav
192,192,39014,1,0,0:0:0:100:de snare.wav
448,192,39139,1,0,0:0:0:100:de wei.wav
320,192,39180,1,0,0:0:0:100:de wei.wav
192,192,39222,1,0,0:0:0:100:de wei.wav
448,192,39264,1,0,0:0:0:100:de kick deeper.wav
64,192,39264,1,0,0:0:0:100:de wei.wav
320,192,39305,1,0,0:0:0:100:de wei.wav
192,192,39347,1,0,0:0:0:100:de wei.wav
64,192,39389,1,0,0:0:0:100:de wei.wav
64,192,39514,1,0,0:0:0:100:de wei.wav
192,192,39555,1,0,0:0:0:100:de wei.wav
320,192,39597,1,0,0:0:0:100:de wei.wav
64,192,39639,1,0,0:0:0:100:de kick deeper.wav
448,192,39639,1,0,0:0:0:100:de wei.wav
192,192,39680,1,0,0:0:0:100:de wei.wav
320,192,39722,1,0,0:0:0:100:de wei.wav
448,192,39764,1,0,0:0:0:100:de wei.wav
64,192,39764,1,0,0:0:0:100:de kick deeper.wav
64,192,40014,1,0,0:0:0:100:de kick deeper.wav
448,192,40014,1,0,0:0:0:100:de kick deeper.wav
192,192,40014,1,0,0:0:0:100:de wei.wav
192,192,40264,1,0,0:0:0:100:de wei.wav
64,192,40264,1,0,0:0:0:100:de kick deeper.wav
448,192,40264,1,0,0:0:0:100:de kick deeper.wav
320,192,40389,1,0,0:0:0:100:de wei.wav
448,192,40514,1,0,0:0:0:100:de kick deeper.wav
64,192,40514,1,0,0:0:0:100:de kick deeper.wav
192,192,40514,1,0,0:0:0:100:de wei.wav
320,192,40597,1,0,0:0:0:100:de wei.wav
192,192,40764,1,0,0:0:0:100:de wei.wav
320,192,40889,1,0,0:0:0:100:de wei.wav
448,192,40972,1,0,0:0:0:100:de wei.wav
64,192,41014,1,0,0:0:0:100:de snare.wav
192,192,41014,1,0,0:0:0:100:de snare.wav
320,192,41139,1,0,0:0:0:100:de wei.wav
448,192,41264,1,0,0:0:0:100:de wei.wav
64,192,41389,1,0,0:0:0:100:de wei.wav
192,192,41514,1,0,0:0:0:100:de wei.wav
320,192,41639,1,0,0:0:0:100:de wei.wav
448,192,41764,1,0,0:0:0:100:de wei.wav
320,192,41889,1,0,0:0:0:100:de wei.wav
192,192,42014,1,0,0:0:0:100:de wei.wav
64,192,42139,1,0,0:0:0:100:de wei.wav
192,192,42389,1,0,0:0:0:100:de wei.wav
320,192,42514,1,0,0:0:0:100:de wei.wav
448,192,42514,1,0,0:0:0:100:de kick deeper.wav
64,192,42514,1,0,0:0:0:100:de kick deeper.wav
192,192,42639,1,0,0:0:0:100:de wei.wav
320,192,42764,1,0,0:0:0:100:de wei.wav
448,192,42889,1,0,0:0:0:100:de wei.wav
320,192,43014,1,0,0:0:0:100:de wei.wav
64,192,43014,1,0,0:0:0:100:de snare.wav
192,192,43014,1,0,0:0:0:100:de snare.wav
448,192,43139,1,0,0:0:0:100:de wei.wav
320,192,43180,1,0,0:0:0:100:de wei.wav
192,192,43222,1,0,0:0:0:100:de wei.wav
64,192,43264,1,0,0:0:0:100:de wei.wav
448,192,43264,1,0,0:0:0:100:de kick deeper.wav
320,192,43305,1,0,0:0:0:100:de wei.wav
192,192,43347,1,0,0:0:0:100:de wei.wav
64,192,43389,1,0,0:0:0:100:de wei.wav
64,192,43514,1,0,0:0:0:100:de wei.wav
192,192,43555,1,0,0:0:0:100:de wei.wav
320,192,43597,1,0,0:0:0:100:de wei.wav
448,192,43639,1,0,0:0:0:100:de wei.wav
64,192,43639,1,0,0:0:0:100:de kick deeper.wav
192,192,43680,1,0,0:0:0:100:de wei.wav
320,192,43722,1,0,0:0:0:100:de wei.wav
448,192,43764,1,0,0:0:0:100:de wei.wav
64,192,43764,1,0,0:0:0:100:de kick deeper.wav
64,192,44014,1,0,0:0:0:100:de kick deeper.wav
448,192,44014,1,0,0:0:0:100:de wei.wav
320,192,44014,1,0,0:0:0:100:de wei.wav
64,192,44264,1,0,0:0:0:100:de wei.wav
192,192,44305,1,0,0:0:0:100:de wei.wav
320,192,44347,1,0,0:0:0:100:de wei.wav
448,192,44389,1,0,0:0:0:100:de wei.wav
64,192,44430,1,0,0:0:0:100:de wei.wav
192,192,44472,1,0,0:0:0:100:de wei.wav
320,192,44514,1,0,0:0:0:100:de wei.wav
448,192,44555,1,0,0:0:0:100:de wei.wav
64,192,44597,1,0,0:0:0:100:de wei.wav
192,192,44639,1,0,0:0:0:100:de wei.wav
320,192,44680,1,0,0:0:0:100:de wei.wav
448,192,44722,1,0,0:0:0:100:de wei.wav
64,192,44764,1,0,0:0:0:100:de wei.wav
192,192,44805,1,0,0:0:0:100:de wei.wav
320,192,44847,1,0,0:0:0:100:de wei.wav
448,192,44889,1,0,0:0:0:100:de wei.wav
64,192,44930,1,0,0:0:0:100:de wei.wav
320,192,44972,1,0,0:0:0:100:de wei.wav
192,192,45014,1,0,0:0:0:100:de wei.wav
448,192,45055,1,0,0:0:0:100:de wei.wav
64,192,45097,1,0,0:0:0:100:de wei.wav
320,192,45139,1,0,0:0:0:100:de wei.wav
192,192,45180,1,0,0:0:0:100:de wei.wav
448,192,45222,1,0,0:0:0:100:de wei.wav
64,192,45264,1,0,0:0:0:100:de wei.wav
320,192,45305,1,0,0:0:0:100:de wei.wav
192,192,45347,1,0,0:0:0:100:de wei.wav
448,192,45389,1,0,0:0:0:100:de wei.wav
64,192,45430,1,0,0:0:0:100:de wei.wav
320,192,45472,1,0,0:0:0:100:de wei.wav
192,192,45514,1,0,0:0:0:100:de wei.wav
448,192,45555,1,0,0:0:0:100:de wei.wav
64,192,45597,1,0,0:0:0:100:de wei.wav
320,192,45639,1,0,0:0:0:100:de wei.wav
448,192,45764,1,0,0:0:0:100:de wei.wav
192,192,45889,1,0,0:0:0:100:de wei.wav
320,192,46014,1,0,0:0:0:100:de wei.wav
64,192,46264,1,0,0:0:0:100:de wei.wav
192,192,46305,1,0,0:0:0:100:de wei.wav
320,192,46347,1,0,0:0:0:100:de wei.wav
448,192,46389,1,0,0:0:0:100:de wei.wav
64,192,46430,1,0,0:0:0:100:de wei.wav
192,192,46472,1,0,0:0:0:100:de wei.wav
320,192,46514,1,0,0:0:0:100:de wei.wav
448,192,46555,1,0,0:0:0:100:de wei.wav
64,192,46597,1,0,0:0:0:100:de wei.wav
192,192,46639,1,0,0:0:0:100:de wei.wav
320,192,46680,1,0,0:0:0:100:de wei.wav
448,192,46722,1,0,0:0:0:100:de wei.wav
64,192,46764,1,0,0:0:0:100:de wei.wav
192,192,46805,1,0,0:0:0:100:de wei.wav
320,192,46847,1,0,0:0:0:100:de wei.wav
448,192,46889,1,0,0:0:0:100:de wei.wav
64,192,46930,1,0,0:0:0:100:de wei.wav
320,192,46972,1,0,0:0:0:100:de wei.wav
192,192,47014,1,0,0:0:0:100:de wei.wav
448,192,47055,1,0,0:0:0:100:de wei.wav
64,192,47097,1,0,0:0:0:100:de wei.wav
320,192,47139,1,0,0:0:0:100:de wei.wav
192,192,47180,1,0,0:0:0:100:de wei.wav
448,192,47222,1,0,0:0:0:100:de wei.wav
64,192,47264,1,0,0:0:0:100:de wei.wav
320,192,47305,1,0,0:0:0:100:de wei.wav
192,192,47347,1,0,0:0:0:100:de wei.wav
448,192,47389,1,0,0:0:0:100:de wei.wav
64,192,47430,1,0,0:0:0:100:de wei.wav
320,192,47472,1,0,0:0:0:100:de wei.wav
192,192,47514,1,0,0:0:0:100:de wei.wav
448,192,47555,1,0,0:0:0:100:de wei.wav
64,192,47597,1,0,0:0:0:100:de wei.wav
320,192,47639,1,0,0:0:0:100:de kick deeper.wav
448,192,47639,1,0,0:0:0:100:de kick deeper.wav
64,192,47764,1,0,0:0:0:100:de kick deeper.wav
192,192,47764,1,0,0:0:0:100:de kick deeper.wav
64,192,48014,1,0,0:0:0:100:de kick deeper.wav
320,192,48014,1,0,0:0:0:100:de kick deeper.wav
448,192,48014,1,0,0:0:0:100:de kick deeper.wav
192,192,48389,1,0,0:0:0:100:de wei.wav
64,192,48514,1,0,0:0:0:100:de wei.wav
320,192,48514,1,0,0:0:0:100:de kick deeper.wav
448,192,48514,1,0,0:0:0:100:de kick deeper.wav
192,192,48597,1,0,0:0:0:100:de wei.wav
448,192,48764,1,0,0:0:0:100:de wei.wav
320,192,48889,1,0,0:0:0:100:de wei.wav
448,192,48972,1,0,0:0:0:100:de wei.wav
64,192,49014,1,0,0:0:0:100:de snare.wav
192,192,49014,1,0,0:0:0:100:de snare.wav
320,192,49139,1,0,0:0:0:100:de wei.wav
192,192,49264,1,0,0:0:0:100:de wei.wav
64,192,49389,1,0,0:0:0:100:de wei.wav
320,192,49514,1,0,0:0:0:100:de wei.wav
448,192,49639,1,0,0:0:0:100:de wei.wav
192,192,49764,1,0,0:0:0:100:de wei.wav
320,192,49889,1,0,0:0:0:100:de wei.wav
64,192,50014,1,0,0:0:0:100:de wei.wav
448,192,50139,1,0,0:0:0:100:de wei.wav
320,192,50264,1,0,0:0:0:100:de wei.wav
192,192,50389,1,0,0:0:0:100:de wei.wav
64,192,50514,1,0,0:0:0:100:de wei.wav
320,192,50514,1,0,0:0:0:100:de kick deeper.wav
448,192,50514,1,0,0:0:0:100:de kick deeper.wav
192,192,50639,1,0,0:0:0:100:de wei.wav
64,192,50764,1,0,0:0:0:100:de wei.wav
448,192,50889,1,0,0:0:0:100:de wei.wav
64,192,51014,1,0,0:0:0:100:de snare.wav
192,192,51014,1,0,0:0:0:100:de snare.wav
320,192,51014,1,0,0:0:0:100:de wei.wav
448,192,51139,1,0,0:0:0:100:de wei.wav
320,192,51180,1,0,0:0:0:100:de wei.wav
192,192,51222,1,0,0:0:0:100:de wei.wav
64,192,51264,1,0,0:0:0:100:de wei.wav
448,192,51264,1,0,0:0:0:100:de kick deeper.wav
320,192,51305,1,0,0:0:0:100:de wei.wav
192,192,51347,1,0,0:0:0:100:de wei.wav
64,192,51389,1,0,0:0:0:100:de wei.wav
64,192,51514,1,0,0:0:0:100:de wei.wav
192,192,51555,1,0,0:0:0:100:de wei.wav
320,192,51597,1,0,0:0:0:100:de wei.wav
448,192,51639,1,0,0:0:0:100:de wei.wav
64,192,51639,1,0,0:0:0:100:de kick deeper.wav
192,192,51680,1,0,0:0:0:100:de wei.wav
320,192,51722,1,0,0:0:0:100:de wei.wav
64,192,51764,1,0,0:0:0:100:de kick deeper.wav
448,192,51764,1,0,0:0:0:100:de wei.wav
448,192,52014,1,0,0:0:0:100:de kick deeper.wav
64,192,52014,1,0,0:0:0:100:de kick deeper.wav
448,192,52264,1,0,0:0:0:100:de kick deeper.wav
64,192,52264,1,0,0:0:0:100:de kick deeper.wav
192,192,52389,1,0,0:0:0:100:de wei.wav
448,192,52514,1,0,0:0:0:100:de kick deeper.wav
320,192,52514,1,0,0:0:0:100:de kick deeper.wav
64,192,52514,1,0,0:0:0:100:de wei.wav
192,192,52597,1,0,0:0:0:100:de wei.wav
448,192,52764,1,0,0:0:0:100:de wei.wav
320,192,52889,1,0,0:0:0:100:de wei.wav
448,192,52972,1,0,0:0:0:100:de wei.wav
64,192,53014,1,0,0:0:0:100:de snare.wav
192,192,53014,1,0,0:0:0:100:de snare.wav
320,192,53139,1,0,0:0:0:100:de wei.wav
192,192,53264,1,0,0:0:0:100:de wei.wav
64,192,53389,1,0,0:0:0:100:de wei.wav
320,192,53514,1,0,0:0:0:100:de wei.wav
448,192,53639,1,0,0:0:0:100:de wei.wav
192,192,53764,1,0,0:0:0:100:de wei.wav
320,192,53889,1,0,0:0:0:100:de wei.wav
64,192,54014,1,0,0:0:0:100:de wei.wav
448,192,54139,1,0,0:0:0:100:de wei.wav
320,192,54264,1,0,0:0:0:100:de wei.wav
192,192,54389,1,0,0:0:0:100:de wei.wav
64,192,54514,1,0,0:0:0:100:de wei.wav
320,192,54514,1,0,0:0:0:100:de kick deeper.wav
448,192,54514,1,0,0:0:0:100:de kick deeper.wav
192,192,54639,1,0,0:0:0:100:de wei.wav
64,192,54764,1,0,0:0:0:100:de wei.wav
448,192,54889,1,0,0:0:0:100:de wei.wav
320,192,55014,1,0,0:0:0:100:de wei.wav
64,192,55014,1,0,0:0:0:100:de snare.wav
192,192,55014,1,0,0:0:0:100:de snare.wav
448,192,55139,1,0,0:0:0:100:de wei.wav
320,192,55180,1,0,0:0:0:100:de wei.wav
192,192,55222,1,0,0:0:0:100:de wei.wav
64,192,55264,1,0,0:0:0:100:de wei.wav
448,192,55264,1,0,0:0:0:100:de kick deeper.wav
320,192,55305,1,0,0:0:0:100:de wei.wav
192,192,55347,1,0,0:0:0:100:de wei.wav
64,192,55389,1,0,0:0:0:100:de wei.wav
64,192,55514,1,0,0:0:0:100:de wei.wav
192,192,55555,1,0,0:0:0:100:de wei.wav
320,192,55597,1,0,0:0:0:100:de wei.wav
64,192,55639,1,0,0:0:0:100:de kick deeper.wav
448,192,55639,1,0,0:0:0:100:de wei.wav
192,192,55680,1,0,0:0:0:100:de wei.wav
320,192,55722,1,0,0:0:0:100:de wei.wav
448,192,55764,1,0,0:0:0:100:de wei.wav
64,192,55764,1,0,0:0:0:100:de kick deeper.wav
192,192,56014,1,0,0:0:0:100:de wei.wav
448,192,56014,1,0,0:0:0:100:de kick deeper.wav
64,192,56014,1,0,0:0:0:100:de kick deeper.wav
192,192,56264,1,0,0:0:0:100:de wei.wav
448,192,56264,1,0,0:0:0:100:de kick deeper.wav
64,192,56264,1,0,0:0:0:100:de kick deeper.wav
320,192,56389,1,0,0:0:0:100:de wei.wav
192,192,56514,1,0,0:0:0:100:de wei.wav
448,192,56514,1,0,0:0:0:100:de kick deeper.wav
64,192,56514,1,0,0:0:0:100:de kick deeper.wav
320,192,56597,1,0,0:0:0:100:de wei.wav
192,192,56764,1,0,0:0:0:100:de wei.wav
320,192,56889,1,0,0:0:0:100:de wei.wav
448,192,56972,1,0,0:0:0:100:de wei.wav
192,192,57014,1,0,0:0:0:100:de snare.wav
64,192,57014,1,0,0:0:0:100:de snare.wav
320,192,57139,1,0,0:0:0:100:de wei.wav
448,192,57264,1,0,0:0:0:100:de wei.wav
64,192,57389,1,0,0:0:0:100:de wei.wav
192,192,57514,1,0,0:0:0:100:de wei.wav
320,192,57639,1,0,0:0:0:100:de wei.wav
448,192,57764,1,0,0:0:0:100:de wei.wav
320,192,57889,1,0,0:0:0:100:de wei.wav
192,192,58014,1,0,0:0:0:100:de wei.wav
64,192,58139,1,0,0:0:0:100:de wei.wav
192,192,58389,1,0,0:0:0:100:de wei.wav
320,192,58514,1,0,0:0:0:100:de wei.wav
448,192,58514,1,0,0:0:0:100:de kick deeper.wav
64,192,58514,1,0,0:0:0:100:de kick deeper.wav
192,192,58639,1,0,0:0:0:100:de wei.wav
320,192,58764,1,0,0:0:0:100:de wei.wav
448,192,58889,1,0,0:0:0:100:de wei.wav
192,192,59014,1,0,0:0:0:100:de snare.wav
320,192,59014,1,0,0:0:0:100:de wei.wav
64,192,59014,1,0,0:0:0:100:de snare.wav
448,192,59139,1,0,0:0:0:100:de wei.wav
320,192,59180,1,0,0:0:0:100:de wei.wav
192,192,59222,1,0,0:0:0:100:de wei.wav
64,192,59264,1,0,0:0:0:100:de wei.wav
448,192,59264,1,0,0:0:0:100:de kick deeper.wav
320,192,59305,1,0,0:0:0:100:de wei.wav
192,192,59347,1,0,0:0:0:100:de wei.wav
64,192,59389,1,0,0:0:0:100:de wei.wav
64,192,59514,1,0,0:0:0:100:de wei.wav
192,192,59555,1,0,0:0:0:100:de wei.wav
320,192,59597,1,0,0:0:0:100:de wei.wav
64,192,59639,1,0,0:0:0:100:de kick deeper.wav
448,192,59639,1,0,0:0:0:100:de wei.wav
192,192,59680,1,0,0:0:0:100:de wei.wav
320,192,59722,1,0,0:0:0:100:de wei.wav
64,192,59764,1,0,0:0:0:100:de kick deeper.wav
448,192,59764,1,0,0:0:0:100:de wei.wav
64,192,60014,1,0,0:0:0:100:de kick deeper.wav
448,192,60014,1,0,0:0:0:100:de wei.wav
320,192,60014,1,0,0:0:0:100:de wei.wav
64,192,60264,1,0,0:0:0:100:de wei.wav
192,192,60305,1,0,0:0:0:100:de wei.wav
320,192,60347,1,0,0:0:0:100:de wei.wav
448,192,60389,1,0,0:0:0:100:de wei.wav
64,192,60430,1,0,0:0:0:100:de wei.wav
192,192,60472,1,0,0:0:0:100:de wei.wav
320,192,60514,1,0,0:0:0:100:de wei.wav
448,192,60555,1,0,0:0:0:100:de wei.wav
64,192,60597,1,0,0:0:0:100:de wei.wav
192,192,60639,1,0,0:0:0:100:de wei.wav
320,192,60680,1,0,0:0:0:100:de wei.wav
448,192,60722,1,0,0:0:0:100:de wei.wav
64,192,60764,1,0,0:0:0:100:de wei.wav
192,192,60805,1,0,0:0:0:100:de wei.wav
320,192,60847,1,0,0:0:0:100:de wei.wav
448,192,60889,1,0,0:0:0:100:de wei.wav
64,192,60930,1,0,0:0:0:100:de wei.wav
320,192,60972,1,0,0:0:0:100:de wei.wav
192,192,61014,1,0,0:0:0:100:de wei.wav
448,192,61055,1,0,0:0:0:100:de wei.wav
64,192,61097,1,0,0:0:0:100:de wei.wav
320,192,61139,1,0,0:0:0:100:de wei.wav
192,192,61180,1,0,0:0:0:100:de wei.wav
448,192,61222,1,0,0:0:0:100:de wei.wav
64,192,61264,1,0,0:0:0:100:de wei.wav
320,192,61305,1,0,0:0:0:100:de wei.wav
192,192,61347,1,0,0:0:0:100:de wei.wav
448,192,61389,1,0,0:0:0:100:de wei.wav
64,192,61430,1,0,0:0:0:100:de wei.wav
320,192,61472,1,0,0:0:0:100:de wei.wav
192,192,61514,1,0,0:0:0:100:de wei.wav
448,192,61555,1,0,0:0:0:100:de wei.wav
64,192,61597,1,0,0:0:0:100:de wei.wav
320,192,61639,1,0,0:0:0:100:de wei.wav
448,192,61764,1,0,0:0:0:100:de wei.wav
192,192,61889,1,0,0:0:0:100:de wei.wav
320,192,62014,1,0,0:0:0:100:de wei.wav
64,192,62264,1,0,0:0:0:100:de wei.wav
192,192,62305,1,0,0:0:0:100:de wei.wav
320,192,62347,1,0,0:0:0:100:de wei.wav
448,192,62389,1,0,0:0:0:100:de wei.wav
64,192,62430,1,0,0:0:0:100:de wei.wav
192,192,62472,1,0,0:0:0:100:de wei.wav
320,192,62514,1,0,0:0:0:100:de wei.wav
448,192,62555,1,0,0:0:0:100:de wei.wav
64,192,62597,1,0,0:0:0:100:de wei.wav
192,192,62639,1,0,0:0:0:100:de wei.wav
320,192,62680,1,0,0:0:0:100:de wei.wav
448,192,62722,1,0,0:0:0:100:de wei.wav
64,192,62764,1,0,0:0:0:100:de wei.wav
192,192,62805,1,0,0:0:0:100:de wei.wav
320,192,62847,1,0,0:0:0:100:de wei.wav
448,192,62889,1,0,0:0:0:100:de wei.wav
64,192,62930,1,0,0:0:0:100:de wei.wav
320,192,62972,1,0,0:0:0:100:de wei.wav
192,192,63014,1,0,0:0:0:100:de wei.wav
448,192,63055,1,0,0:0:0:100:de wei.wav
64,192,63097,1,0,0:0:0:100:de wei.wav
320,192,63139,1,0,0:0:0:100:de wei.wav
192,192,63180,1,0,0:0:0:100:de wei.wav
448,192,63222,1,0,0:0:0:100:de wei.wav
64,192,63264,1,0,0:0:0:100:de wei.wav
320,192,63305,1,0,0:0:0:100:de wei.wav
192,192,63347,1,0,0:0:0:100:de wei.wav
448,192,63389,1,0,0:0:0:100:de wei.wav
64,192,63430,1,0,0:0:0:100:de wei.wav
320,192,63472,1,0,0:0:0:100:de wei.wav
192,192,63514,1,0,0:0:0:100:de wei.wav
448,192,63555,1,0,0:0:0:100:de wei.wav
64,192,63597,1,0,0:0:0:100:de wei.wav
448,192,63639,1,0,0:0:0:100:de kick deeper.wav
320,192,63639,1,0,0:0:0:100:de kick deeper.wav
192,192,63763,1,0,0:0:0:100:de kick deeper.wav
64,192,63764,1,0,0:0:0:100:de kick deeper.wav
448,192,64013,1,0,0:0:0:100:de kick deeper.wav
64,192,64013,1,0,0:0:0:100:de kick deeper.wav
320,192,64013,1,0,0:0:0:100:de kick deeper.wav
