osu file format v14

[General]
AudioFilename: audio.mp3
AudioLeadIn: 0
PreviewTime: 24099
Countdown: 0
SampleSet: Soft
StackLeniency: 0.7
Mode: 2
LetterboxInBreaks: 0
WidescreenStoryboard: 0

[Editor]
DistanceSpacing: 1
BeatDivisor: 4
GridSize: 8
TimelineZoom: 1

[Metadata]
Title:that day
TitleUnicode:that day
Artist:sakuzyo
ArtistUnicode:削除
Creator:SYAHME
Version:mbomb's salad
Source:
Tags:L'aventale Laventale diverse system - Magic Bomb - MBomb DVSP-0096 ntny carmine
BeatmapID:1284571
BeatmapSetID:607985

[Difficulty]
HPDrainRate:4
CircleSize:3.5
OverallDifficulty:6
ApproachRate:6
SliderMultiplier:1.8
SliderTickRate:1

[Events]
//Background and Video events
0,0,"BG.jpg",0,0
//Break Periods
//Storyboard Layer 0 (Background)
//Storyboard Layer 1 (Fail)
//Storyboard Layer 2 (Pass)
//Storyboard Layer 3 (Foreground)
//Storyboard Sound Samples

[TimingPoints]
528,744.837317073171,4,2,0,100,1,0
1272,594.059405940594,4,2,0,100,1,0
1569,664.819944598338,4,2,0,100,1,0
1901,742.115027829314,4,2,0,100,1,0
3385,734.394124847001,4,2,0,100,1,0
4119,705.882352941176,4,2,0,100,1,0
5177,710.059171597633,4,2,0,100,1,0
6242,714.285714285714,4,2,0,100,1,0
9813,-66.6666666666667,4,2,0,100,0,0
11956,-100,4,2,0,100,0,0
12686,682.59385665529,4,2,0,100,1,0
13027,694.444444444444,4,2,0,100,1,0
13374,719.856028794241,4,2,0,100,1,0
14813,734.394124847001,4,2,0,100,1,0
15547,714.285714285714,4,2,0,100,1,0
15904,766.283524904215,4,2,0,100,1,0
16287,626.959247648903,4,2,0,100,1,0
16600,714.285714285714,4,2,0,100,1,0
18385,714.285714285714,4,2,0,100,1,0
46956,754.716981132075,4,2,0,100,1,0
47333,633.579725448786,4,2,0,100,1,0
47649,725.075528700906,4,2,0,100,1,0
49099,714.285714285714,4,2,0,100,1,0
49813,714.285714285714,4,2,0,100,1,0
55527,-66.6666666666667,4,2,0,100,0,0
57670,-100,4,2,0,100,0,0
58027,774.193548387097,4,2,0,100,1,0
58414,673.400673400673,4,2,0,100,1,0
58750,635.593220338983,4,2,0,100,1,0
59067,779.220779220779,4,2,0,100,1,0
59456,714.285714285714,4,2,0,100,1,0
60527,714.285714285714,4,2,0,100,1,0

[Colours]
Combo1 : 192,192,192
Combo2 : 255,128,64
Combo3 : 0,128,255
Combo4 : 255,128,128

[HitObjects]
224,192,528,6,0,L|32:192,1,180.000000596046,2|0,0:0|0:0,0:0:0:0:
296,192,1569,1,2,0:0:0:0:
416,192,1901,1,0,0:0:0:0:
152,192,3385,2,0,P|104:152|128:128,1,90.000000298023
184,192,3935,1,0,0:0:0:0:
256,192,4119,6,0,L|136:192,1,90.000000298023,2|0,0:0|0:0,0:0:0:0:
304,192,4824,1,2,0:0:0:0:
144,192,5177,2,0,P|227:134|384:184,1,270.000000894069,2|2,0:0|0:0,0:0:0:0:
296,192,6420,1,0,0:0:0:0:
216,192,6599,1,2,0:0:0:0:
296,192,6777,1,0,0:0:0:0:
488,192,6956,5,2,0:0:0:0:
344,192,7313,2,0,L|456:192,1,90.000000298023
184,192,8384,5,2,0:0:0:0:
312,192,8742,1,0,0:0:0:0:
144,192,9099,1,2,0:0:0:0:
62,175,9277,1,0,0:0:0:0:
32,104,9456,1,2,0:0:0:0:
112,72,9634,1,0,0:0:0:0:
224,192,9813,6,0,B|496:192|512:136|496:24|224:64,1,540.000022387504,2|0,0:0|0:0,0:0:0:0:
480,192,11956,2,0,L|368:192,1,90.000000298023,2|0,0:0|0:0,0:0:0:0:
216,192,12686,5,0,0:0:0:0:
496,192,13027,2,0,L|376:192,1,90.000000298023,2|0,0:0|0:0,0:0:0:0:
128,192,14813,2,0,P|168:192|224:192,1,90.000000298023
152,192,15363,1,0,0:0:0:0:
88,192,15547,6,0,L|178:192,1,90.000000298023,2|0,0:0|0:0,0:0:0:0:
56,192,16287,1,2,0:0:0:0:
320,192,16600,5,2,0:0:0:0:
176,192,16957,1,2,0:0:0:0:
131,192,17135,1,0,0:0:0:0:
184,192,17314,1,2,0:0:0:0:
240,192,17492,1,0,0:0:0:0:
285,192,17671,2,0,L|229:192,1,45.0000001490115,2|0,0:0|0:0,0:0:0:0:
160,192,18028,2,0,L|104:176,1,45,2|0,0:0|0:0,0:0:0:0:
304,192,18385,5,2,0:0:0:0:
192,192,18742,2,0,L|288:192,1,90.000000298023
16,192,19813,5,2,0:0:0:0:
168,192,20170,2,0,L|248:192,2,45.0000001490115,0|0|2,0:0|0:0|0:0,0:0:0:0:
296,192,20885,1,0,0:0:0:0:
416,192,21242,6,0,L|56:192,1,360.000001192092,2|0,0:0|0:0,0:0:0:0:
360,192,23385,1,2,0:0:0:0:
64,192,24099,6,0,L|184:192,1,90.000000298023,2|0,0:0|0:0,0:0:0:0:
304,192,24813,1,0,0:0:0:0:
176,192,25170,1,0,0:0:0:0:
336,192,25527,6,0,L|432:192,1,90.000000298023,2|0,0:0|0:0,0:0:0:0:
272,192,26242,1,0,0:0:0:0:
400,192,26599,1,0,0:0:0:0:
240,192,26956,6,0,L|128:192,1,90.000000298023,2|0,0:0|0:0,0:0:0:0:
304,192,27670,1,0,0:0:0:0:
432,192,28027,1,0,0:0:0:0:
272,192,28384,6,0,L|400:192,1,90.000000298023,2|0,0:0|0:0,0:0:0:0:
216,192,29099,1,2,0:0:0:0:
160,208,29218,1,0,0:0:0:0:
109,180,29337,1,0,0:0:0:0:
96,124,29456,1,2,0:0:0:0:
129,76,29575,1,0,0:0:0:0:
187,68,29694,1,0,0:0:0:0:
256,192,29813,6,0,P|317:184|336:152,1,90,2|0,0:0|0:0,0:0:0:0:
208,192,30527,1,0,0:0:0:0:
362,192,30884,1,0,0:0:0:0:
504,192,31242,6,0,L|400:192,1,90,2|0,0:0|0:0,0:0:0:0:
240,192,31956,1,2,0:0:0:0:
392,192,32313,1,0,0:0:0:0:
112,192,32670,6,0,P|56:160|128:104,1,180.000000596046,2|0,0:0|0:0,0:0:0:0:
240,192,33742,1,0,0:0:0:0:
112,192,34099,2,0,L|312:192,1,180.000000596046,2|0,0:0|0:0,0:0:0:0:
216,192,35170,1,0,0:0:0:0:
496,192,35527,6,0,L|368:192,1,90.000000298023,2|0,0:0|0:0,0:0:0:0:
248,192,36242,1,0,0:0:0:0:
120,192,36599,1,0,0:0:0:0:
280,192,36956,6,0,L|168:192,1,90.000000298023,2|0,0:0|0:0,0:0:0:0:
344,192,37670,1,0,0:0:0:0:
216,192,38027,1,0,0:0:0:0:
64,192,38384,6,0,L|160:192,1,90.000000298023,2|0,0:0|0:0,0:0:0:0:
312,192,39099,1,0,0:0:0:0:
440,192,39456,1,0,0:0:0:0:
288,192,39813,5,2,0:0:0:0:
168,192,40170,1,0,0:0:0:0:
288,192,40527,2,0,L|176:192,1,90.000000298023
360,192,41242,6,0,L|456:192,2,90.000000298023,2|0|0,0:0|0:0|0:0,0:0:0:0:
80,192,42313,1,2,0:0:0:0:
208,192,42670,2,0,L|81:192,1,90.000000298023,2|0,0:0|0:0,0:0:0:0:
272,192,43384,2,0,L|384:192,1,90.000000298023
192,192,44099,6,0,P|120:160|184:128,1,180.000000596046,2|0,0:0|0:0,0:0:0:0:
456,192,45527,2,0,L|352:192,1,90.000000298023,2|0,0:0|0:0,0:0:0:0:
488,192,46242,1,2,0:0:0:0:
208,192,46956,5,2,0:0:0:0:
496,192,47333,2,0,L|376:192,1,90.000000298023,2|0,0:0|0:0,0:0:0:0:
128,192,49099,2,0,L|16:192,1,90.000000298023
104,192,49634,1,0,0:0:0:0:
184,192,49813,6,0,L|296:192,1,90.000000298023,2|0,0:0|0:0,0:0:0:0:
136,192,50527,1,2,0:0:0:0:
304,192,50884,2,0,P|432:136|360:48,1,270.000000894069,2|2,0:0|0:0,0:0:0:0:
320,192,52134,1,0,0:0:0:0:
384,192,52313,1,2,0:0:0:0:
432,192,52491,1,0,0:0:0:0:
248,192,52670,5,2,0:0:0:0:
368,192,53027,2,0,L|272:192,1,90.000000298023
24,192,54098,5,2,0:0:0:0:
160,192,54455,1,0,0:0:0:0:
24,192,54813,1,2,0:0:0:0:
96,192,54991,1,0,0:0:0:0:
152,192,55170,1,2,0:0:0:0:
192,192,55348,1,0,0:0:0:0:
80,192,55527,6,0,B|24:176|8:128|48:80|352:104|496:192,1,540.000022387504,2|0,0:0|0:0,0:0:0:0:
208,192,57670,2,0,L|80:192,1,90.000000298023,2|0,0:0|0:0,0:0:0:0:
288,192,58414,5,2,0:0:0:0:
16,192,58750,2,0,L|136:192,1,90.000000298023,2|0,0:0|0:0,0:0:0:0:
280,192,59456,1,0,0:0:0:0:
160,192,59813,1,0,0:0:0:0:
464,192,60170,1,2,0:0:0:0:
352,192,60527,6,0,L|479:192,1,90.000000298023,2|0,0:0|0:0,0:0:0:0:
360,192,61062,1,0,0:0:0:0:
280,192,61241,6,0,L|160:192,1,90.000000298023,2|0,0:0|0:0,0:0:0:0:
144,192,61717,1,0,0:0:0:0:
112,192,61836,1,0,0:0:0:0:
144,192,61955,1,0,0:0:0:0:
192,192,62074,1,0,0:0:0:0:
240,192,62193,1,0,0:0:0:0:
296,192,62312,5,2,0:0:0:0:
144,192,62669,1,2,0:0:0:0:
62,175,62847,1,0,0:0:0:0:
62,92,63026,1,2,0:0:0:0:
144,76,63204,1,0,0:0:0:0:
232,192,63384,1,2,0:0:0:0:
312,192,63562,1,0,0:0:0:0:
232,192,63741,1,2,0:0:0:0:
144,192,63919,1,0,0:0:0:0:
328,192,64098,5,2,0:0:0:0:
192,192,64455,1,2,0:0:0:0:
238,193,64574,1,0,0:0:0:0:
283,194,64693,1,0,0:0:0:0:
328,192,64812,1,2,0:0:0:0:
168,192,65169,1,2,0:0:0:0:
448,192,65527,5,2,0:0:0:0:
296,192,65884,2,0,L|208:192,2,45.0000001490115,0|0|2,0:0|0:0|0:0,0:0:0:0:
432,192,66598,1,2,0:0:0:0:
256,192,66955,12,2,68384,0:0:0:0:
