osu file format v14

[General]
AudioFilename: audio.mp3
AudioLeadIn: 0
PreviewTime: 24099
Countdown: 0
SampleSet: Soft
StackLeniency: 0.7
Mode: 2
LetterboxInBreaks: 0
WidescreenStoryboard: 0

[Editor]
DistanceSpacing: 1
BeatDivisor: 2
GridSize: 8
TimelineZoom: 1

[Metadata]
Title:that day
TitleUnicode:that day
Artist:sakuzyo
ArtistUnicode:削除
Creator:SYAHME
Version:cup
Source:
Tags:L'aventale Laventale diverse system - Magic Bomb - MBomb DVSP-0096 ntny carmine
BeatmapID:1284038
BeatmapSetID:607985

[Difficulty]
HPDrainRate:3
CircleSize:2.5
OverallDifficulty:5
ApproachRate:5
SliderMultiplier:1.9
SliderTickRate:1

[Events]
//Background and Video events
0,0,"BG.jpg",0,0
//Break Periods
//Storyboard Layer 0 (Background)
//Storyboard Layer 1 (Fail)
//Storyboard Layer 2 (Pass)
//Storyboard Layer 3 (Foreground)
//Storyboard Sound Samples

[TimingPoints]
528,744.837317073171,4,2,0,100,1,0
1272,594.059405940594,4,2,0,100,1,0
1569,664.819944598338,4,2,0,100,1,0
1901,742.115027829314,4,2,0,100,1,0
3385,734.394124847001,4,2,0,100,1,0
4119,705.882352941176,4,2,0,100,1,0
5177,710.059171597633,4,2,0,100,1,0
6242,714.285714285714,4,2,0,100,1,0
12686,682.59385665529,4,2,0,100,1,0
13027,694.444444444444,4,2,0,100,1,0
13374,719.856028794241,4,2,0,100,1,0
14813,734.394124847001,4,2,0,100,1,0
15547,714.285714285714,4,2,0,100,1,0
15904,766.283524904215,4,2,0,100,1,0
16287,626.959247648903,4,2,0,100,1,0
16600,714.285714285714,4,2,0,100,1,0
18385,714.285714285714,4,2,0,100,1,0
46956,754.716981132075,4,2,0,100,1,0
47333,633.579725448786,4,2,0,100,1,0
47649,725.075528700906,4,2,0,100,1,0
49099,714.285714285714,4,2,0,100,1,0
49813,714.285714285714,4,2,0,100,1,0
58027,774.193548387097,4,2,0,100,1,0
58414,673.400673400673,4,2,0,100,1,0
58750,635.593220338983,4,2,0,100,1,0
59067,779.220779220779,4,2,0,100,1,0
59456,714.285714285714,4,2,0,100,1,0
60527,714.285714285714,4,2,0,100,1,0

[Colours]
Combo1 : 192,192,192
Combo2 : 255,128,64
Combo3 : 0,128,255
Combo4 : 255,128,128

[HitObjects]
184,56,528,6,0,P|120:88|136:200,1,190.000000596046,2|6,0:0|0:0,0:0:0:0:
224,192,1569,1,0,0:0:0:0:
360,192,1901,1,2,0:0:0:0:
360,192,3385,5,2,0:0:0:0:
264,192,3752,1,0,0:0:0:0:
112,96,4119,5,6,0:0:0:0:
208,96,4471,1,0,0:0:0:0:
303,96,4824,1,2,0:0:0:0:
400,96,5177,2,0,P|464:136|384:184,1,190.000000596046,2|0,0:0|0:0,0:0:0:0:
304,192,6242,6,0,P|240:232|320:280,1,190.000000596046,2|6,0:0|0:0,0:0:0:0:
208,192,7313,1,0,0:0:0:0:
112,192,7670,1,2,0:0:0:0:
320,192,8384,5,6,0:0:0:0:
224,192,8742,1,0,0:0:0:0:
128,192,9099,2,0,P|64:232|144:280,1,190.000000596046,2|2,0:0|0:0,0:0:0:0:
376,288,10527,2,0,P|376:192|280:192,1,190,2|2,0:0|0:0,0:0:0:0:
296,288,11956,6,0,L|200:288,1,95.000000298023,2|0,0:0|0:0,0:0:0:0:
344,192,12686,2,0,L|440:192,1,95,6|0,0:0|0:0,0:0:0:0:
296,288,13374,1,2,0:0:0:0:
136,192,14813,5,2,0:0:0:0:
232,192,15180,1,0,0:0:0:0:
384,192,15547,5,6,0:0:0:0:
288,192,15904,1,0,0:0:0:0:
152,192,16287,1,2,0:0:0:0:
56,192,16600,1,4,0:0:0:0:
200,112,16957,2,0,P|288:160|176:264,1,285.000000894069,2|0,0:0|0:0,0:0:0:0:
344,272,18385,6,0,L|440:272,2,95.000000298023,6|0|2,0:0|0:0|0:0,0:0:0:0:
136,272,19813,2,0,L|40:272,2,95,6|0|2,0:0|0:0|0:0,0:0:0:0:
216,176,20885,1,0,0:0:0:0:
279,83,21242,6,0,P|377:140|219:270,1,380,2|0,0:0|0:0,0:0:0:0:
448,192,23385,1,2,0:0:0:0:
224,64,24099,6,0,L|416:64,1,190.000000596046,2|2,0:0|0:0,0:0:0:0:
320,64,25170,1,0,0:0:0:0:
224,64,25527,6,0,P|160:104|240:152,1,190,2|2,0:0|0:0,0:0:0:0:
328,160,26599,1,0,0:0:0:0:
224,200,26956,6,0,L|24:200,1,190.000000596046,2|2,0:0|0:0,0:0:0:0:
128,200,28027,1,0,0:0:0:0:
224,96,28384,6,0,L|128:96,1,95.000000298023,2|0,0:0|0:0,0:0:0:0:
224,200,29099,1,2,0:0:0:0:
320,200,29456,1,0,0:0:0:0:
448,88,29813,6,0,L|344:88,1,95.000000298023,2|0,0:0|0:0,0:0:0:0:
256,192,30527,2,0,L|352:192,1,95.000000298023,2|0,0:0|0:0,0:0:0:0:
256,88,31242,5,2,0:0:0:0:
160,88,31599,1,0,0:0:0:0:
64,88,31956,1,2,0:0:0:0:
160,192,32313,1,0,0:0:0:0:
312,296,32670,6,0,L|120:296,1,190.000000596046,2|2,0:0|0:0,0:0:0:0:
216,296,33742,1,0,0:0:0:0:
312,296,34099,2,0,P|376:256|296:208,1,190.000000596046,2|2,0:0|0:0,0:0:0:0:
112,88,35527,6,0,L|304:88,1,190.000000596046,2|2,0:0|0:0,0:0:0:0:
208,88,36599,1,0,0:0:0:0:
112,192,36956,6,0,L|304:192,1,190.000000596046,2|2,0:0|0:0,0:0:0:0:
208,192,38027,1,0,0:0:0:0:
302,192,38384,6,0,P|366:232|286:280,1,190.000000596046,2|2,0:0|0:0,0:0:0:0:
200,88,39456,1,0,0:0:0:0:
296,88,39813,6,0,L|392:88,1,95.000000298023,2|0,0:0|0:0,0:0:0:0:
296,192,40527,2,0,L|200:192,1,95.000000298023,2|0,0:0|0:0,0:0:0:0:
296,96,41242,5,2,0:0:0:0:
200,96,41599,1,0,0:0:0:0:
104,96,41956,1,2,0:0:0:0:
200,96,42313,1,0,0:0:0:0:
352,192,42670,6,0,L|176:64,1,190,2|2,0:0|0:0,0:0:0:0:
408,304,44099,2,0,L|248:184,1,190,2|2,0:0|0:0,0:0:0:0:
464,264,45527,2,0,L|368:192,1,95,2|0,0:0|0:0,0:0:0:0:
272,264,46242,6,0,P|208:224|288:176,1,190.000000596046,2|6,0:0|0:0,0:0:0:0:
176,168,47333,1,0,0:0:0:0:
32,168,47649,1,2,0:0:0:0:
32,288,49099,5,2,0:0:0:0:
128,288,49456,1,0,0:0:0:0:
280,288,49813,5,6,0:0:0:0:
184,288,50170,1,0,0:0:0:0:
88,288,50527,1,2,0:0:0:0:
184,288,50884,2,0,P|184:96|184:96,1,190,2|0,0:0|0:0,0:0:0:0:
280,192,51955,6,0,P|344:152|264:104,1,190.000000596046,2|6,0:0|0:0,0:0:0:0:
376,96,53027,1,0,0:0:0:0:
472,96,53384,1,2,0:0:0:0:
264,96,54098,5,6,0:0:0:0:
360,96,54455,1,0,0:0:0:0:
456,96,54813,2,0,P|520:136|440:184,1,190.000000596046,2|2,0:0|0:0,0:0:0:0:
208,280,56241,2,0,P|208:184|304:184,1,190,2|2,0:0|0:0,0:0:0:0:
288,280,57670,6,0,L|384:280,1,95.000000298023,2|0,0:0|0:0,0:0:0:0:
240,192,58414,2,0,L|144:192,1,95.000000298023,6|0,0:0|0:0,0:0:0:0:
288,280,59067,1,2,0:0:0:0:
384,192,59456,6,0,L|288:192,2,95.000000298023,2|2|2,0:0|0:0|0:0,0:0:0:0:
280,88,60527,1,2,0:0:0:0:
184,88,60884,1,0,0:0:0:0:
32,192,61241,5,6,0:0:0:0:
128,192,61598,1,0,0:0:0:0:
224,192,61955,1,2,0:0:0:0:
320,80,62312,1,4,0:0:0:0:
176,80,62669,2,0,P|72:128|200:176,1,285,2|0,0:0|0:0,0:0:0:0:
320,200,64098,6,0,L|424:200,2,95,6|0|2,0:0|0:0|0:0,0:0:0:0:
152,200,65527,2,0,L|56:200,2,95,6|0|2,0:0|0:0|0:0,0:0:0:0:
256,192,66955,12,0,68384,0:0:0:0:
