osu file format v14

[General]
AudioFilename: thatday.mp3
AudioLeadIn: 0
PreviewTime: 23920
Countdown: 0
SampleSet: Soft
StackLeniency: 0.7
Mode: 3
LetterboxInBreaks: 0
SpecialStyle: 0
WidescreenStoryboard: 1

[Editor]
Bookmarks: 12626,46896,58354
DistanceSpacing: 1.8
BeatDivisor: 16
GridSize: 4
TimelineZoom: 1.6

[Metadata]
Title:that day
TitleUnicode:that day
Artist:sakuzyo
ArtistUnicode:削除
Creator:Roasted Chicken
Version:Stroll
Source:
Tags:DVSP-0096 L'aventale laventale diverse system violin unluckycroco instrumental classical LN long notes comiket comicmarket 84 c84
BeatmapID:4380905
BeatmapSetID:1599430

[Difficulty]
HPDrainRate:7
CircleSize:7
OverallDifficulty:7
ApproachRate:5
SliderMultiplier:1.4
SliderTickRate:1

[Events]
//Background and Video events
0,0,"laventalefinal.jpg",0,0
//Break Periods
//Storyboard Layer 0 (Background)
//Storyboard Layer 1 (Fail)
//Storyboard Layer 2 (Pass)
//Storyboard Layer 3 (Foreground)
//Storyboard Layer 4 (Overlay)
//Storyboard Sound Samples

[TimingPoints]
-277,744.832722984296,4,2,1,40,1,8
-277,-96.1538461538461,4,2,1,40,0,0
1212,594.059405940594,4,2,1,40,1,0
1212,-120.481927710843,4,2,1,40,0,0
1509,664.819944598338,4,2,1,40,1,8
1509,-107.52688172043,4,2,1,40,0,0
1841,742.115027829314,4,2,1,40,1,8
1841,-96.1538461538461,4,2,1,40,0,0
3325,734.394124847001,4,2,1,40,1,8
3325,-97.0873786407767,4,2,1,40,0,0
4059,705.882352941176,4,2,1,40,1,0
4059,-101.010101010101,4,2,1,40,0,0
5117,710.059171597633,4,2,1,40,1,8
5117,-101.010101010101,4,2,1,40,0,0
6182,714.285714285714,4,2,1,40,1,8
6182,-100,4,2,1,40,0,0
6896,714.285714285714,4,2,1,40,1,0
12610,714.285714285714,4,2,1,40,1,8
12626,682.59385665529,4,2,1,40,1,0
12626,-104.166666666667,4,2,1,40,0,0
12967,694.444444444444,4,2,1,40,1,8
12967,-103.092783505155,4,2,1,40,0,0
13314,719.856028794241,4,2,1,40,1,8
13314,-99.009900990099,4,2,1,40,0,0
14753,734.394124847001,4,2,1,40,1,8
14753,-97.0873786407767,4,2,1,40,0,0
15487,714.285714285714,4,2,1,40,1,0
15487,-100,4,2,1,40,0,0
15844,766.283524904215,4,2,1,40,1,8
15844,-93.4579439252336,4,2,1,40,0,0
16227,626.959247648903,4,2,1,40,1,8
16227,-113.636363636364,4,2,1,40,0,0
16540,714.285714285714,4,2,1,40,1,8
16540,-100,4,2,1,40,0,0
18325,714.285714285714,4,2,1,40,1,0
18325,-100,4,2,1,40,0,0
24039,-100,4,2,1,40,0,1
46896,754.716981132075,4,2,1,40,1,0
46896,-94.3396226415094,4,2,1,40,0,0
47273,554.016620498615,4,2,1,40,1,8
47273,-128.205128205128,4,2,1,40,0,0
47550,744.500006204167,4,2,1,40,1,8
47550,-96.1538461538461,4,2,1,40,0,0
49039,714.285714285714,4,2,1,40,1,8
49039,-100,4,2,1,40,0,0
49753,714.285714285714,4,2,1,40,1,0
49753,-100,4,2,1,40,0,0
57967,774.193548387097,4,2,1,40,1,8
57967,-92.5925925925926,4,2,1,40,0,0
58354,673.400673400673,4,2,1,40,1,0
58354,-106.382978723404,4,2,1,40,0,0
58690,635.593220338983,4,2,1,40,1,8
58690,-112.359550561798,4,2,1,40,0,0
59007,779.220779220779,4,2,1,40,1,8
59007,-91.743119266055,4,2,1,40,0,0
59396,714.285714285714,4,2,1,40,1,8
59396,-100,4,2,1,40,0,0
61181,714.285714285714,4,2,1,40,1,0

[HitObjects]
475,192,405,128,0,1038:0:0:0:0:
182,192,1038,1,0,0:0:0:0:
256,192,1125,1,0,0:0:0:0:
36,192,1212,1,0,0:0:0:0:
329,192,1212,1,0,0:0:0:0:
402,192,1509,1,0,0:0:0:0:
109,192,1841,1,0,0:0:0:0:
256,192,1841,1,0,0:0:0:0:
475,192,3325,128,0,3692:0:0:0:0:
329,192,3692,1,0,0:0:0:0:
182,192,3875,1,0,0:0:0:0:
36,192,4059,128,0,4411:0:0:0:0:
256,192,4059,1,0,0:0:0:0:
182,192,4411,128,0,4764:0:0:0:0:
329,192,4764,128,0,5117:0:0:0:0:
475,192,5117,128,0,5915:0:0:0:0:
475,192,6182,1,0,0:0:0:0:
329,192,6360,1,0,0:0:0:0:
182,192,6539,1,0,0:0:0:0:
109,192,6717,1,0,0:0:0:0:
329,192,6896,1,0,0:0:0:0:
475,192,6896,1,0,0:0:0:0:
36,192,7253,128,0,7610:0:0:0:0:
182,192,7610,128,0,8101:0:0:0:0:
329,192,8324,1,0,0:0:0:0:
475,192,8324,1,0,0:0:0:0:
256,192,8681,128,0,9038:0:0:0:0:
109,192,9038,1,0,0:0:0:0:
402,192,9217,1,0,0:0:0:0:
182,192,9396,1,0,0:0:0:0:
36,192,9574,1,0,0:0:0:0:
475,192,9753,128,0,10467:0:0:0:0:
36,192,10467,128,0,10824:0:0:0:0:
182,192,10824,1,0,0:0:0:0:
256,192,10913,1,0,0:0:0:0:
402,192,11003,1,0,0:0:0:0:
329,192,11092,1,0,0:0:0:0:
109,192,11181,1,0,0:0:0:0:
256,192,11895,1,0,0:0:0:0:
36,192,11895,1,0,0:0:0:0:
402,192,12253,1,0,0:0:0:0:
182,192,12431,1,0,0:0:0:0:
256,192,12520,1,0,0:0:0:0:
36,192,12626,1,0,0:0:0:0:
329,192,12626,1,0,0:0:0:0:
475,192,12967,1,0,0:0:0:0:
256,192,13314,1,0,0:0:0:0:
109,192,13314,1,0,0:0:0:0:
475,192,14618,128,0,15028:0:0:0:0:
402,192,15028,1,0,0:0:0:0:
256,192,15257,1,0,0:0:0:0:
109,192,15487,128,0,15844:0:0:0:0:
329,192,15487,1,0,0:0:0:0:
402,192,15844,128,0,16227:0:0:0:0:
36,192,16227,128,0,16540:0:0:0:0:
475,192,16540,128,0,16897:0:0:0:0:
109,192,16540,1,0,0:0:0:0:
402,192,16897,1,0,0:0:0:0:
329,192,17075,1,0,0:0:0:0:
109,192,17254,1,0,0:0:0:0:
36,192,17432,1,0,0:0:0:0:
182,192,17611,1,0,0:0:0:0:
329,192,17790,1,0,0:0:0:0:
402,192,17968,1,0,0:0:0:0:
475,192,18147,1,0,0:0:0:0:
36,192,18325,1,0,0:0:0:0:
256,192,18325,1,0,0:0:0:0:
109,192,18682,128,0,19039:0:0:0:0:
182,192,19039,128,0,19530:0:0:0:0:
256,192,19753,1,0,0:0:0:0:
36,192,19753,1,0,0:0:0:0:
475,192,20110,128,0,20467:0:0:0:0:
329,192,20467,1,0,0:0:0:0:
182,192,20825,1,0,0:0:0:0:
109,192,21182,1,0,0:0:0:0:
256,192,21182,128,0,22610:0:0:0:0:
36,192,21896,1,0,0:0:0:0:
475,192,22253,1,0,0:0:0:0:
182,192,22610,1,0,0:0:0:0:
36,192,23325,1,0,0:0:0:0:
475,192,24039,128,0,24753:0:0:0:0:
329,192,24039,128,0,24753:0:0:0:0:
109,192,24039,1,0,0:0:0:0:
182,192,24396,1,0,0:0:0:0:
256,192,24753,128,0,25110:0:0:0:0:
36,192,24753,1,0,0:0:0:0:
109,192,25110,128,0,25467:0:0:0:0:
402,192,25467,128,0,26182:0:0:0:0:
256,192,25467,1,0,0:0:0:0:
182,192,25824,1,0,0:0:0:0:
109,192,26182,128,0,26539:0:0:0:0:
256,192,26182,1,0,0:0:0:0:
36,192,26539,128,0,26896:0:0:0:0:
329,192,26896,128,0,27610:0:0:0:0:
475,192,26896,1,0,0:0:0:0:
182,192,27253,1,0,0:0:0:0:
36,192,27610,128,0,27967:0:0:0:0:
256,192,27610,1,0,0:0:0:0:
402,192,27967,128,0,28324:0:0:0:0:
256,192,28324,128,0,28682:0:0:0:0:
475,192,28324,1,0,0:0:0:0:
109,192,28682,128,0,29039:0:0:0:0:
256,192,29039,128,0,29277:0:0:0:0:
475,192,29039,1,0,0:0:0:0:
36,192,29277,1,0,0:0:0:0:
182,192,29396,1,0,0:0:0:0:
402,192,29515,1,0,0:0:0:0:
256,192,29634,1,0,0:0:0:0:
109,192,29753,1,0,0:0:0:0:
329,192,29753,128,0,30110:0:0:0:0:
182,192,30110,1,0,0:0:0:0:
329,192,30467,128,0,30824:0:0:0:0:
256,192,30467,1,0,0:0:0:0:
36,192,30467,1,0,0:0:0:0:
109,192,30824,1,0,0:0:0:0:
402,192,31182,128,0,31539:0:0:0:0:
329,192,31182,1,0,0:0:0:0:
182,192,31182,1,0,0:0:0:0:
256,192,31539,1,0,0:0:0:0:
182,192,31896,128,0,32253:0:0:0:0:
109,192,31896,1,0,0:0:0:0:
329,192,31896,1,0,0:0:0:0:
36,192,32253,128,0,32610:0:0:0:0:
475,192,32610,128,0,33324:0:0:0:0:
402,192,32610,128,0,33324:0:0:0:0:
256,192,32610,1,0,0:0:0:0:
182,192,32967,1,0,0:0:0:0:
256,192,33324,128,0,33682:0:0:0:0:
36,192,33324,1,0,0:0:0:0:
109,192,33682,1,0,0:0:0:0:
329,192,34039,128,0,34753:0:0:0:0:
475,192,34039,1,0,0:0:0:0:
182,192,34396,1,0,0:0:0:0:
109,192,34753,1,0,0:0:0:0:
36,192,35467,128,0,36182:0:0:0:0:
182,192,35467,128,0,36182:0:0:0:0:
329,192,35467,1,0,0:0:0:0:
402,192,35824,1,0,0:0:0:0:
475,192,36182,128,0,36539:0:0:0:0:
256,192,36182,1,0,0:0:0:0:
109,192,36539,128,0,36896:0:0:0:0:
256,192,36896,128,0,37610:0:0:0:0:
402,192,36896,1,0,0:0:0:0:
109,192,37253,1,0,0:0:0:0:
402,192,37610,128,0,37967:0:0:0:0:
36,192,37610,1,0,0:0:0:0:
182,192,37967,128,0,38324:0:0:0:0:
475,192,38324,128,0,39039:0:0:0:0:
329,192,38324,1,0,0:0:0:0:
109,192,38682,1,0,0:0:0:0:
256,192,39039,128,0,39396:0:0:0:0:
36,192,39039,1,0,0:0:0:0:
109,192,39396,128,0,39753:0:0:0:0:
402,192,39753,128,0,40110:0:0:0:0:
256,192,39753,1,0,0:0:0:0:
182,192,40110,1,0,0:0:0:0:
402,192,40467,128,0,40824:0:0:0:0:
256,192,40467,1,0,0:0:0:0:
109,192,40824,1,0,0:0:0:0:
182,192,41182,128,0,41539:0:0:0:0:
329,192,41182,1,0,0:0:0:0:
402,192,41539,1,0,0:0:0:0:
182,192,41896,128,0,42253:0:0:0:0:
329,192,41896,1,0,0:0:0:0:
475,192,42253,128,0,42610:0:0:0:0:
256,192,42610,1,0,0:0:0:0:
36,192,42610,1,0,0:0:0:0:
256,192,42967,1,0,0:0:0:0:
36,192,43324,128,0,44039:0:0:0:0:
402,192,43324,1,0,0:0:0:0:
256,192,43682,1,0,0:0:0:0:
329,192,44039,128,0,44753:0:0:0:0:
475,192,44039,1,0,0:0:0:0:
109,192,44396,1,0,0:0:0:0:
36,192,44753,128,0,45467:0:0:0:0:
182,192,44753,1,0,0:0:0:0:
402,192,45110,1,0,0:0:0:0:
329,192,45467,128,0,45824:0:0:0:0:
475,192,45467,1,0,0:0:0:0:
109,192,45824,128,0,46182:0:0:0:0:
475,192,46182,128,0,46740:0:0:0:0:
256,192,46182,1,0,0:0:0:0:
182,192,46740,1,0,0:0:0:0:
256,192,46818,1,0,0:0:0:0:
329,192,46896,1,0,0:0:0:0:
36,192,46896,1,0,0:0:0:0:
475,192,47273,1,0,0:0:0:0:
109,192,47550,1,0,0:0:0:0:
256,192,47550,1,0,0:0:0:0:
475,192,49039,128,0,49396:0:0:0:0:
329,192,49396,1,0,0:0:0:0:
182,192,49574,1,0,0:0:0:0:
36,192,49753,128,0,50110:0:0:0:0:
475,192,49753,1,0,0:0:0:0:
182,192,50110,128,0,50467:0:0:0:0:
329,192,50467,128,0,50824:0:0:0:0:
475,192,50824,128,0,51650:0:0:0:0:
475,192,51895,1,0,0:0:0:0:
329,192,52074,1,0,0:0:0:0:
182,192,52253,1,0,0:0:0:0:
109,192,52431,1,0,0:0:0:0:
475,192,52610,1,0,0:0:0:0:
329,192,52610,1,0,0:0:0:0:
36,192,52967,128,0,53324:0:0:0:0:
182,192,53324,128,0,53800:0:0:0:0:
475,192,54038,1,0,0:0:0:0:
329,192,54038,1,0,0:0:0:0:
256,192,54395,128,0,54753:0:0:0:0:
109,192,54753,1,0,0:0:0:0:
402,192,54931,1,0,0:0:0:0:
182,192,55110,1,0,0:0:0:0:
36,192,55288,1,0,0:0:0:0:
475,192,55467,128,0,56181:0:0:0:0:
36,192,56181,128,0,56538:0:0:0:0:
182,192,56538,1,0,0:0:0:0:
256,192,56628,1,0,0:0:0:0:
402,192,56717,1,0,0:0:0:0:
329,192,56806,1,0,0:0:0:0:
109,192,56895,1,0,0:0:0:0:
256,192,57610,1,0,0:0:0:0:
36,192,57610,1,0,0:0:0:0:
402,192,57967,1,0,0:0:0:0:
182,192,58160,1,0,0:0:0:0:
256,192,58257,1,0,0:0:0:0:
329,192,58354,1,0,0:0:0:0:
36,192,58354,1,0,0:0:0:0:
475,192,58690,1,0,0:0:0:0:
109,192,59007,1,0,0:0:0:0:
256,192,59007,1,0,0:0:0:0:
329,192,59396,1,0,0:0:0:0:
256,192,59396,1,0,0:0:0:0:
109,192,59753,1,0,0:0:0:0:
36,192,59753,1,0,0:0:0:0:
329,192,60110,1,0,0:0:0:0:
402,192,60110,1,0,0:0:0:0:
475,192,60348,128,0,60824:0:0:0:0:
402,192,60824,1,0,0:0:0:0:
256,192,61003,1,0,0:0:0:0:
329,192,61181,1,0,0:0:0:0:
109,192,61181,128,0,61538:0:0:0:0:
402,192,61538,128,0,61895:0:0:0:0:
36,192,61895,1,0,0:0:0:0:
182,192,62014,1,0,0:0:0:0:
329,192,62133,1,0,0:0:0:0:
109,192,62252,1,0,0:0:0:0:
475,192,62252,128,0,62609:0:0:0:0:
402,192,62609,1,0,0:0:0:0:
329,192,62788,1,0,0:0:0:0:
109,192,62966,1,0,0:0:0:0:
36,192,63145,1,0,0:0:0:0:
182,192,63323,1,0,0:0:0:0:
329,192,63502,1,0,0:0:0:0:
402,192,63681,1,0,0:0:0:0:
475,192,63859,1,0,0:0:0:0:
256,192,64038,1,0,0:0:0:0:
36,192,64038,1,0,0:0:0:0:
402,192,64395,1,0,0:0:0:0:
329,192,64514,1,0,0:0:0:0:
182,192,64633,1,0,0:0:0:0:
109,192,64752,128,0,65109:0:0:0:0:
329,192,65109,1,0,0:0:0:0:
402,192,65109,1,0,0:0:0:0:
256,192,65466,1,0,0:0:0:0:
36,192,65466,1,0,0:0:0:0:
475,192,65823,128,0,66181:0:0:0:0:
329,192,66181,1,0,0:0:0:0:
182,192,66538,1,0,0:0:0:0:
109,192,66895,128,0,68323:0:0:0:0:
256,192,66895,1,0,0:0:0:0:
329,192,67609,1,0,0:0:0:0:
402,192,68323,1,0,0:0:0:0:
475,192,68323,1,0,0:0:0:0:
