osu file format v14

[General]
AudioFilename: thatday.mp3
AudioLeadIn: 0
PreviewTime: 23920
Countdown: 0
SampleSet: Soft
StackLeniency: 0.7
Mode: 3
LetterboxInBreaks: 0
SpecialStyle: 0
WidescreenStoryboard: 1

[Editor]
Bookmarks: 46896
DistanceSpacing: 1.8
BeatDivisor: 16
GridSize: 4
TimelineZoom: 1.800006

[Metadata]
Title:that day
TitleUnicode:that day
Artist:sakuzyo
ArtistUnicode:削除
Creator:Roasted Chicken
Version:An Unforgettable Voyage
Source:
Tags:DVSP-0096 L'aventale laventale diverse system violin unluckycroco instrumental classical LN long notes comiket comicmarket 84 c84
BeatmapID:3266589
BeatmapSetID:1599430

[Difficulty]
HPDrainRate:9
CircleSize:7
OverallDifficulty:7
ApproachRate:5
SliderMultiplier:1.4
SliderTickRate:1

[Events]
//Background and Video events
0,0,"laventalefinal.jpg",0,0
//Break Periods
//Storyboard Layer 0 (Background)
//Storyboard Layer 1 (Fail)
//Storyboard Layer 2 (Pass)
//Storyboard Layer 3 (Foreground)
//Storyboard Layer 4 (Overlay)
//Storyboard Sound Samples

[TimingPoints]
-277,744.832722984296,4,2,1,40,1,8
-277,-96.1538461538461,4,2,1,40,0,0
1212,594.059405940594,4,2,1,40,1,0
1212,-120.481927710843,4,2,1,40,0,0
1509,664.819944598338,4,2,1,40,1,8
1509,-107.52688172043,4,2,1,40,0,0
1841,742.115027829314,4,2,1,40,1,8
1841,-96.1538461538461,4,2,1,40,0,0
3325,734.394124847001,4,2,1,40,1,8
3325,-97.0873786407767,4,2,1,40,0,0
4059,705.882352941176,4,2,1,40,1,0
4059,-101.010101010101,4,2,1,40,0,0
5117,710.059171597633,4,2,1,40,1,8
5117,-101.010101010101,4,2,1,40,0,0
6182,714.285714285714,4,2,1,40,1,8
6182,-100,4,2,1,40,0,0
6896,714.285714285714,4,2,1,40,1,0
12610,714.285714285714,4,2,1,40,1,8
12626,682.59385665529,4,2,1,40,1,0
12626,-104.166666666667,4,2,1,40,0,0
12967,694.444444444444,4,2,1,40,1,8
12967,-103.092783505155,4,2,1,40,0,0
13314,719.856028794241,4,2,1,40,1,8
13314,-99.009900990099,4,2,1,40,0,0
14753,734.394124847001,4,2,1,40,1,8
14753,-97.0873786407767,4,2,1,40,0,0
15487,714.285714285714,4,2,1,40,1,0
15487,-100,4,2,1,40,0,0
15844,766.283524904215,4,2,1,40,1,8
15844,-93.4579439252336,4,2,1,40,0,0
16227,626.959247648903,4,2,1,40,1,8
16227,-113.636363636364,4,2,1,40,0,0
16540,714.285714285714,4,2,1,40,1,8
16540,-100,4,2,1,40,0,0
18325,714.285714285714,4,2,1,40,1,0
18325,-100,4,2,1,40,0,0
24039,-100,4,2,1,40,0,1
46896,754.716981132075,4,2,1,40,1,0
46896,-94.3396226415094,4,2,1,40,0,0
47273,554.016620498615,4,2,1,40,1,8
47273,-128.205128205128,4,2,1,40,0,0
47550,744.500006204167,4,2,1,40,1,8
47550,-96.1538461538461,4,2,1,40,0,0
49039,714.285714285714,4,2,1,40,1,8
49039,-100,4,2,1,40,0,0
49753,714.285714285714,4,2,1,40,1,0
49753,-100,4,2,1,40,0,0
57967,774.193548387097,4,2,1,40,1,8
57967,-92.5925925925926,4,2,1,40,0,0
58354,673.400673400673,4,2,1,40,1,0
58354,-106.382978723404,4,2,1,40,0,0
58690,635.593220338983,4,2,1,40,1,8
58690,-112.359550561798,4,2,1,40,0,0
59007,779.220779220779,4,2,1,40,1,8
59007,-91.743119266055,4,2,1,40,0,0
59396,714.285714285714,4,2,1,40,1,8
59396,-100,4,2,1,40,0,0
61181,714.285714285714,4,2,1,40,1,0

[HitObjects]
36,192,405,128,0,933:0:0:0:0:
475,192,467,1,0,0:0:0:0:
182,192,1003,128,0,1212:0:0:0:0:
256,192,1096,128,0,1212:0:0:0:0:
329,192,1166,128,0,1212:0:0:0:0:
475,192,1212,1,0,0:0:0:0:
402,192,1212,1,0,0:0:0:0:
109,192,1212,128,0,1286:0:0:0:0:
36,192,1212,128,0,1360:0:0:0:0:
475,192,1509,128,0,1554:0:0:0:0:
329,192,1550,1,0,0:0:0:0:
182,192,1841,128,0,1887:0:0:0:0:
109,192,1841,128,0,1930:0:0:0:0:
475,192,3325,128,0,3692:0:0:0:0:
402,192,3325,1,0,0:0:0:0:
256,192,3692,128,0,4059:0:0:0:0:
329,192,3692,1,0,0:0:0:0:
182,192,3875,1,0,0:0:0:0:
36,192,4059,128,0,4367:0:0:0:0:
109,192,4059,1,0,0:0:0:0:
402,192,4059,1,0,0:0:0:0:
182,192,4411,128,0,4720:0:0:0:0:
329,192,4764,128,0,5073:0:0:0:0:
475,192,5117,128,0,5915:0:0:0:0:
36,192,5117,128,0,6182:0:0:0:0:
402,192,5117,1,0,0:0:0:0:
182,192,6182,128,0,6896:0:0:0:0:
475,192,6182,128,0,6315:0:0:0:0:
402,192,6360,128,0,6494:0:0:0:0:
329,192,6539,128,0,6673:0:0:0:0:
256,192,6717,128,0,6807:0:0:0:0:
402,192,6896,128,0,6940:0:0:0:0:
109,192,6896,128,0,7610:0:0:0:0:
36,192,6896,1,0,0:0:0:0:
329,192,6896,1,0,0:0:0:0:
475,192,6896,128,0,6985:0:0:0:0:
182,192,7253,128,0,7610:0:0:0:0:
402,192,7253,1,0,0:0:0:0:
256,192,7521,128,0,7699:0:0:0:0:
36,192,7610,128,0,7967:0:0:0:0:
475,192,7610,1,0,0:0:0:0:
329,192,7610,128,0,8101:0:0:0:0:
402,192,8324,128,0,8369:0:0:0:0:
329,192,8324,1,0,0:0:0:0:
182,192,8324,1,0,0:0:0:0:
475,192,8324,128,0,8369:0:0:0:0:
109,192,8681,1,0,0:0:0:0:
329,192,8682,128,0,9039:0:0:0:0:
256,192,8949,128,0,9128:0:0:0:0:
182,192,9039,128,0,9217:0:0:0:0:
475,192,9039,1,0,0:0:0:0:
402,192,9217,128,0,9306:0:0:0:0:
109,192,9217,1,0,0:0:0:0:
329,192,9217,1,0,0:0:0:0:
36,192,9396,1,0,0:0:0:0:
256,192,9396,128,0,9455:0:0:0:0:
475,192,9396,1,0,0:0:0:0:
182,192,9574,1,0,0:0:0:0:
109,192,9574,128,0,9619:0:0:0:0:
475,192,9753,128,0,11181:0:0:0:0:
329,192,9753,1,0,0:0:0:0:
36,192,9753,128,0,11181:0:0:0:0:
402,192,10110,128,0,11181:0:0:0:0:
182,192,10199,1,0,0:0:0:0:
329,192,10289,1,0,0:0:0:0:
109,192,10378,1,0,0:0:0:0:
256,192,10467,1,0,0:0:0:0:
329,192,10556,1,0,0:0:0:0:
182,192,10646,1,0,0:0:0:0:
256,192,10735,1,0,0:0:0:0:
109,192,10824,1,0,0:0:0:0:
182,192,10914,1,0,0:0:0:0:
329,192,11003,1,0,0:0:0:0:
256,192,11092,1,0,0:0:0:0:
109,192,11181,128,0,11895:0:0:0:0:
182,192,11203,1,0,0:0:0:0:
329,192,11203,1,0,0:0:0:0:
36,192,11895,128,0,11940:0:0:0:0:
402,192,11896,1,0,0:0:0:0:
475,192,11896,128,0,12521:0:0:0:0:
182,192,11896,128,0,11985:0:0:0:0:
256,192,12253,128,0,12626:0:0:0:0:
109,192,12253,1,0,0:0:0:0:
329,192,12431,128,0,12626:0:0:0:0:
402,192,12521,128,0,12626:0:0:0:0:
475,192,12626,1,0,0:0:0:0:
182,192,12626,1,0,0:0:0:0:
109,192,12626,128,0,12711:0:0:0:0:
36,192,12626,128,0,12796:0:0:0:0:
329,192,12967,1,0,0:0:0:0:
475,192,12967,128,0,13010:0:0:0:0:
182,192,13314,128,0,13360:0:0:0:0:
109,192,13314,128,0,13403:0:0:0:0:
475,192,14633,128,0,14997:0:0:0:0:
256,192,14753,128,0,15487:0:0:0:0:
36,192,14753,1,0,0:0:0:0:
329,192,15028,128,0,15166:0:0:0:0:
109,192,15120,1,0,0:0:0:0:
182,192,15242,128,0,15426:0:0:0:0:
402,192,15303,1,0,0:0:0:0:
36,192,15487,128,0,15799:0:0:0:0:
475,192,15487,128,0,15844:0:0:0:0:
109,192,15487,1,0,0:0:0:0:
329,192,15487,1,0,0:0:0:0:
109,192,15844,128,0,16179:0:0:0:0:
256,192,15844,1,0,0:0:0:0:
182,192,16227,128,0,16501:0:0:0:0:
329,192,16520,1,0,0:0:0:0:
475,192,16540,128,0,16897:0:0:0:0:
36,192,16540,128,0,18325:0:0:0:0:
402,192,16540,1,0,0:0:0:0:
329,192,16837,128,0,16956:0:0:0:0:
402,192,16897,128,0,16956:0:0:0:0:
182,192,16897,1,0,0:0:0:0:
329,192,17075,128,0,17135:0:0:0:0:
256,192,17254,128,0,17313:0:0:0:0:
109,192,17254,1,0,0:0:0:0:
182,192,17432,128,0,17492:0:0:0:0:
109,192,17611,128,0,17670:0:0:0:0:
475,192,17611,1,0,0:0:0:0:
182,192,17790,128,0,17834:0:0:0:0:
256,192,17968,128,0,18013:0:0:0:0:
329,192,17968,1,0,0:0:0:0:
402,192,18147,128,0,18191:0:0:0:0:
182,192,18147,1,0,0:0:0:0:
256,192,18325,128,0,18414:0:0:0:0:
329,192,18325,128,0,18369:0:0:0:0:
109,192,18325,1,0,0:0:0:0:
475,192,18325,128,0,19039:0:0:0:0:
36,192,18682,128,0,19039:0:0:0:0:
182,192,18682,1,0,0:0:0:0:
109,192,18950,128,0,19128:0:0:0:0:
182,192,19039,128,0,19217:0:0:0:0:
402,192,19039,128,0,19396:0:0:0:0:
329,192,19039,1,0,0:0:0:0:
256,192,19128,128,0,19530:0:0:0:0:
256,192,19753,128,0,19842:0:0:0:0:
329,192,19753,128,0,19798:0:0:0:0:
36,192,19753,128,0,20467:0:0:0:0:
475,192,19753,1,0,0:0:0:0:
109,192,19753,1,0,0:0:0:0:
475,192,20110,128,0,20333:0:0:0:0:
182,192,20110,1,0,0:0:0:0:
402,192,20244,128,0,20467:0:0:0:0:
329,192,20378,128,0,20557:0:0:0:0:
109,192,20467,1,0,0:0:0:0:
475,192,20467,128,0,20825:0:0:0:0:
256,192,20512,128,0,20646:0:0:0:0:
182,192,20825,1,0,0:0:0:0:
36,192,20825,128,0,20869:0:0:0:0:
475,192,21182,128,0,22610:0:0:0:0:
256,192,21182,1,0,0:0:0:0:
109,192,21182,128,0,23325:0:0:0:0:
402,192,21896,128,0,22610:0:0:0:0:
256,192,21896,1,0,0:0:0:0:
36,192,21896,128,0,22298:0:0:0:0:
329,192,22298,128,0,22610:0:0:0:0:
256,192,22610,128,0,23325:0:0:0:0:
329,192,23325,5,0,0:0:0:0:
36,192,23325,1,0,0:0:0:0:
475,192,23354,1,0,0:0:0:0:
329,192,23979,5,0,0:0:0:0:
402,192,24009,1,0,0:0:0:0:
256,192,24039,128,0,24753:0:0:0:0:
475,192,24039,128,0,24753:0:0:0:0:
109,192,24039,128,0,24128:0:0:0:0:
182,192,24039,128,0,24098:0:0:0:0:
36,192,24039,128,0,24753:0:0:0:0:
402,192,24396,128,0,24455:0:0:0:0:
329,192,24753,128,0,25467:0:0:0:0:
182,192,24753,128,0,24813:0:0:0:0:
109,192,24753,128,0,24842:0:0:0:0:
256,192,24932,1,0,0:0:0:0:
182,192,25110,128,0,25467:0:0:0:0:
475,192,25110,1,0,0:0:0:0:
402,192,25110,128,0,25170:0:0:0:0:
256,192,25333,1,0,0:0:0:0:
109,192,25467,128,0,26182:0:0:0:0:
402,192,25467,128,0,26182:0:0:0:0:
475,192,25467,128,0,25527:0:0:0:0:
36,192,25467,128,0,25557:0:0:0:0:
475,192,25824,1,0,0:0:0:0:
182,192,25824,128,0,25884:0:0:0:0:
256,192,26014,1,0,0:0:0:0:
329,192,26182,128,0,26807:0:0:0:0:
36,192,26182,128,0,26271:0:0:0:0:
475,192,26182,128,0,26241:0:0:0:0:
109,192,26360,1,0,0:0:0:0:
36,192,26539,128,0,26807:0:0:0:0:
182,192,26539,128,0,26598:0:0:0:0:
402,192,26539,1,0,0:0:0:0:
475,192,26896,128,0,27610:0:0:0:0:
256,192,26896,128,0,27610:0:0:0:0:
182,192,26896,128,0,26985:0:0:0:0:
109,192,26896,128,0,26955:0:0:0:0:
402,192,26896,1,0,0:0:0:0:
329,192,27253,128,0,27313:0:0:0:0:
36,192,27432,1,0,0:0:0:0:
182,192,27610,128,0,27699:0:0:0:0:
109,192,27610,128,0,27670:0:0:0:0:
402,192,27655,128,0,27878:0:0:0:0:
256,192,27789,1,0,0:0:0:0:
475,192,27967,1,0,0:0:0:0:
329,192,27967,128,0,28027:0:0:0:0:
36,192,28012,128,0,28324:0:0:0:0:
182,192,28176,1,0,0:0:0:0:
256,192,28324,128,0,28682:0:0:0:0:
402,192,28324,128,0,28414:0:0:0:0:
475,192,28324,128,0,28384:0:0:0:0:
109,192,28324,1,0,0:0:0:0:
475,192,28682,1,0,0:0:0:0:
182,192,28682,128,0,29039:0:0:0:0:
109,192,28682,128,0,28741:0:0:0:0:
329,192,28860,1,0,0:0:0:0:
256,192,29039,128,0,29396:0:0:0:0:
36,192,29039,1,0,0:0:0:0:
402,192,29039,128,0,29128:0:0:0:0:
475,192,29039,128,0,29098:0:0:0:0:
109,192,29158,1,0,0:0:0:0:
329,192,29206,1,0,0:0:0:0:
182,192,29277,1,0,0:0:0:0:
402,192,29396,1,0,0:0:0:0:
36,192,29396,128,0,29753:0:0:0:0:
475,192,29396,1,0,0:0:0:0:
109,192,29396,128,0,29455:0:0:0:0:
329,192,29515,1,0,0:0:0:0:
182,192,29597,1,0,0:0:0:0:
402,192,29634,1,0,0:0:0:0:
109,192,29641,1,0,0:0:0:0:
329,192,29753,128,0,30110:0:0:0:0:
475,192,29753,1,0,0:0:0:0:
256,192,29753,128,0,29842:0:0:0:0:
182,192,29753,128,0,29813:0:0:0:0:
109,192,30110,128,0,30467:0:0:0:0:
475,192,30110,128,0,30170:0:0:0:0:
36,192,30110,1,0,0:0:0:0:
329,192,30311,1,0,0:0:0:0:
402,192,30311,1,0,0:0:0:0:
329,192,30467,128,0,30824:0:0:0:0:
36,192,30467,128,0,30646:0:0:0:0:
475,192,30467,1,0,0:0:0:0:
256,192,30467,128,0,30557:0:0:0:0:
182,192,30467,128,0,30527:0:0:0:0:
109,192,30646,1,0,0:0:0:0:
402,192,30824,128,0,31182:0:0:0:0:
475,192,30824,128,0,30884:0:0:0:0:
256,192,30824,1,0,0:0:0:0:
182,192,31048,1,0,0:0:0:0:
36,192,31048,1,0,0:0:0:0:
109,192,31182,128,0,31539:0:0:0:0:
256,192,31182,128,0,31360:0:0:0:0:
475,192,31182,1,0,0:0:0:0:
182,192,31182,128,0,31271:0:0:0:0:
329,192,31182,128,0,31241:0:0:0:0:
475,192,31539,1,0,0:0:0:0:
256,192,31539,128,0,31896:0:0:0:0:
402,192,31539,128,0,31598:0:0:0:0:
36,192,31729,1,0,0:0:0:0:
109,192,31729,1,0,0:0:0:0:
402,192,31896,1,0,0:0:0:0:
475,192,31896,128,0,32253:0:0:0:0:
36,192,31896,128,0,32074:0:0:0:0:
182,192,31896,128,0,31985:0:0:0:0:
329,192,31896,128,0,31955:0:0:0:0:
402,192,32253,128,0,32313:0:0:0:0:
329,192,32253,1,0,0:0:0:0:
109,192,32298,128,0,32610:0:0:0:0:
256,192,32354,1,0,0:0:0:0:
475,192,32454,1,0,0:0:0:0:
402,192,32454,1,0,0:0:0:0:
36,192,32610,128,0,33235:0:0:0:0:
475,192,32610,128,0,32789:0:0:0:0:
182,192,32610,128,0,33235:0:0:0:0:
402,192,32610,128,0,32699:0:0:0:0:
329,192,32610,128,0,32670:0:0:0:0:
109,192,32967,128,0,33027:0:0:0:0:
256,192,33324,128,0,33682:0:0:0:0:
475,192,33324,1,0,0:0:0:0:
402,192,33324,128,0,33414:0:0:0:0:
329,192,33324,128,0,33384:0:0:0:0:
182,192,33503,1,0,0:0:0:0:
36,192,33682,128,0,34039:0:0:0:0:
402,192,33682,1,0,0:0:0:0:
109,192,33682,128,0,33741:0:0:0:0:
256,192,33860,1,0,0:0:0:0:
182,192,34039,128,0,34708:0:0:0:0:
402,192,34039,128,0,34708:0:0:0:0:
109,192,34039,128,0,34128:0:0:0:0:
329,192,34039,128,0,34098:0:0:0:0:
475,192,34039,1,0,0:0:0:0:
475,192,34396,1,0,0:0:0:0:
36,192,34396,128,0,34455:0:0:0:0:
256,192,34574,1,0,0:0:0:0:
475,192,34753,1,0,0:0:0:0:
109,192,34753,128,0,34842:0:0:0:0:
329,192,34753,128,0,34813:0:0:0:0:
182,192,34932,1,0,0:0:0:0:
329,192,35110,1,0,0:0:0:0:
36,192,35110,128,0,35170:0:0:0:0:
109,192,35289,1,0,0:0:0:0:
329,192,35408,1,0,0:0:0:0:
402,192,35438,1,0,0:0:0:0:
256,192,35467,128,0,36182:0:0:0:0:
475,192,35467,128,0,36182:0:0:0:0:
182,192,35467,128,0,35557:0:0:0:0:
109,192,35467,128,0,35527:0:0:0:0:
36,192,35467,128,0,36182:0:0:0:0:
329,192,35824,128,0,35884:0:0:0:0:
402,192,36182,128,0,36896:0:0:0:0:
182,192,36182,128,0,36271:0:0:0:0:
109,192,36182,128,0,36241:0:0:0:0:
329,192,36182,1,0,0:0:0:0:
475,192,36360,1,0,0:0:0:0:
182,192,36449,1,0,0:0:0:0:
36,192,36539,1,0,0:0:0:0:
109,192,36539,128,0,36896:0:0:0:0:
329,192,36539,128,0,36598:0:0:0:0:
475,192,36650,1,0,0:0:0:0:
36,192,36762,1,0,0:0:0:0:
182,192,36896,128,0,37610:0:0:0:0:
475,192,36896,128,0,37610:0:0:0:0:
329,192,36896,128,0,36985:0:0:0:0:
256,192,36896,128,0,36955:0:0:0:0:
109,192,37253,128,0,37313:0:0:0:0:
402,192,37275,1,0,0:0:0:0:
36,192,37432,1,0,0:0:0:0:
402,192,37610,128,0,38235:0:0:0:0:
329,192,37610,128,0,37699:0:0:0:0:
256,192,37610,128,0,37670:0:0:0:0:
109,192,37610,1,0,0:0:0:0:
182,192,37789,1,0,0:0:0:0:
329,192,37967,1,0,0:0:0:0:
36,192,37967,128,0,38235:0:0:0:0:
109,192,37967,128,0,38027:0:0:0:0:
256,192,38191,1,0,0:0:0:0:
402,192,38324,128,0,39039:0:0:0:0:
109,192,38324,128,0,39039:0:0:0:0:
36,192,38324,128,0,38414:0:0:0:0:
182,192,38324,128,0,38384:0:0:0:0:
475,192,38324,1,0,0:0:0:0:
475,192,38682,128,0,38741:0:0:0:0:
256,192,38860,1,0,0:0:0:0:
36,192,39039,128,0,39128:0:0:0:0:
182,192,39039,128,0,39098:0:0:0:0:
475,192,39039,1,0,0:0:0:0:
329,192,39083,128,0,39307:0:0:0:0:
109,192,39217,1,0,0:0:0:0:
402,192,39396,1,0,0:0:0:0:
475,192,39396,128,0,39455:0:0:0:0:
36,192,39441,128,0,39753:0:0:0:0:
182,192,39597,1,0,0:0:0:0:
329,192,39753,128,0,40110:0:0:0:0:
475,192,39753,128,0,39842:0:0:0:0:
109,192,39753,128,0,39813:0:0:0:0:
256,192,39753,1,0,0:0:0:0:
475,192,40110,1,0,0:0:0:0:
182,192,40110,128,0,40467:0:0:0:0:
402,192,40110,128,0,40170:0:0:0:0:
256,192,40289,1,0,0:0:0:0:
402,192,40467,1,0,0:0:0:0:
329,192,40467,128,0,40824:0:0:0:0:
475,192,40467,128,0,40557:0:0:0:0:
109,192,40467,128,0,40527:0:0:0:0:
182,192,40646,1,0,0:0:0:0:
36,192,40824,128,0,41182:0:0:0:0:
475,192,40824,1,0,0:0:0:0:
402,192,40824,128,0,40884:0:0:0:0:
182,192,41025,1,0,0:0:0:0:
256,192,41182,128,0,41539:0:0:0:0:
475,192,41182,1,0,0:0:0:0:
109,192,41182,128,0,41271:0:0:0:0:
329,192,41182,128,0,41241:0:0:0:0:
36,192,41539,128,0,41896:0:0:0:0:
182,192,41539,128,0,41598:0:0:0:0:
402,192,41740,1,0,0:0:0:0:
256,192,41896,128,0,42253:0:0:0:0:
475,192,41896,1,0,0:0:0:0:
109,192,41896,128,0,41985:0:0:0:0:
329,192,41896,128,0,41955:0:0:0:0:
36,192,42074,1,0,0:0:0:0:
109,192,42253,1,0,0:0:0:0:
182,192,42253,128,0,42313:0:0:0:0:
329,192,42298,128,0,42610:0:0:0:0:
475,192,42298,128,0,42610:0:0:0:0:
36,192,42465,1,0,0:0:0:0:
109,192,42610,128,0,42878:0:0:0:0:
402,192,42610,128,0,42699:0:0:0:0:
256,192,42610,128,0,42670:0:0:0:0:
182,192,42610,1,0,0:0:0:0:
329,192,42900,1,0,0:0:0:0:
182,192,42967,128,0,43027:0:0:0:0:
475,192,42979,1,0,0:0:0:0:
109,192,43146,1,0,0:0:0:0:
36,192,43324,128,0,44039:0:0:0:0:
402,192,43324,128,0,43414:0:0:0:0:
256,192,43324,128,0,43384:0:0:0:0:
329,192,43503,1,0,0:0:0:0:
402,192,43682,1,0,0:0:0:0:
182,192,43682,128,0,43741:0:0:0:0:
109,192,43883,1,0,0:0:0:0:
475,192,44039,1,0,0:0:0:0:
256,192,44039,128,0,44753:0:0:0:0:
329,192,44039,128,0,44128:0:0:0:0:
402,192,44039,128,0,44098:0:0:0:0:
402,192,44396,1,0,0:0:0:0:
109,192,44396,128,0,44455:0:0:0:0:
182,192,44574,1,0,0:0:0:0:
475,192,44753,1,0,0:0:0:0:
36,192,44753,128,0,45467:0:0:0:0:
329,192,44753,128,0,44842:0:0:0:0:
402,192,44753,128,0,44813:0:0:0:0:
256,192,44932,1,0,0:0:0:0:
402,192,45110,1,0,0:0:0:0:
109,192,45110,128,0,45170:0:0:0:0:
329,192,45289,1,0,0:0:0:0:
182,192,45467,128,0,46182:0:0:0:0:
109,192,45467,128,0,45557:0:0:0:0:
402,192,45467,128,0,45527:0:0:0:0:
475,192,45467,1,0,0:0:0:0:
256,192,45646,1,0,0:0:0:0:
402,192,45824,1,0,0:0:0:0:
36,192,45824,128,0,45884:0:0:0:0:
329,192,45869,128,0,46182:0:0:0:0:
109,192,46003,1,0,0:0:0:0:
475,192,46182,128,0,46818:0:0:0:0:
36,192,46182,128,0,46818:0:0:0:0:
402,192,46182,128,0,46271:0:0:0:0:
256,192,46182,128,0,46241:0:0:0:0:
109,192,46539,128,0,46818:0:0:0:0:
329,192,46539,128,0,46598:0:0:0:0:
182,192,46740,128,0,46896:0:0:0:0:
256,192,46818,128,0,46896:0:0:0:0:
329,192,46857,128,0,46896:0:0:0:0:
402,192,46896,1,0,0:0:0:0:
475,192,46896,1,0,0:0:0:0:
36,192,46896,128,0,47084:0:0:0:0:
109,192,46896,128,0,46990:0:0:0:0:
475,192,47210,128,0,47254:0:0:0:0:
256,192,47273,1,0,0:0:0:0:
182,192,47550,128,0,47594:0:0:0:0:
109,192,47550,128,0,47639:0:0:0:0:
475,192,49039,128,0,49396:0:0:0:0:
402,192,49039,128,0,49753:0:0:0:0:
109,192,49039,1,0,0:0:0:0:
256,192,49396,128,0,49753:0:0:0:0:
329,192,49396,1,0,0:0:0:0:
182,192,49574,1,0,0:0:0:0:
36,192,49753,128,0,50065:0:0:0:0:
329,192,49753,128,0,50132:0:0:0:0:
109,192,49753,1,0,0:0:0:0:
475,192,49753,1,0,0:0:0:0:
256,192,50132,1,0,0:0:0:0:
182,192,50132,128,0,50422:0:0:0:0:
329,192,50489,128,0,50735:0:0:0:0:
402,192,50802,1,0,0:0:0:0:
36,192,50802,128,0,51895:0:0:0:0:
475,192,50802,128,0,51650:0:0:0:0:
475,192,51895,128,0,52029:0:0:0:0:
182,192,51895,128,0,52610:0:0:0:0:
402,192,52074,128,0,52208:0:0:0:0:
329,192,52253,128,0,52386:0:0:0:0:
256,192,52431,128,0,52520:0:0:0:0:
109,192,52610,128,0,53324:0:0:0:0:
402,192,52610,128,0,52654:0:0:0:0:
329,192,52610,1,0,0:0:0:0:
475,192,52610,128,0,52699:0:0:0:0:
36,192,52610,1,0,0:0:0:0:
182,192,52967,128,0,53324:0:0:0:0:
402,192,52967,1,0,0:0:0:0:
256,192,53235,128,0,53413:0:0:0:0:
36,192,53324,128,0,53681:0:0:0:0:
329,192,53324,128,0,53800:0:0:0:0:
475,192,54038,128,0,54083:0:0:0:0:
402,192,54038,128,0,54083:0:0:0:0:
329,192,54038,1,0,0:0:0:0:
182,192,54038,1,0,0:0:0:0:
329,192,54395,128,0,54753:0:0:0:0:
109,192,54395,1,0,0:0:0:0:
256,192,54663,128,0,54842:0:0:0:0:
182,192,54753,128,0,54931:0:0:0:0:
475,192,54753,1,0,0:0:0:0:
402,192,54931,128,0,55020:0:0:0:0:
329,192,54931,1,0,0:0:0:0:
109,192,54931,1,0,0:0:0:0:
256,192,55110,128,0,55169:0:0:0:0:
36,192,55110,1,0,0:0:0:0:
475,192,55110,1,0,0:0:0:0:
109,192,55288,128,0,55333:0:0:0:0:
182,192,55288,1,0,0:0:0:0:
475,192,55467,128,0,56895:0:0:0:0:
329,192,55467,1,0,0:0:0:0:
36,192,55467,128,0,56895:0:0:0:0:
402,192,55824,128,0,56895:0:0:0:0:
182,192,55913,1,0,0:0:0:0:
329,192,56003,1,0,0:0:0:0:
109,192,56092,1,0,0:0:0:0:
256,192,56181,1,0,0:0:0:0:
329,192,56270,1,0,0:0:0:0:
182,192,56360,1,0,0:0:0:0:
256,192,56449,1,0,0:0:0:0:
109,192,56538,1,0,0:0:0:0:
182,192,56628,1,0,0:0:0:0:
329,192,56717,1,0,0:0:0:0:
256,192,56806,1,0,0:0:0:0:
109,192,56895,128,0,57610:0:0:0:0:
182,192,56917,1,0,0:0:0:0:
329,192,56917,1,0,0:0:0:0:
475,192,57610,128,0,58257:0:0:0:0:
402,192,57610,1,0,0:0:0:0:
182,192,57610,128,0,57699:0:0:0:0:
36,192,57610,128,0,57654:0:0:0:0:
109,192,57967,1,0,0:0:0:0:
256,192,57967,128,0,58354:0:0:0:0:
329,192,58160,128,0,58354:0:0:0:0:
402,192,58257,128,0,58354:0:0:0:0:
182,192,58354,1,0,0:0:0:0:
475,192,58354,1,0,0:0:0:0:
109,192,58354,128,0,58438:0:0:0:0:
36,192,58354,128,0,58522:0:0:0:0:
475,192,58690,128,0,58735:0:0:0:0:
329,192,58690,1,0,0:0:0:0:
182,192,59007,128,0,59052:0:0:0:0:
109,192,59007,128,0,59096:0:0:0:0:
329,192,59396,1,0,0:0:0:0:
256,192,59396,1,0,0:0:0:0:
36,192,59753,1,0,0:0:0:0:
109,192,59753,1,0,0:0:0:0:
402,192,60110,1,0,0:0:0:0:
329,192,60110,1,0,0:0:0:0:
475,192,60348,128,0,60764:0:0:0:0:
256,192,60467,128,0,61181:0:0:0:0:
182,192,60467,1,0,0:0:0:0:
329,192,60764,128,0,60883:0:0:0:0:
36,192,60824,1,0,0:0:0:0:
402,192,61002,1,0,0:0:0:0:
182,192,61002,128,0,61136:0:0:0:0:
36,192,61181,128,0,61493:0:0:0:0:
475,192,61181,128,0,61538:0:0:0:0:
109,192,61181,1,0,0:0:0:0:
329,192,61181,1,0,0:0:0:0:
182,192,61300,1,0,0:0:0:0:
256,192,61419,1,0,0:0:0:0:
109,192,61538,128,0,61850:0:0:0:0:
402,192,61538,1,0,0:0:0:0:
329,192,61657,1,0,0:0:0:0:
256,192,61776,1,0,0:0:0:0:
182,192,61895,128,0,62208:0:0:0:0:
475,192,61895,1,0,0:0:0:0:
329,192,62014,1,0,0:0:0:0:
402,192,62133,1,0,0:0:0:0:
109,192,62133,1,0,0:0:0:0:
256,192,62240,1,0,0:0:0:0:
475,192,62252,128,0,62609:0:0:0:0:
36,192,62252,128,0,64038:0:0:0:0:
329,192,62252,1,0,0:0:0:0:
329,192,62550,128,0,62669:0:0:0:0:
402,192,62609,128,0,62669:0:0:0:0:
182,192,62609,1,0,0:0:0:0:
329,192,62788,128,0,62847:0:0:0:0:
475,192,62788,1,0,0:0:0:0:
256,192,62967,128,0,63026:0:0:0:0:
402,192,62967,1,0,0:0:0:0:
182,192,63145,128,0,63205:0:0:0:0:
109,192,63324,128,0,63383:0:0:0:0:
182,192,63502,128,0,63547:0:0:0:0:
475,192,63502,1,0,0:0:0:0:
256,192,63681,128,0,63725:0:0:0:0:
329,192,63681,1,0,0:0:0:0:
402,192,63859,128,0,63904:0:0:0:0:
182,192,63859,1,0,0:0:0:0:
109,192,64038,1,0,0:0:0:0:
329,192,64038,128,0,64083:0:0:0:0:
256,192,64038,128,0,64127:0:0:0:0:
475,192,64038,128,0,64752:0:0:0:0:
36,192,64395,128,0,64752:0:0:0:0:
402,192,64395,1,0,0:0:0:0:
329,192,64514,1,0,0:0:0:0:
256,192,64633,1,0,0:0:0:0:
109,192,64663,128,0,64842:0:0:0:0:
402,192,64752,128,0,65109:0:0:0:0:
182,192,64752,128,0,65243:0:0:0:0:
329,192,64752,1,0,0:0:0:0:
329,192,65109,1,0,0:0:0:0:
256,192,65109,1,0,0:0:0:0:
256,192,65467,128,0,65556:0:0:0:0:
329,192,65467,128,0,65511:0:0:0:0:
36,192,65467,128,0,66181:0:0:0:0:
109,192,65467,1,0,0:0:0:0:
475,192,65467,1,0,0:0:0:0:
475,192,65824,128,0,66047:0:0:0:0:
256,192,65824,1,0,0:0:0:0:
402,192,65958,128,0,66181:0:0:0:0:
109,192,66062,1,0,0:0:0:0:
329,192,66092,128,0,66315:0:0:0:0:
182,192,66181,1,0,0:0:0:0:
475,192,66181,128,0,66538:0:0:0:0:
256,192,66225,128,0,66359:0:0:0:0:
109,192,66270,1,0,0:0:0:0:
182,192,66538,1,0,0:0:0:0:
36,192,66538,128,0,66583:0:0:0:0:
109,192,66895,128,0,68323:0:0:0:0:
256,192,66924,1,0,0:0:0:0:
182,192,67609,128,0,68323:0:0:0:0:
402,192,67609,1,0,0:0:0:0:
329,192,68324,1,0,0:0:0:0:
402,192,68346,1,0,0:0:0:0:
475,192,68368,1,0,0:0:0:0:
