osu file format v14

[General]
AudioFilename: audio.mp3
AudioLeadIn: 0
PreviewTime: 76165
Countdown: 0
SampleSet: Soft
StackLeniency: 0.4
Mode: 0
LetterboxInBreaks: 0
WidescreenStoryboard: 1

[Editor]
Bookmarks: 24165,29499,34832,40165,45499,56165,58832,61499
DistanceSpacing: 1
BeatDivisor: 4
GridSize: 4
TimelineZoom: 1.1

[Metadata]
Title:VALLISTA
TitleUnicode:VALLISTA
Artist:sakuzyo
ArtistUnicode:sakuzyo
Creator:Turquoise-
Version:Hyper
Source:BMS
Tags:Tomadoi, Shiinoha Kotone, Canderos, El Hermano
BeatmapID:1605556
BeatmapSetID:750404

[Difficulty]
HPDrainRate:4
CircleSize:3.3
OverallDifficulty:7.5
ApproachRate:8.7
SliderMultiplier:1.21
SliderTickRate:1

[Events]
//Background and Video events
0,0,"vallista.jpg",0,0
//Break Periods
2,1699,11506
2,67033,71506
2,99032,103506
//Storyboard Layer 0 (Background)
//Storyboard Layer 1 (Fail)
//Storyboard Layer 2 (Pass)
//Storyboard Layer 3 (Foreground)
//Storyboard Sound Samples

[TimingPoints]
166,333.333333333333,4,2,0,40,1,0
12165,-200,4,2,0,40,0,0
19499,-285.714285714286,4,2,0,40,0,0
20165,-285.714285714286,4,2,0,35,0,0
21499,-285.714285714286,4,2,0,30,0,0
22165,-285.714285714286,4,2,0,20,0,0
23832,-100,4,2,0,70,0,0
45165,-80,4,2,0,70,0,0
45499,-100,4,2,0,70,0,0
56165,-80,4,2,0,70,0,0
58832,-100,4,2,0,70,0,0
59165,-80,4,2,0,70,0,0
61499,-80,4,2,0,70,0,0
64165,-100,4,2,0,70,0,0
64499,-80,4,2,0,70,0,0
66749,-133.333333333333,4,2,0,5,0,0
66832,-133.333333333333,4,2,0,50,0,0
72165,-80,4,2,0,80,0,0
75832,-66.6666666666667,4,2,0,80,0,0
76165,-133.333333333333,4,2,0,80,0,0
77165,-133.333333333333,4,2,0,70,0,0
77499,-200,4,2,0,70,0,0
77832,-50,4,2,0,80,0,1
78165,-66.6666666666667,4,2,0,80,0,1
80165,-200,4,2,0,80,0,1
80498,-57.1428571428571,4,2,0,80,0,1
80831,-66.6666666666667,4,2,0,80,0,1
83165,-50,4,2,0,80,0,1
83499,-66.6666666666667,4,2,0,80,0,1
83999,-57.1428571428571,4,2,0,80,0,1
86165,-66.6666666666667,4,2,0,80,0,1
88165,-80,4,2,0,80,0,1
91499,-57.1428571428571,4,2,0,80,0,1
93499,-90.9090909090909,4,2,0,80,0,1
94832,-80,4,2,0,80,0,1
96165,-66.6666666666667,4,2,0,80,0,1
97499,-90.9090909090909,4,2,0,80,0,0
104165,-100,4,2,0,80,0,0
109499,-57.1428571428571,4,2,0,80,0,0
110499,-50,4,2,0,80,0,0
110832,-57.1428571428571,4,2,0,80,0,0
111832,-50,4,2,0,80,0,0
113999,-100,4,2,0,80,0,0
114832,-100,4,2,0,80,0,0
120249,-100,4,2,0,5,0,0

[Colours]
Combo1 : 111,2,183
Combo2 : 0,0,210
Combo3 : 112,1,211
Combo4 : 128,0,0

[HitObjects]
116,128,1165,6,0,L|82:161,3,30.25,2|0|0|0,0:0|0:0|0:0|0:0,0:0:0:0:
56,67,1499,1,4,0:0:0:0:
94,149,12165,6,0,L|137:105,1,60.5,8|0,0:0|0:0,0:0:0:0:
204,44,12665,1,0,0:0:0:0:
204,44,12832,2,0,L|247:87,1,60.5,2|2,0:0|0:0,0:0:0:0:
309,154,13332,1,0,0:0:0:0:
309,154,13499,2,0,L|265:197,1,60.5,8|0,0:0|0:0,0:0:0:0:
199,259,13998,1,0,0:0:0:0:
199,259,14165,2,0,L|155:215,1,60.5,2|0,0:0|0:0,0:0:0:0:
94,149,14665,1,8,3:0:0:0:
266,196,14832,6,0,L|309:239,1,60.5,8|0,0:0|0:0,0:0:0:0:
376,301,15332,1,0,0:0:0:0:
376,301,15499,2,0,L|419:257,1,60.5,2|0,0:0|0:0,0:0:0:0:
481,191,15999,1,0,0:0:0:0:
481,191,16166,2,0,L|437:147,1,60.5,8|0,0:0|0:0,0:0:0:0:
371,86,16665,1,0,0:0:0:0:
371,86,16832,2,0,L|327:129,1,60.5,2|0,0:0|0:0,0:0:0:0:
266,196,17332,1,8,3:0:0:0:
94,149,17499,6,0,L|137:192,1,60.5,8|0,0:0|0:0,0:0:0:0:
204,254,17999,1,0,0:0:0:0:
204,254,18166,2,0,L|247:210,1,60.5,2|0,0:0|0:0,0:0:0:0:
309,144,18666,1,0,0:0:0:0:
309,144,18833,2,0,L|265:100,1,60.5,8|0,0:0|0:0,0:0:0:0:
199,39,19332,1,0,0:0:0:0:
199,38,19499,2,0,L|167:70,1,42.3499987075806,2|0,0:0|0:0,0:0:0:0:
309,144,19999,1,8,3:0:0:0:
116,124,20165,6,0,L|84:155,1,42.3499987075806,8|0,0:0|0:0,0:0:0:0:
86,153,20832,1,2,0:0:0:0:
309,144,21332,1,8,0:0:0:0:
193,37,21499,5,0,0:0:0:0:
202,260,22165,1,2,0:0:0:0:
256,192,22665,12,4,23832,0:0:0:0:
116,124,24165,6,0,P|84:143|67:183,1,60.5,8|0,0:0|0:0,0:0:0:0:
100,288,24499,1,0,0:0:0:0:
251,220,24665,2,0,P|249:183|223:148,1,60.5,2|0,0:0|0:0,0:0:0:0:
92,184,24999,1,0,0:0:0:0:
176,254,25165,2,0,P|188:281|188:311,1,60.5,4|0,0:0|0:0,0:0:0:0:
92,184,25499,6,0,P|123:164|140:124,1,60.5,8|0,0:0|0:0,0:0:0:0:
156,28,25832,1,0,0:0:0:0:
272,50,25999,1,2,0:0:0:0:
310,161,26165,1,0,0:0:0:0:
388,73,26332,1,0,0:0:0:0:
272,50,26499,2,0,P|254:82|260:125,1,60.5,4|0,0:0|0:0,0:0:0:0:
312,236,26832,6,0,P|329:203|323:160,1,60.5,8|0,0:0|0:0,0:0:0:0:
236,84,27165,1,0,0:0:0:0:
199,212,27332,2,0,P|201:241|216:267,1,60.5,2|0,0:0|0:0,0:0:0:0:
312,160,27665,1,0,0:0:0:0:
252,28,27832,2,0,P|220:47|203:87,1,60.5,4|0,0:0|0:0,0:0:0:0:
388,73,28165,6,0,P|368:41|328:24,1,60.5,8|0,0:0|0:0,0:0:0:0:
228,84,28499,1,0,0:0:0:0:
199,212,28665,1,2,0:0:0:0:
329,180,28832,1,0,0:0:0:0:
228,84,28999,1,0,0:0:0:0:
98,116,29165,2,0,P|117:147|157:164,1,60.5,4|0,0:0|0:0,0:0:0:0:
329,180,29499,6,0,P|353:197|367:223,1,60.5,8|0,0:0|0:0,0:0:0:0:
291,308,29832,1,0,0:0:0:0:
180,336,29999,2,0,P|155:318|141:292,1,60.5,2|0,0:0|0:0,0:0:0:0:
218,208,30332,1,0,0:0:0:0:
348,160,30499,2,0,P|372:177|386:203,1,60.5,4|0,0:0|0:0,0:0:0:0:
228,84,30832,6,0,P|203:66|189:40,1,60.5,8|0,0:0|0:0,0:0:0:0:
328,48,31165,1,0,0:0:0:0:
272,156,31332,1,2,0:0:0:0:
380,101,31499,1,0,0:0:0:0:
228,84,31665,1,0,0:0:0:0:
348,171,31832,2,0,P|376:180|406:175,1,60.5,4|0,0:0|0:0,0:0:0:0:
228,84,32165,6,0,P|198:78|169:87,1,60.5,8|0,0:0|0:0,0:0:0:0:
272,156,32499,1,0,0:0:0:0:
156,180,32665,2,0,P|138:204|134:234,1,60.5,2|0,0:0|0:0,0:0:0:0:
180,336,32999,1,0,0:0:0:0:
112,212,33165,2,0,P|119:182|138:159,1,60.5,4|0,0:0|0:0,0:0:0:0:
248,64,33499,5,8,0:0:0:0:
368,188,33665,1,0,0:0:0:0:
200,229,33832,1,2,0:0:0:0:
308,126,33999,2,0,L|341:92,3,30.25
368,188,34332,1,0,0:0:0:0:
248,64,34499,2,0,P|219:74|199:95,1,60.5,4|0,0:0|0:0,0:0:0:0:
133,233,34832,5,8,0:0:0:0:
200,316,34999,1,0,0:0:0:0:
305,299,35165,1,2,0:0:0:0:
342,199,35332,2,0,P|318:178|290:172,1,60.5
305,299,35665,1,0,0:0:0:0:
164,282,35832,2,0,P|142:261|132:232,1,60.5,4|0,0:0|0:0,0:0:0:0:
136,108,36165,6,0,P|145:79|167:58,1,60.5,8|0,0:0|0:0,0:0:0:0:
268,192,36499,2,0,P|258:220|236:241,1,60.5,2|0,0:0|0:0,0:0:0:0:
368,58,36832,2,0,P|390:79|400:108,1,60.5
406,263,37165,2,0,P|425:241|433:212,1,60.5,4|0,0:0|0:0,0:0:0:0:
296,116,37499,6,0,P|266:110|237:118,1,60.5,8|0,0:0|0:0,0:0:0:0:
236,241,37832,1,0,0:0:0:0:
353,204,37999,2,0,P|343:175|321:154,1,60.5,2|0,0:0|0:0,0:0:0:0:
236,241,38332,1,0,0:0:0:0:
379,315,38499,2,0,P|398:292|405:263,1,60.5,4|0,0:0|0:0,0:0:0:0:
322,64,38832,6,0,P|302:86|295:115,1,60.5,8|0,0:0|0:0,0:0:0:0:
305,299,39165,2,0,P|285:276|278:247,1,60.5,2|0,0:0|0:0,0:0:0:0:
322,64,39499,2,0,P|293:73|272:95,1,60.5
189,259,39832,2,0,P|183:229|191:200,1,60.5,4|0,0:0|0:0,0:0:0:0:
336,144,40165,5,8,0:0:0:0:
356,248,40332,1,0,0:0:0:0:
275,317,40499,1,2,0:0:0:0:
174,281,40665,2,0,P|168:251|176:222,1,60.5
241,125,40999,1,0,0:0:0:0:
336,228,41165,5,4,0:0:0:0:
378,95,41332,1,0,0:0:0:0:
241,125,41499,2,0,P|215:140|198:165,1,60.5,8|0,0:0|0:0,0:0:0:0:
131,321,41832,2,0,P|145:294|147:265,1,60.5,2|0,0:0|0:0,0:0:0:0:
16,127,42165,2,0,P|31:152|56:169,1,60.5
176,184,42499,1,4,0:0:0:0:
260,104,42665,1,0,0:0:0:0:
112,114,42832,5,8,0:0:0:0:
120,236,42999,1,0,0:0:0:0:
242,228,43165,1,2,0:0:0:0:
234,105,43332,2,0,P|218:80|193:63,1,60.5
100,216,43665,5,0,0:0:0:0:
319,129,43832,2,0,P|334:103|336:73,1,60.5,4|0,0:0|0:0,0:0:0:0:
164,132,44165,1,8,0:0:0:0:
164,132,44249,1,0,0:0:0:0:
164,132,44332,1,0,0:0:0:0:
236,164,44499,2,0,P|219:189|193:204,1,60.5,2|0,0:0|0:0,0:0:0:0:
172,44,44832,1,0,0:0:0:0:
319,129,44999,1,0,0:0:0:0:
318,298,45165,1,4,0:0:0:0:
318,298,45499,6,0,L|374:241,1,60.5,8|0,0:0|0:0,0:0:0:0:
361,86,45832,2,0,L|318:128,1,60.5
121,174,46165,2,0,L|177:117,1,60.5,2|0,0:0|0:0,0:0:0:0:
208,280,46499,1,0,0:0:0:0:
73,303,46665,1,0,0:0:0:0:
50,168,46832,6,0,L|106:111,1,60.5,4|0,0:0|0:0,0:0:0:0:
244,176,47165,1,0,0:0:0:0:
244,176,47499,6,2,L|187:232,1,60.5,2|0,0:0|0:0,0:0:0:0:
50,168,47832,1,0,0:0:0:0:
50,168,48165,6,0,P|30:112|66:48,2,121,8|0|2,0:0|0:0|0:0,0:0:0:0:
184,144,48999,1,0,0:0:0:0:
318,128,49165,2,0,L|374:71,1,60.5
462,216,49499,6,0,P|482:272|446:336,2,121,4|0|2,0:0|0:0|0:0,0:0:0:0:
328,236,50332,1,0,0:0:0:0:
194,256,50499,2,0,L|137:312,1,60.5
50,168,50832,6,0,B|98:164|98:164|162:168,1,90.75,8|0,0:0|0:0,0:0:0:0:
140,166,51165,1,2,0:0:0:0:
194,256,51332,1,0,0:0:0:0:
380,232,51499,6,0,B|340:204|340:204|283:176,1,90.75,4|0,0:0|0:0,0:0:0:0:
303,185,51832,1,2,0:0:0:0:
211,236,51999,1,0,0:0:0:0:
84,300,52165,6,0,B|104:256|104:256|140:203,1,90.75,8|0,0:0|0:0,0:0:0:0:
127,220,52498,1,2,0:0:0:0:
232,218,52665,1,0,0:0:0:0:
340,344,52832,6,0,B|344:296|344:296|339:231,1,90.75,4|0,0:0|0:0,0:0:0:0:
342,253,53165,1,2,0:0:0:0:
252,198,53332,1,0,0:0:0:0:
360,84,53499,6,0,L|360:156,1,60.5,8|0,0:0|0:0,0:0:0:0:
152,84,53832,2,0,L|152:156,1,60.5
380,124,54165,2,0,L|380:64,1,60.5,2|0,0:0|0:0,0:0:0:0:
132,124,54499,2,0,L|132:64,1,60.5
400,43,54832,6,0,L|400:104,1,60.5,4|0,0:0|0:0,0:0:0:0:
112,43,55165,2,0,L|112:104,1,60.5
420,84,55499,2,0,L|420:24,1,60.5,2|0,0:0|0:0,0:0:0:0:
92,84,55832,2,0,L|92:24,1,60.5,2|0,0:0|0:0,0:0:0:0:
257,179,56165,5,8,0:0:0:0:
257,179,56249,1,0,0:0:0:0:
257,179,56332,1,0,0:0:0:0:
257,179,56415,1,0,0:0:0:0:
257,179,56499,2,0,L|226:209,3,37.8125,4|0|0|0,0:0|0:0|0:0|0:0,0:0:0:0:
127,220,56832,2,0,L|100:193,3,37.8125,8|0|0|0,0:0|0:0|0:0|0:0,0:0:0:0:
72,104,57165,1,4,0:0:0:0:
77,99,57249,1,0,0:0:0:0:
82,94,57332,1,0,0:0:0:0:
87,89,57416,1,0,0:0:0:0:
92,84,57499,6,0,L|118:57,3,37.8125,8|0|0|0,0:0|0:0|0:0|0:0,0:0:0:0:
216,136,57832,2,0,L|242:162,3,37.8125,4|0|0|0,0:0|0:0|0:0|0:0,0:0:0:0:
340,84,58165,2,0,L|313:57,3,37.8125,8|0|0|0,0:0|0:0|0:0|0:0,0:0:0:0:
464,136,58499,1,4,0:0:0:0:
470,142,58582,1,0,0:0:0:0:
477,149,58665,1,0,0:0:0:0:
484,156,58749,1,0,0:0:0:0:
492,164,58832,6,0,L|492:228,1,60.5,8|0,0:0|0:0,0:0:0:0:
382,322,59165,2,0,P|314:250|382:134,1,226.875,2|0,0:0|0:0,0:0:0:0:
359,144,60165,2,0,L|305:90,1,75.625,8|0,0:0|0:0,0:0:0:0:
192,88,60499,2,0,L|245:141,1,75.625
244,252,60832,2,0,L|190:198,1,75.625,2|0,0:0|0:0,0:0:0:0:
76,192,61165,2,0,L|112:232,1,37.8125,2|2,3:0|3:0,0:0:0:0:
184,312,61332,2,0,L|158:283,1,37.8125,2|2,3:0|3:0,0:0:0:0:
26,345,61499,5,8,0:0:0:0:
26,345,61582,1,0,0:0:0:0:
26,345,61665,1,0,0:0:0:0:
26,345,61749,1,0,0:0:0:0:
26,345,61832,2,0,L|52:318,3,37.8125,4|0|0|0,0:0|0:0|0:0|0:0,0:0:0:0:
76,192,62165,2,0,L|49:165,3,37.8125,8|0|0|0,0:0|0:0|0:0|0:0,0:0:0:0:
154,88,62499,1,4,0:0:0:0:
163,88,62582,1,0,0:0:0:0:
172,88,62665,1,0,0:0:0:0:
182,88,62749,1,0,0:0:0:0:
191,88,62832,6,0,L|217:61,3,37.8125,8|0|0|0,0:0|0:0|0:0|0:0,0:0:0:0:
332,117,63165,2,0,L|358:143,3,37.8125,4|0|0|0,0:0|0:0|0:0|0:0,0:0:0:0:
308,260,63499,2,0,L|281:286,3,37.8125,8|0|0|0,0:0|0:0|0:0|0:0,0:0:0:0:
176,264,63832,1,4,0:0:0:0:
162,250,63915,1,0,0:0:0:0:
149,237,63998,1,0,0:0:0:0:
135,223,64082,1,0,0:0:0:0:
120,208,64165,6,0,L|120:132,1,60.5,8|0,0:0|0:0,0:0:0:0:
190,313,64499,2,0,P|212:216|96:150,1,226.875,2|0,0:0|0:0,0:0:0:0:
120,147,65499,2,0,L|139:74,1,75.625,8|0,0:0|0:0,0:0:0:0:
237,15,65833,2,0,L|217:87,1,75.625
274,183,66166,2,0,L|293:110,1,75.625,2|0,0:0|0:0,0:0:0:0:
390,47,66499,2,0,L|378:99,1,37.8125,2|2,3:0|3:0,3:0:0:0:
356,205,66666,2,0,L|363:168,1,37.8125,2|2,3:0|3:0,3:0:0:0:
509,154,66833,5,12,0:0:0:0:
352,47,72165,6,0,L|416:47,2,37.8125,8|0|0,0:0|0:0|0:0,0:0:0:0:
256,124,72499,1,2,0:0:0:0:
356,192,72665,2,0,L|420:192,2,37.8125,8|0|0,0:0|0:0|0:0,0:0:0:0:
256,268,72999,1,2,0:0:0:0:
360,337,73165,2,0,L|424:337,2,37.8125,8|0|0,0:0|0:0|0:0,0:0:0:0:
132,336,73499,6,0,L|68:336,2,37.8125,8|0|0,0:0|0:0|0:0,0:0:0:0:
256,268,73832,1,2,0:0:0:0:
136,192,73999,2,0,L|72:192,2,37.8125,8|0|0,0:0|0:0|0:0,0:0:0:0:
256,124,74332,1,2,0:0:0:0:
140,52,74499,2,0,L|76:52,2,37.8125,8|0|0,0:0|0:0|0:0,0:0:0:0:
276,144,74832,5,8,0:0:0:0:
276,144,74915,1,0,0:0:0:0:
276,144,74999,2,0,L|276:200,1,37.8125
276,288,75165,1,2,0:0:0:0:
156,212,75332,2,0,L|92:212,2,37.8125,8|0|0,0:0|0:0|0:0,0:0:0:0:
372,64,75665,2,0,L|436:64,2,37.8125,4|0|0,0:0|0:0|0:0,0:0:0:0:
160,72,75999,1,8,0:0:0:0:
256,268,76165,6,0,B|240:312|272:312|256:372,2,90.7500034618379,4|0|0,0:0|0:0|0:0,0:0:0:0:
256,124,77165,2,0,L|256:112,4,11.3437504327297
256,0,77499,6,0,L|256:52,1,45.375,8|0,0:0|0:0,0:0:0:0:
256,124,77832,6,0,B|280:172|256:252|256:252|216:252|196:204,1,181.5,4|0,0:0|0:0,0:0:0:0:
211,231,78165,1,2,0:0:0:0:
116,172,78332,2,0,P|104:128|116:76,1,90.7500034618379,8|0,0:0|0:0,0:0:0:0:
120,280,78665,6,0,P|104:322|72:353,1,90.7500034618379,8|0,0:0|0:0,0:0:0:0:
260,180,78999,2,0,P|267:224|256:267,1,90.7500034618379,4|0,0:0|0:0,0:0:0:0:
400,80,79332,2,0,P|429:114|440:157,1,90.7500034618379,8|0,0:0|0:0,0:0:0:0:
256,45,79665,1,4,0:0:0:0:
132,104,79832,1,0,0:0:0:0:
121,240,79999,1,0,0:0:0:0:
280,160,80165,6,0,P|284:140|268:120,1,45.375,8|0,0:0|0:0,0:0:0:0:
208,228,80499,6,0,P|280:260|364:220,1,158.812501514554,4|0,0:0|0:0,0:0:0:0:
356,238,80832,2,0,L|356:182,1,45.3750017309189,2|0,0:0|0:0,0:0:0:0:
440,203,80999,2,0,L|440:147,1,45.3750017309189
428,293,81165,1,8,0:0:0:0:
348,328,81332,2,0,P|304:340|236:336,1,90.7500034618379,2|0,0:0|0:0,0:0:0:0:
121,285,81665,2,0,L|121:221,2,45.3750017309189,2|0|0,0:0|0:0|0:0,0:0:0:0:
280,160,81999,2,0,P|284:96|224:40,1,136.125005192757,4|0,0:0|0:0,0:0:0:0:
233,50,82332,2,0,P|166:52|122:101,1,136.125005192757,4|0,0:0|0:0,0:0:0:0:
122,101,82665,1,2,0:0:0:0:
212,180,82832,6,0,L|268:180,1,45.3750017309189,8|0,0:0|0:0,0:0:0:0:
376,212,82999,2,0,L|432:212,1,45.3750017309189,8|0,0:0|0:0,0:0:0:0:
284,304,83165,6,0,P|196:292|100:304,1,181.5,4|0,0:0|0:0,0:0:0:0:
102,304,83499,1,2,0:0:0:0:
76,168,83665,1,0,0:0:0:0:
180,77,83832,1,0,0:0:0:0:
56,188,83999,6,0,P|92:136|152:108,1,105.875001009703,8|0,0:0|0:0,0:0:0:0:
276,144,84332,2,0,L|276:204,2,52.9375005048513,2|0|0,0:0|0:0|0:0,0:0:0:0:
500,180,84665,2,0,P|472:136|396:116,1,105.875001009703,8|0,0:0|0:0,0:0:0:0:
256,124,84999,1,2,0:0:0:0:
376,212,85165,1,0,0:0:0:0:
239,271,85332,1,2,0:0:0:0:
256,124,85499,1,8,0:0:0:0:
256,124,85582,1,0,0:0:0:0:
256,124,85665,1,0,0:0:0:0:
256,124,85749,1,0,0:0:0:0:
256,124,85832,5,4,0:0:0:0:
80,324,86165,2,0,L|80:392,1,45.3750017309189,8|0,0:0|0:0,0:0:0:0:
140,264,86332,2,0,L|140:218,1,45.3750017309189,2|0,0:0|0:0,0:0:0:0:
260,328,86499,2,0,L|260:396,1,45.3750017309189,10|0,0:0|0:0,0:0:0:0:
396,276,86665,2,0,L|396:230,1,45.3750017309189,2|0,0:0|0:0,0:0:0:0:
276,188,86832,6,0,L|276:120,3,45.3750017309189,2|0|0|0,0:0|0:0|0:0|0:0,0:0:0:0:
200,56,87165,2,0,L|200:101,3,45.3750017309189,2|0|0|0,0:0|0:0|0:0|0:0,0:0:0:0:
76,168,87499,6,0,L|76:104,1,45.3750017309189,8|0,0:0|0:0,0:0:0:0:
152,254,87665,2,0,L|152:186,1,45.3750017309189,8|0,0:0|0:0,0:0:0:0:
228,340,87832,1,8,0:0:0:0:
262,340,87915,1,0,0:0:0:0:
296,340,87998,1,8,0:0:0:0:
330,340,88081,1,0,0:0:0:0:
364,340,88165,5,4,0:0:0:0:
200,56,88832,2,0,P|176:124|208:212,1,151.25,8|0,0:0|0:0,0:0:0:0:
500,52,89499,5,2,0:0:0:0:
216,216,90166,2,0,P|284:240|372:208,1,151.25,8|0,0:0|0:0,0:0:0:0:
12,52,90832,1,2,0:0:0:0:
256,192,91165,5,4,0:0:0:0:
104,192,91499,2,4,L|234:61,2,158.812501514554
408,192,92165,2,4,L|277:61,2,158.812501514554
256,192,92999,1,4,0:0:0:0:
256,192,93332,1,2,0:0:0:0:
104,192,93499,6,0,L|104:240,3,33.2750010154724,8|0|0|0,0:0|0:0|0:0|0:0,0:0:0:0:
180,324,93832,2,0,L|180:290,3,33.2750010154724,2|0|0|0,0:0|0:0|0:0|0:0,0:0:0:0:
256,192,94165,2,0,L|256:240,3,33.2750010154724,8|0|0|0,0:0|0:0|0:0|0:0,0:0:0:0:
332,324,94499,2,0,L|332:290,3,33.2750010154724,2|0|0|0,0:0|0:0|0:0|0:0,0:0:0:0:
408,192,94832,6,0,L|408:132,3,37.8125,8|0|0|0,0:0|0:0|0:0|0:0,0:0:0:0:
295,79,95165,1,2,0:0:0:0:
295,79,95249,1,0,0:0:0:0:
295,79,95332,2,0,L|295:23,1,37.8125,8|0,0:0|0:0,0:0:0:0:
180,104,95499,2,0,L|180:141,3,37.8125,8|0|0|0,0:0|0:0|0:0|0:0,0:0:0:0:
88,72,95832,2,0,L|88:34,3,37.8125,2|0|0|0,0:0|0:0|0:0|0:0,0:0:0:0:
84,172,96165,5,8,0:0:0:0:
84,194,96248,1,0,0:0:0:0:
84,217,96331,1,2,0:0:0:0:
84,240,96414,1,0,0:0:0:0:
84,264,96499,2,0,L|84:324,3,45.3750017309189,8|0|0|0,0:0|0:0|0:0|0:0,0:0:0:0:
180,279,96832,5,8,0:0:0:0:
180,257,96915,1,0,0:0:0:0:
180,234,96998,1,2,0:0:0:0:
180,211,97081,1,0,0:0:0:0:
180,187,97166,2,0,L|180:127,3,45.3750017309189,8|0|0|0,0:0|0:0|0:0|0:0,0:0:0:0:
256,192,97499,5,4,0:0:0:0:
256,344,97832,1,2,0:0:0:0:
256,40,98165,1,8,0:0:0:0:
48,192,98499,1,2,0:0:0:0:
464,192,98832,5,12,3:0:0:0:
256,192,104165,6,0,P|232:140|260:80,1,121,8|0,0:0|0:0,0:0:0:0:
256,192,104832,2,0,P|308:168|368:196,1,121,4|0,0:0|0:0,0:0:0:0:
256,192,105499,2,0,P|280:244|252:304,1,121,8|0,0:0|0:0,0:0:0:0:
256,192,106166,2,0,P|204:216|144:188,1,121,4|0,0:0|0:0,0:0:0:0:
256,192,106832,5,8,0:0:0:0:
255,84,107499,1,4,0:0:0:0:
363,191,108165,1,8,0:0:0:0:
256,299,108832,1,4,0:0:0:0:
148,192,109499,5,4,0:0:0:0:
107,45,109665,1,4,0:0:0:0:
363,191,110165,5,4,0:0:0:0:
404,44,110331,1,4,0:0:0:0:
148,192,110832,5,4,0:0:0:0:
107,339,110998,1,4,0:0:0:0:
364,192,111499,5,4,0:0:0:0:
405,339,111665,1,4,0:0:0:0:
256,192,112165,5,8,0:0:0:0:
148,192,112499,5,4,0:0:0:0:
364,192,112665,1,4,0:0:0:0:
256,300,113165,5,4,0:0:0:0:
256,84,113331,1,4,0:0:0:0:
256,192,113665,5,8,0:0:0:0:
107,45,113999,5,4,0:0:0:0:
404,44,114165,1,4,0:0:0:0:
107,339,114499,5,4,0:0:0:0:
405,339,114665,1,4,0:0:0:0:
256,192,114832,1,12,3:0:0:0:
256,192,116165,12,0,120249,0:0:0:0:
