osu file format v14

[General]
AudioFilename: audio.mp3
AudioLeadIn: 0
PreviewTime: 124693
Countdown: 0
SampleSet: Normal
StackLeniency: 0.7
Mode: 3
LetterboxInBreaks: 0
SpecialStyle: 0
WidescreenStoryboard: 0

[Editor]
DistanceSpacing: 0.5
BeatDivisor: 12
GridSize: 32
TimelineZoom: 6.899996

[Metadata]
Title:Suiren
TitleUnicode:水蓮
Artist:sakuzyo
ArtistUnicode:削除
Creator:Tidek
Version:4K Blossoming Lily
Source:
Tags:piano underjoy _underjoy instrumental AD:PIANO diverse system
BeatmapID:1155651
BeatmapSetID:545484

[Difficulty]
HPDrainRate:9.3
CircleSize:4
OverallDifficulty:10
ApproachRate:5
SliderMultiplier:1.4
SliderTickRate:1

[Events]
//Background and Video events
0,0,"BG.png",0,0
//Break Periods
//Storyboard Layer 0 (Background)
//Storyboard Layer 1 (Fail)
//Storyboard Layer 2 (Pass)
//Storyboard Layer 3 (Foreground)
//Storyboard Sound Samples

[TimingPoints]
95,375,6,1,1,20,1,0
95,-57.8034682080925,6,1,1,20,0,0
67593,250,6,1,1,20,1,0
67593,-86.9565217391304,6,1,1,20,0,0
114093,260.869565217391,6,1,1,20,1,0
114093,-83.3333333333333,6,1,1,20,0,0
115658,272.727272727273,6,1,1,20,1,0
115658,-80,6,1,1,20,0,0
116193,272.727272727273,6,1,1,20,1,0
116193,-80,6,1,1,20,0,0
117294,279.06976744186,6,1,1,20,1,0
117294,-78.125,6,1,1,20,0,0
118968,292.682926829268,6,1,1,20,1,0
118968,-74.0740740740741,6,1,1,20,0,0
120722,300,6,1,1,20,1,0
120722,-72.463768115942,6,1,1,20,0,0
121315,300,6,1,1,20,1,0
121315,-72.463768115942,6,1,1,20,0,0
121622,300,6,1,1,20,1,0
121622,-72.463768115942,6,1,1,20,0,0
122578,352.941176470588,6,1,1,20,1,0
122578,-61.7283950617284,6,1,1,20,0,0
155578,529.801324503311,6,1,1,20,1,0
155578,-40.9836065573771,6,1,1,20,0,0
157424,502.092050209205,6,1,1,20,1,8
157424,-43.2900432900433,6,1,1,20,0,8
157779,502.092050209205,6,1,1,20,1,0
157779,-43.2900432900433,6,1,1,20,0,0
157874,217.391304347826,6,1,1,20,1,0
157874,-100,6,1,1,20,0,0
176837,254.237288135593,6,1,1,20,1,0
176837,-85.4700854700855,6,1,1,20,0,0
177599,263.157894736842,6,1,1,20,1,0
177599,-82.6446280991736,6,1,1,20,0,0
178932,217.391304347826,6,1,1,20,1,0
178932,-100,6,1,1,20,0,0
216975,217.391304347826,6,1,1,20,1,0
216975,-100,6,1,1,20,0,0
254592,369.230769230769,6,1,1,20,1,0
254592,-58.8235294117647,6,1,1,20,0,0
256810,308.483290488432,6,1,1,20,1,0
256810,-70.4225352112676,6,1,1,20,0,0
258660,285.714285714286,6,1,1,20,1,0
258660,-76.3358778625954,6,1,1,20,0,0
260374,287.081339712919,6,1,1,20,1,0
260374,-75.7575757575758,6,1,1,20,0,0
262098,303.030303030303,6,1,1,20,1,0
262098,-71.9424460431655,6,1,1,20,0,0
262906,312.5,6,1,1,20,1,8
262906,-69.4444444444444,6,1,1,20,0,8
263218,298.507462686567,6,1,1,20,1,0
263218,-72.992700729927,6,1,1,20,0,0
263516,285.714285714286,6,1,1,20,1,0
263516,-76.3358778625954,6,1,1,20,0,0
263801,283.018867924528,6,1,1,20,1,0
263801,-76.9230769230769,6,1,1,20,0,0
264084,277.777777777778,6,1,1,20,1,0
264084,-78.125,6,1,1,20,0,0
264361,267.857142857143,6,1,1,20,1,0
264361,-81.3008130081301,6,1,1,20,0,0
264628,250,6,1,1,20,1,0
264628,-86.9565217391304,6,1,1,20,0,0
265128,254.237288135593,6,1,1,20,1,0
265128,-85.4700854700855,6,1,1,20,0,0
265632,250,6,1,1,20,1,0
265632,-86.9565217391304,6,1,1,20,0,0
266377,307.692307692308,6,1,1,20,1,0
266377,-70.4225352112676,6,1,1,20,0,0
266684,335.195530726257,6,1,1,20,1,0
266684,-64.9350649350649,6,1,1,20,0,0
267019,306.122448979592,6,1,1,20,1,0
267019,-70.9219858156028,6,1,1,20,0,0
267835,306.122448979592,6,1,1,20,1,0
267835,-70.9219858156028,6,1,1,20,0,0
268141,300,6,1,1,20,1,0
268141,-72.463768115942,6,1,1,20,0,0
268441,288.461538461538,6,1,1,20,1,0
268441,-75.187969924812,6,1,1,20,0,0
268729,277.777777777778,6,1,1,20,1,0
268729,-78.125,6,1,1,20,0,0
269283,266.666666666667,6,1,1,20,1,0
269283,-81.3008130081301,6,1,1,20,0,0
269549,252.100840336134,6,1,1,20,1,0
269549,-86.2068965517241,6,1,1,20,0,0
270053,250,6,1,1,20,1,0
270053,-86.9565217391304,6,1,1,20,0,0
270553,256.410256410256,6,1,1,20,1,0
270553,-84.7457627118644,6,1,1,20,0,0
271322,344.827586206897,6,1,1,20,1,0
271322,-62.8930817610063,6,1,1,20,0,0
271666,441.176470588235,6,1,1,20,1,0
271666,-49.2610837438424,6,1,1,20,0,0
272107,504.201680672269,6,1,1,20,1,0
272107,-43.1034482758621,6,1,1,20,0,0
275458,370.37037037037,6,1,1,20,1,0
275458,-58.8235294117647,6,1,1,20,0,0
293974,277.777777777778,6,1,1,20,1,0
293974,-78.125,6,1,1,20,0,0
294624,277.777777777778,6,1,1,20,1,0
294624,-78.125,6,1,1,20,0,0
295265,272.727272727273,6,1,1,20,1,0
295265,-80,6,1,1,20,0,0
295992,272.727272727273,6,1,1,20,1,0
295992,-80,6,1,1,20,0,0
317265,250,6,1,1,20,1,0
317265,-86.9565217391304,6,1,1,20,0,0
318255,245.901639344262,6,1,1,20,1,0
318255,-88.495575221239,6,1,1,20,0,0
341861,260.869565217391,6,1,1,20,1,0
341861,-83.3333333333333,6,1,1,20,0,0
342643,272.727272727273,6,1,1,20,1,0
342643,-80,6,1,1,20,0,0
342915,300,6,1,1,20,1,8
342915,-72.463768115942,6,1,1,20,0,8
343215,315.789473684211,6,1,1,20,1,8
343215,-68.9655172413793,6,1,1,20,0,8
343530,332.409972299169,6,1,1,20,1,0
343530,-65.359477124183,6,1,1,20,0,0
347518,439.56043956044,6,1,1,20,1,0
347518,-49.5049504950495,6,1,1,20,0,0
348177,358.208955223881,6,1,1,20,1,0
348177,-60.6060606060606,6,1,1,20,0,0
348714,303.030303030303,6,1,1,20,1,0
348714,-71.9424460431655,6,1,1,20,0,0
349660,292.682926829268,6,1,1,20,1,0
349660,-74.0740740740741,6,1,1,20,0,0
350330,178.571428571429,6,1,1,20,1,0
350330,-121.951219512195,6,1,1,20,0,0
365330,324.324324324324,6,1,1,20,1,0
365330,-67.1140939597315,6,1,1,20,0,0
366302,352.941176470588,6,1,1,20,1,0
366302,-61.7283950617284,6,1,1,20,0,0
367355,178.571428571429,6,1,1,20,1,0
367355,-121.951219512195,6,1,1,20,0,0
379140,179.640718562874,6,1,1,20,1,0
379140,-120.481927710843,6,1,1,20,0,0
380217,178.571428571429,6,1,1,20,1,0
380217,-121.951219512195,6,1,1,20,0,0
381288,182.926829268293,6,1,1,20,1,0
381288,-119.047619047619,6,1,1,20,0,0
382385,363.636363636364,6,1,1,20,1,0
382385,-59.8802395209581,6,1,1,20,0,0
382930,388.349514563107,6,1,1,20,1,8
382930,-55.8659217877095,6,1,1,20,0,8
384095,392.156862745098,6,1,1,20,1,0
384095,-55.5555555555556,6,1,1,20,0,0
384683,412.371134020619,6,1,1,20,1,0
384683,-52.6315789473684,6,1,1,20,0,0
385301,434.782608695652,6,1,1,20,1,8
385301,-50,6,1,1,20,0,8
385953,326.086956521739,6,1,1,20,1,8
385953,-66.6666666666667,6,1,1,20,0,8
386279,372.670807453416,6,1,1,20,1,0
386279,-58.4795321637427,6,1,1,20,0,0
388514,307.692307692308,6,1,1,20,1,0
388514,-70.4225352112676,6,1,1,20,0,0
390359,285.714285714286,6,1,1,20,1,0
390359,-76.3358778625954,6,1,1,20,0,0
392078,384.615384615385,6,1,1,20,1,0
392078,-56.4971751412429,6,1,1,20,0,0
401315,416.666666666667,6,1,1,20,1,0
401315,-52.0833333333333,6,1,1,20,0,0
404648,468.75,6,1,1,20,1,8
404648,-46.2962962962963,6,1,1,20,0,8
405116,491.803278688525,6,1,1,20,1,0
405116,-44.2477876106195,6,1,1,20,0,0
405607,582.52427184466,6,1,1,20,1,0
405607,-37.3134328358209,6,1,1,20,0,0
406189,600,6,1,1,20,1,0
406189,-36.231884057971,6,1,1,20,0,0
406789,512.820512820513,6,1,1,20,1,0
406789,-42.3728813559322,6,1,1,20,0,0
407418,413.793103448276,6,1,1,20,1,0
407418,-52.6315789473684,6,1,1,20,0,0
409590,413.793103448276,6,1,1,20,1,0
409590,-52.6315789473684,6,1,1,20,0,0
411373,363.636363636364,6,1,1,20,1,0
411373,-59.8802395209581,6,1,1,20,0,0
411983,428.571428571429,6,1,1,20,1,0
411983,-50.761421319797,6,1,1,20,0,0
412625,480,6,1,1,20,1,0
412625,-45.2488687782805,6,1,1,20,0,0
413030,560.747663551402,6,1,1,20,1,0
413030,-38.7596899224806,6,1,1,20,0,0
413871,433.212996389892,6,1,1,20,1,0
413871,-50.251256281407,6,1,1,20,0,0
414104,521.739130434783,6,1,1,20,1,0
414104,-41.6666666666667,6,1,1,20,0,0
414604,560.747663551402,6,1,1,20,1,0
414604,-38.7596899224806,6,1,1,20,0,0
415124,200,6,1,1,20,1,0
415124,-108.695652173913,6,1,1,20,0,0
430724,188.679245283019,6,1,1,20,1,0
430724,-114.942528735632,6,1,1,20,0,0
431091,188.679245283019,6,1,1,20,1,8
431091,-114.942528735632,6,1,1,20,0,8
434109,175.438596491228,6,1,1,20,1,0
434109,-123.456790123457,6,1,1,20,0,0
439635,241.935483870968,6,1,1,20,1,0
439635,-90.0900900900901,6,1,1,20,0,0
440144,263.157894736842,6,1,1,20,1,0
440144,-82.6446280991736,6,1,1,20,0,0
441485,263.157894736842,6,1,1,20,1,0
441485,-82.6446280991736,6,1,1,20,0,0
464906,272.727272727273,6,1,1,20,1,8
464906,-80,6,1,1,20,0,8
465476,285.714285714286,6,1,1,20,1,0
465476,-76.3358778625954,6,1,1,20,0,0
466048,301.507537688442,6,1,1,20,1,0
466048,-71.9424460431655,6,1,1,20,0,0
466952,324.324324324324,6,1,1,20,1,0
466952,-67.1140939597315,6,1,1,20,0,0
467924,333.333333333333,6,1,1,20,1,0
467924,-65.359477124183,6,1,1,20,0,0
468590,342.857142857143,6,1,1,20,1,8
468590,-63.2911392405063,6,1,1,20,0,8
468932,263.157894736842,6,1,1,20,1,0
468932,-82.6446280991736,6,1,1,20,0,0
494195,294.117647058824,6,1,1,20,1,0
494195,-74.0740740740741,6,1,1,20,0,0
495415,344.827586206897,6,1,1,20,1,0
495415,-62.8930817610063,6,1,1,20,0,0
496087,384.615384615385,6,1,1,20,1,0
496087,-56.4971751412429,6,1,1,20,0,0
496856,400,6,1,1,20,1,0
496856,-54.3478260869565,6,1,1,20,0,0
497722,419.58041958042,6,1,1,20,1,8
497722,-51.8134715025907,6,1,1,20,0,8
498561,348.837209302326,6,1,1,20,1,0
498561,-62.5,6,1,1,20,0,0
529956,714.285714285714,6,1,1,20,1,0
529956,-30.3951367781155,6,1,1,20,0,0
530654,967.741935483871,6,1,1,20,1,8
530654,-22.4719101123595,6,1,1,20,0,8
531621,857.142857142857,6,1,1,20,1,0
531621,-25.3807106598985,6,1,1,20,0,0
532478,705.882352941176,6,1,1,20,1,8
532478,-30.7692307692308,6,1,1,20,0,8
533183,521.739130434783,6,1,1,20,1,8
533183,-41.6666666666667,6,1,1,20,0,8
533704,606.060606060606,6,1,1,20,1,8
533704,-35.84229390681,6,1,1,20,0,8
534310,792.079207920792,6,1,1,20,1,8
534310,-27.4725274725275,6,1,1,20,0,8
535102,882.352941176471,6,1,1,20,1,8
535102,-24.6305418719212,6,1,1,20,0,8

[HitObjects]
64,192,48,5,0,0:0:0:0:
320,192,95,5,2,0:0:0:0:
192,192,2313,1,2,0:0:0:0:
448,192,2345,1,0,0:0:0:0:
320,192,2720,1,0,0:0:0:0:
448,192,3095,1,0,0:0:0:0:
192,192,3470,1,0,0:0:0:0:
64,192,4220,1,0,0:0:0:0:
320,192,4595,1,2,0:0:0:0:
192,192,4595,1,0,0:0:0:0:
64,192,6798,1,0,0:0:0:0:
320,192,6845,1,2,0:0:0:0:
448,192,7220,1,0,0:0:0:0:
320,192,7595,1,0,0:0:0:0:
192,192,7970,1,0,0:0:0:0:
64,192,8720,1,0,0:0:0:0:
320,192,9095,1,2,0:0:0:0:
192,192,9095,1,0,0:0:0:0:
192,192,11345,1,0,0:0:0:0:
448,192,11345,1,2,0:0:0:0:
320,192,11720,1,0,0:0:0:0:
448,192,12095,1,0,0:0:0:0:
192,192,12470,1,0,0:0:0:0:
64,192,13220,1,0,0:0:0:0:
192,192,13595,1,0,0:0:0:0:
320,192,13595,1,2,0:0:0:0:
192,192,14720,1,0,0:0:0:0:
448,192,14720,1,0,0:0:0:0:
320,192,15845,1,0,0:0:0:0:
64,192,15845,1,2,0:0:0:0:
320,192,16407,1,0,0:0:0:0:
448,192,16970,1,2,0:0:0:0:
192,192,16970,1,0,0:0:0:0:
320,192,17720,1,0,0:0:0:0:
192,192,17907,1,0,0:0:0:0:
320,192,18095,1,2,0:0:0:0:
448,192,18095,1,4,0:0:0:0:
64,192,18095,1,0,0:0:0:0:
192,192,18282,1,0,0:0:0:0:
320,192,18470,1,0,0:0:0:0:
448,192,18657,1,0,0:0:0:0:
64,192,18938,1,0,0:0:0:0:
192,192,19313,1,0,0:0:0:0:
320,192,19595,1,0,0:0:0:0:
448,192,19970,1,0,0:0:0:0:
64,192,20345,1,4,0:0:0:0:
192,192,20345,1,2,0:0:0:0:
320,192,20345,1,4,0:0:0:0:
448,192,20345,1,4,0:0:0:0:
192,192,20720,1,0,0:0:0:0:
320,192,21095,1,0,0:0:0:0:
448,192,21470,1,2,0:0:0:0:
64,192,21470,1,0,0:0:0:0:
192,192,21470,1,4,0:0:0:0:
192,192,22220,1,0,0:0:0:0:
448,192,22595,1,2,0:0:0:0:
64,192,22595,1,0,0:0:0:0:
320,192,22782,1,0,0:0:0:0:
192,192,22970,1,0,0:0:0:0:
64,192,23157,1,0,0:0:0:0:
320,192,23438,1,0,0:0:0:0:
448,192,23720,1,2,0:0:0:0:
64,192,23720,1,0,0:0:0:0:
192,192,24798,1,0,0:0:0:0:
448,192,24845,1,2,0:0:0:0:
64,192,25220,1,0,0:0:0:0:
320,192,25595,1,0,0:0:0:0:
64,192,25899,1,0,0:0:0:0:
192,192,25923,1,0,0:0:0:0:
448,192,25970,1,2,0:0:0:0:
64,192,26720,1,0,0:0:0:0:
192,192,27063,1,0,0:0:0:0:
320,192,27095,1,0,0:0:0:0:
64,192,27282,1,0,0:0:0:0:
192,192,27470,1,0,0:0:0:0:
320,192,27688,1,0,0:0:0:0:
192,192,28001,1,0,0:0:0:0:
448,192,28313,1,2,0:0:0:0:
64,192,28313,1,0,0:0:0:0:
64,192,29345,1,2,0:0:0:0:
320,192,29345,1,0,0:0:0:0:
192,192,29720,1,0,0:0:0:0:
320,192,30095,1,0,0:0:0:0:
64,192,30118,1,0,0:0:0:0:
448,192,30470,1,2,0:0:0:0:
192,192,30563,1,0,0:0:0:0:
64,192,30868,1,0,0:0:0:0:
320,192,31063,1,0,0:0:0:0:
448,192,31220,1,2,0:0:0:0:
192,192,31220,1,0,0:0:0:0:
64,192,31313,1,0,0:0:0:0:
320,192,31407,1,0,0:0:0:0:
192,192,31501,1,0,0:0:0:0:
64,192,31548,1,0,0:0:0:0:
448,192,31595,1,2,0:0:0:0:
320,192,31595,1,0,0:0:0:0:
192,192,32720,1,0,0:0:0:0:
448,192,32743,1,2,0:0:0:0:
320,192,33845,1,0,0:0:0:0:
64,192,33845,1,2,0:0:0:0:
192,192,34407,1,0,0:0:0:0:
64,192,34946,1,0,0:0:0:0:
320,192,34970,1,2,0:0:0:0:
448,192,35532,1,2,0:0:0:0:
64,192,36095,1,0,0:0:0:0:
192,192,36095,1,4,0:0:0:0:
64,192,36657,1,0,0:0:0:0:
320,192,36657,1,4,0:0:0:0:
448,192,37220,1,4,0:0:0:0:
320,192,37220,1,4,0:0:0:0:
192,192,37220,1,2,0:0:0:0:
64,192,37220,1,4,0:0:0:0:
320,192,37595,1,0,0:0:0:0:
448,192,37876,1,0,0:0:0:0:
320,192,38157,1,0,0:0:0:0:
192,192,38438,1,0,0:0:0:0:
64,192,38626,1,0,0:0:0:0:
192,192,38813,1,0,0:0:0:0:
320,192,39001,1,0,0:0:0:0:
64,192,39188,1,0,0:0:0:0:
448,192,39376,1,0,0:0:0:0:
64,192,39563,1,0,0:0:0:0:
320,192,39751,1,0,0:0:0:0:
192,192,39938,1,0,0:0:0:0:
64,192,40126,1,0,0:0:0:0:
448,192,40313,1,0,0:0:0:0:
320,192,40407,1,0,0:0:0:0:
448,192,40501,1,0,0:0:0:0:
192,192,40595,1,2,0:0:0:0:
64,192,40595,1,4,0:0:0:0:
448,192,40688,1,0,0:0:0:0:
320,192,40782,1,0,0:0:0:0:
192,192,40876,1,0,0:0:0:0:
64,192,40970,1,0,0:0:0:0:
320,192,41063,1,0,0:0:0:0:
448,192,41157,1,4,0:0:0:0:
64,192,41157,1,2,0:0:0:0:
192,192,41251,1,0,0:0:0:0:
320,192,41345,1,0,0:0:0:0:
448,192,41438,1,0,0:0:0:0:
192,192,41532,1,0,0:0:0:0:
320,192,41626,1,0,0:0:0:0:
192,192,41720,1,2,0:0:0:0:
64,192,41720,1,4,0:0:0:0:
320,192,41720,1,4,0:0:0:0:
448,192,41720,1,4,0:0:0:0:
320,192,42095,1,0,0:0:0:0:
192,192,42376,1,0,0:0:0:0:
320,192,42657,1,0,0:0:0:0:
64,192,42938,1,0,0:0:0:0:
448,192,43126,1,0,0:0:0:0:
192,192,43313,1,0,0:0:0:0:
448,192,43501,1,0,0:0:0:0:
64,192,43641,1,0,0:0:0:0:
192,192,43688,1,0,0:0:0:0:
320,192,43782,1,0,0:0:0:0:
64,192,43876,1,0,0:0:0:0:
192,192,43923,1,0,0:0:0:0:
320,192,44063,1,0,0:0:0:0:
64,192,44204,1,0,0:0:0:0:
448,192,44345,1,0,0:0:0:0:
192,192,44485,1,0,0:0:0:0:
320,192,44532,1,0,0:0:0:0:
448,192,44626,1,0,0:0:0:0:
64,192,44720,1,0,0:0:0:0:
320,192,44813,1,0,0:0:0:0:
192,192,44907,1,0,0:0:0:0:
448,192,45001,1,0,0:0:0:0:
192,192,45095,1,4,0:0:0:0:
64,192,45095,1,2,0:0:0:0:
320,192,45282,1,0,0:0:0:0:
192,192,45470,1,0,0:0:0:0:
64,192,45657,1,4,0:0:0:0:
320,192,45657,1,2,0:0:0:0:
448,192,45845,1,0,0:0:0:0:
320,192,46032,1,0,0:0:0:0:
64,192,46220,1,4,0:0:0:0:
192,192,46220,1,2,0:0:0:0:
448,192,46220,1,4,0:0:0:0:
320,192,46220,1,4,0:0:0:0:
320,192,46595,1,0,0:0:0:0:
448,192,46876,1,0,0:0:0:0:
320,192,47157,1,0,0:0:0:0:
192,192,47438,1,0,0:0:0:0:
64,192,47626,1,0,0:0:0:0:
192,192,47813,1,0,0:0:0:0:
320,192,48001,1,0,0:0:0:0:
64,192,48188,1,0,0:0:0:0:
448,192,48376,1,0,0:0:0:0:
64,192,48563,1,0,0:0:0:0:
320,192,48751,1,0,0:0:0:0:
192,192,48938,1,0,0:0:0:0:
64,192,49126,1,0,0:0:0:0:
448,192,49313,1,0,0:0:0:0:
320,192,49407,1,0,0:0:0:0:
448,192,49501,1,0,0:0:0:0:
192,192,49595,1,2,0:0:0:0:
64,192,49595,1,4,0:0:0:0:
448,192,49688,1,0,0:0:0:0:
320,192,49782,1,0,0:0:0:0:
192,192,49876,1,0,0:0:0:0:
64,192,49970,1,0,0:0:0:0:
320,192,50063,1,0,0:0:0:0:
448,192,50157,1,2,0:0:0:0:
64,192,50157,1,4,0:0:0:0:
192,192,50251,1,0,0:0:0:0:
320,192,50345,1,0,0:0:0:0:
448,192,50438,1,0,0:0:0:0:
192,192,50532,1,0,0:0:0:0:
320,192,50626,1,0,0:0:0:0:
64,192,50720,1,4,0:0:0:0:
192,192,50720,1,2,0:0:0:0:
448,192,50720,1,4,0:0:0:0:
320,192,50720,1,4,0:0:0:0:
320,192,51095,1,0,0:0:0:0:
192,192,51376,1,0,0:0:0:0:
320,192,51657,1,0,0:0:0:0:
64,192,51938,1,0,0:0:0:0:
448,192,52126,1,0,0:0:0:0:
192,192,52313,1,0,0:0:0:0:
448,192,52501,1,0,0:0:0:0:
64,192,52641,1,0,0:0:0:0:
192,192,52688,1,0,0:0:0:0:
320,192,52782,1,0,0:0:0:0:
64,192,52876,1,0,0:0:0:0:
192,192,52923,1,0,0:0:0:0:
320,192,53063,1,0,0:0:0:0:
64,192,53204,1,0,0:0:0:0:
448,192,53345,1,0,0:0:0:0:
320,192,53485,1,0,0:0:0:0:
192,192,53532,1,2,0:0:0:0:
64,192,53532,1,4,0:0:0:0:
448,192,53626,1,0,0:0:0:0:
64,192,53720,1,0,0:0:0:0:
320,192,53813,1,0,0:0:0:0:
192,192,53907,1,0,0:0:0:0:
448,192,54001,1,0,0:0:0:0:
320,192,54095,1,2,0:0:0:0:
64,192,54095,1,4,0:0:0:0:
448,192,54657,1,4,0:0:0:0:
64,192,54657,1,0,0:0:0:0:
192,192,54657,1,2,0:0:0:0:
320,192,54751,1,0,0:0:0:0:
64,192,54845,1,0,0:0:0:0:
320,192,54938,1,0,0:0:0:0:
192,192,55032,1,0,0:0:0:0:
448,192,55126,1,0,0:0:0:0:
192,192,55220,1,0,0:0:0:0:
448,192,55313,1,0,0:0:0:0:
320,192,55407,1,0,0:0:0:0:
64,192,55501,1,0,0:0:0:0:
320,192,55595,1,0,0:0:0:0:
64,192,55688,1,0,0:0:0:0:
320,192,55782,1,0,0:0:0:0:
64,192,55876,1,0,0:0:0:0:
192,192,55970,1,0,0:0:0:0:
448,192,56063,1,0,0:0:0:0:
64,192,56157,1,0,0:0:0:0:
320,192,56251,1,0,0:0:0:0:
64,192,56345,1,4,0:0:0:0:
192,192,56345,1,2,0:0:0:0:
64,192,56813,1,0,0:0:0:0:
192,192,56907,1,4,0:0:0:0:
320,192,56907,1,2,0:0:0:0:
448,192,56907,1,0,0:0:0:0:
64,192,57001,1,0,0:0:0:0:
320,192,57095,1,0,0:0:0:0:
192,192,57188,1,0,0:0:0:0:
448,192,57282,1,0,0:0:0:0:
192,192,57376,1,0,0:0:0:0:
448,192,57470,1,0,0:0:0:0:
320,192,57563,1,0,0:0:0:0:
64,192,57657,1,0,0:0:0:0:
448,192,57751,1,0,0:0:0:0:
192,192,57845,1,0,0:0:0:0:
448,192,57938,1,0,0:0:0:0:
192,192,58032,1,0,0:0:0:0:
320,192,58126,1,0,0:0:0:0:
64,192,58220,1,0,0:0:0:0:
192,192,58313,1,0,0:0:0:0:
448,192,58407,1,0,0:0:0:0:
64,192,58501,1,0,0:0:0:0:
192,192,58595,1,4,0:0:0:0:
320,192,58595,1,2,0:0:0:0:
64,192,59157,1,0,0:0:0:0:
192,192,59157,1,2,0:0:0:0:
448,192,59157,1,4,0:0:0:0:
320,192,59251,1,0,0:0:0:0:
64,192,59345,1,0,0:0:0:0:
320,192,59438,1,0,0:0:0:0:
192,192,59532,1,0,0:0:0:0:
448,192,59626,1,0,0:0:0:0:
192,192,59720,1,0,0:0:0:0:
448,192,59813,1,0,0:0:0:0:
320,192,59907,1,0,0:0:0:0:
64,192,60001,1,0,0:0:0:0:
320,192,60095,1,0,0:0:0:0:
64,192,60188,1,0,0:0:0:0:
192,192,60282,1,0,0:0:0:0:
448,192,60376,1,0,0:0:0:0:
192,192,60470,1,0,0:0:0:0:
448,192,60563,1,0,0:0:0:0:
320,192,60657,1,0,0:0:0:0:
64,192,60751,1,0,0:0:0:0:
320,192,60845,1,2,0:0:0:0:
448,192,60845,1,4,0:0:0:0:
64,192,60938,1,0,0:0:0:0:
448,192,61032,1,0,0:0:0:0:
192,192,61126,1,0,0:0:0:0:
448,192,61220,1,0,0:0:0:0:
192,192,61313,1,0,0:0:0:0:
64,192,61407,1,0,0:0:0:0:
320,192,61407,1,2,0:0:0:0:
448,192,61407,1,4,0:0:0:0:
192,192,61501,1,0,0:0:0:0:
320,192,61595,1,0,0:0:0:0:
448,192,61688,1,0,0:0:0:0:
64,192,61782,1,0,0:0:0:0:
192,192,61876,1,0,0:0:0:0:
448,192,61970,1,0,0:0:0:0:
64,192,62063,1,0,0:0:0:0:
320,192,62157,1,0,0:0:0:0:
448,192,62251,1,0,0:0:0:0:
64,192,62345,1,0,0:0:0:0:
192,192,62438,1,0,0:0:0:0:
448,192,62532,1,0,0:0:0:0:
64,192,62626,1,0,0:0:0:0:
320,192,62720,1,0,0:0:0:0:
448,192,62813,1,0,0:0:0:0:
64,192,62907,1,0,0:0:0:0:
448,192,63001,1,0,0:0:0:0:
64,192,63095,1,0,0:0:0:0:
448,192,63188,1,0,0:0:0:0:
64,192,63282,1,0,0:0:0:0:
448,192,63376,1,0,0:0:0:0:
64,192,63563,1,0,0:0:0:0:
448,192,63751,1,0,0:0:0:0:
64,192,64032,1,0,0:0:0:0:
448,192,64313,1,0,0:0:0:0:
64,192,64501,1,0,0:0:0:0:
448,192,64688,1,0,0:0:0:0:
320,192,64845,1,0,0:0:0:0:
192,192,64946,1,0,0:0:0:0:
64,192,65126,1,0,0:0:0:0:
448,192,65227,1,0,0:0:0:0:
320,192,65345,1,0,0:0:0:0:
192,192,65602,1,0,0:0:0:0:
64,192,66470,1,0,0:0:0:0:
64,192,67593,1,0,0:0:0:0:
448,192,67593,1,2,0:0:0:0:
192,192,67718,1,0,0:0:0:0:
320,192,67843,1,0,0:0:0:0:
448,192,67968,1,0,0:0:0:0:
320,192,68093,1,0,0:0:0:0:
192,192,68218,1,0,0:0:0:0:
64,192,68343,1,0,0:0:0:0:
448,192,68343,1,0,0:0:0:0:
192,192,68468,1,0,0:0:0:0:
320,192,68593,1,0,0:0:0:0:
448,192,68718,1,0,0:0:0:0:
320,192,68843,1,0,0:0:0:0:
192,192,68968,1,0,0:0:0:0:
64,192,69093,1,2,0:0:0:0:
448,192,69093,1,0,0:0:0:0:
192,192,69218,1,0,0:0:0:0:
320,192,69343,1,0,0:0:0:0:
64,192,69343,1,2,0:0:0:0:
448,192,69468,1,0,0:0:0:0:
64,192,69593,1,2,0:0:0:0:
320,192,69593,1,0,0:0:0:0:
192,192,69718,1,0,0:0:0:0:
64,192,69843,1,2,0:0:0:0:
448,192,69843,1,0,0:0:0:0:
192,192,69968,1,0,0:0:0:0:
320,192,70093,1,0,0:0:0:0:
448,192,70218,1,0,0:0:0:0:
192,192,70343,1,0,0:0:0:0:
64,192,70343,1,2,0:0:0:0:
320,192,70468,1,0,0:0:0:0:
64,192,70593,1,2,0:0:0:0:
448,192,70593,1,0,0:0:0:0:
192,192,70718,1,0,0:0:0:0:
320,192,70843,1,0,0:0:0:0:
448,192,70968,1,0,0:0:0:0:
320,192,71093,1,0,0:0:0:0:
192,192,71218,1,0,0:0:0:0:
64,192,71343,1,0,0:0:0:0:
448,192,71343,1,0,0:0:0:0:
192,192,71468,1,0,0:0:0:0:
320,192,71593,1,0,0:0:0:0:
448,192,71718,1,0,0:0:0:0:
320,192,71843,1,0,0:0:0:0:
192,192,71968,1,0,0:0:0:0:
64,192,72093,1,2,0:0:0:0:
448,192,72093,1,0,0:0:0:0:
192,192,72218,1,0,0:0:0:0:
64,192,72343,1,2,0:0:0:0:
320,192,72343,1,0,0:0:0:0:
448,192,72468,1,0,0:0:0:0:
192,192,72593,1,0,0:0:0:0:
64,192,72593,1,2,0:0:0:0:
320,192,72718,1,0,0:0:0:0:
64,192,72843,1,2,0:0:0:0:
448,192,72843,1,0,0:0:0:0:
320,192,72968,1,0,0:0:0:0:
192,192,73093,1,0,0:0:0:0:
64,192,73218,1,0,0:0:0:0:
320,192,73343,1,0,0:0:0:0:
448,192,73343,1,2,0:0:0:0:
192,192,73468,1,0,0:0:0:0:
64,192,73593,1,0,0:0:0:0:
448,192,73593,1,2,0:0:0:0:
192,192,73718,1,0,0:0:0:0:
320,192,73843,1,0,0:0:0:0:
448,192,73968,1,0,0:0:0:0:
320,192,74093,1,0,0:0:0:0:
192,192,74218,1,0,0:0:0:0:
64,192,74343,1,0,0:0:0:0:
448,192,74343,1,0,0:0:0:0:
192,192,74468,1,0,0:0:0:0:
320,192,74593,1,0,0:0:0:0:
448,192,74718,1,0,0:0:0:0:
320,192,74843,1,0,0:0:0:0:
192,192,74968,1,0,0:0:0:0:
64,192,75093,1,2,0:0:0:0:
448,192,75093,1,0,0:0:0:0:
192,192,75218,1,0,0:0:0:0:
64,192,75343,1,2,0:0:0:0:
320,192,75343,1,0,0:0:0:0:
448,192,75468,1,0,0:0:0:0:
64,192,75593,1,2,0:0:0:0:
320,192,75593,1,0,0:0:0:0:
192,192,75718,1,0,0:0:0:0:
64,192,75843,1,2,0:0:0:0:
448,192,75843,1,0,0:0:0:0:
320,192,75968,1,0,0:0:0:0:
192,192,76093,1,0,0:0:0:0:
320,192,76218,1,0,0:0:0:0:
448,192,76343,1,2,0:0:0:0:
64,192,76343,1,0,0:0:0:0:
64,192,76593,1,0,0:0:0:0:
448,192,76593,1,2,0:0:0:0:
192,192,76718,1,0,0:0:0:0:
320,192,76843,1,0,0:0:0:0:
448,192,76968,1,0,0:0:0:0:
192,192,77093,1,0,0:0:0:0:
320,192,77218,1,0,0:0:0:0:
64,192,77343,1,0,0:0:0:0:
448,192,77343,1,2,0:0:0:0:
192,192,77468,1,0,0:0:0:0:
320,192,77593,1,0,0:0:0:0:
448,192,77718,1,0,0:0:0:0:
320,192,77843,1,0,0:0:0:0:
192,192,77968,1,0,0:0:0:0:
64,192,78093,1,0,0:0:0:0:
320,192,78093,1,0,0:0:0:0:
448,192,78093,1,2,0:0:0:0:
192,192,78218,1,0,0:0:0:0:
320,192,78343,1,0,0:0:0:0:
64,192,78468,1,0,0:0:0:0:
192,192,78468,1,0,0:0:0:0:
448,192,78468,1,2,0:0:0:0:
320,192,78593,1,0,0:0:0:0:
192,192,78718,1,0,0:0:0:0:
64,192,78843,1,0,0:0:0:0:
320,192,78843,1,0,0:0:0:0:
448,192,78843,1,2,0:0:0:0:
192,192,78968,1,0,0:0:0:0:
320,192,79093,1,0,0:0:0:0:
64,192,79093,1,2,0:0:0:0:
448,192,79218,1,0,0:0:0:0:
64,192,79343,1,2,0:0:0:0:
192,192,79343,1,0,0:0:0:0:
320,192,79468,1,0,0:0:0:0:
448,192,79593,1,0,0:0:0:0:
64,192,79593,1,2,0:0:0:0:
192,192,79718,1,0,0:0:0:0:
320,192,79843,1,0,0:0:0:0:
448,192,79968,1,0,0:0:0:0:
320,192,80093,1,0,0:0:0:0:
192,192,80218,1,0,0:0:0:0:
64,192,80343,1,0,0:0:0:0:
448,192,80343,1,0,0:0:0:0:
192,192,80468,1,0,0:0:0:0:
320,192,80593,1,0,0:0:0:0:
448,192,80718,1,0,0:0:0:0:
320,192,80843,1,0,0:0:0:0:
192,192,80968,1,0,0:0:0:0:
448,192,81093,1,0,0:0:0:0:
64,192,81093,1,2,0:0:0:0:
192,192,81218,1,0,0:0:0:0:
64,192,81343,1,2,0:0:0:0:
320,192,81343,1,0,0:0:0:0:
448,192,81468,1,0,0:0:0:0:
64,192,81593,1,2,0:0:0:0:
320,192,81593,1,0,0:0:0:0:
192,192,81718,1,0,0:0:0:0:
64,192,81843,1,2,0:0:0:0:
448,192,81843,1,0,0:0:0:0:
192,192,81968,1,0,0:0:0:0:
320,192,82093,1,0,0:0:0:0:
448,192,82218,1,0,0:0:0:0:
192,192,82343,1,0,0:0:0:0:
64,192,82343,1,2,0:0:0:0:
320,192,82468,1,0,0:0:0:0:
64,192,82593,1,2,0:0:0:0:
448,192,82593,1,0,0:0:0:0:
192,192,82718,1,0,0:0:0:0:
320,192,82843,1,0,0:0:0:0:
448,192,82968,1,0,0:0:0:0:
320,192,83093,1,0,0:0:0:0:
192,192,83218,1,0,0:0:0:0:
448,192,83343,1,0,0:0:0:0:
64,192,83343,1,0,0:0:0:0:
192,192,83468,1,0,0:0:0:0:
320,192,83593,1,0,0:0:0:0:
448,192,83718,1,0,0:0:0:0:
320,192,83843,1,0,0:0:0:0:
192,192,83968,1,0,0:0:0:0:
448,192,84093,1,0,0:0:0:0:
64,192,84093,1,2,0:0:0:0:
192,192,84218,1,0,0:0:0:0:
320,192,84343,1,0,0:0:0:0:
64,192,84343,1,2,0:0:0:0:
448,192,84468,1,0,0:0:0:0:
192,192,84593,1,0,0:0:0:0:
64,192,84593,1,2,0:0:0:0:
448,192,84718,1,0,0:0:0:0:
320,192,84843,1,0,0:0:0:0:
64,192,84843,1,2,0:0:0:0:
448,192,84968,1,0,0:0:0:0:
192,192,85093,1,0,0:0:0:0:
64,192,85218,1,0,0:0:0:0:
448,192,85343,1,2,0:0:0:0:
320,192,85343,1,0,0:0:0:0:
192,192,85468,1,0,0:0:0:0:
64,192,85593,1,0,0:0:0:0:
448,192,85593,1,2,0:0:0:0:
192,192,85718,1,0,0:0:0:0:
320,192,85843,1,0,0:0:0:0:
448,192,85968,1,0,0:0:0:0:
320,192,86093,1,0,0:0:0:0:
192,192,86218,1,0,0:0:0:0:
64,192,86343,1,0,0:0:0:0:
448,192,86343,1,0,0:0:0:0:
192,192,86468,1,0,0:0:0:0:
320,192,86593,1,0,0:0:0:0:
448,192,86718,1,0,0:0:0:0:
320,192,86843,1,0,0:0:0:0:
192,192,86968,1,0,0:0:0:0:
64,192,87093,1,2,0:0:0:0:
448,192,87093,1,0,0:0:0:0:
192,192,87218,1,0,0:0:0:0:
320,192,87343,1,0,0:0:0:0:
64,192,87343,1,2,0:0:0:0:
448,192,87468,1,0,0:0:0:0:
64,192,87593,1,2,0:0:0:0:
320,192,87593,1,0,0:0:0:0:
192,192,87718,1,0,0:0:0:0:
448,192,87843,1,0,0:0:0:0:
64,192,87843,1,2,0:0:0:0:
320,192,87968,1,0,0:0:0:0:
192,192,88093,1,0,0:0:0:0:
320,192,88218,1,0,0:0:0:0:
448,192,88343,1,2,0:0:0:0:
64,192,88343,1,0,0:0:0:0:
64,192,88593,1,0,0:0:0:0:
448,192,88593,1,2,0:0:0:0:
192,192,88718,1,0,0:0:0:0:
320,192,88843,1,0,0:0:0:0:
448,192,88968,1,0,0:0:0:0:
192,192,89093,1,0,0:0:0:0:
320,192,89218,1,0,0:0:0:0:
64,192,89343,1,0,0:0:0:0:
448,192,89343,1,2,0:0:0:0:
192,192,89468,1,0,0:0:0:0:
320,192,89593,1,0,0:0:0:0:
448,192,89718,1,0,0:0:0:0:
320,192,89843,1,0,0:0:0:0:
192,192,89968,1,0,0:0:0:0:
64,192,90093,1,0,0:0:0:0:
448,192,90093,1,2,0:0:0:0:
192,192,90218,1,0,0:0:0:0:
320,192,90343,1,0,0:0:0:0:
448,192,90468,1,0,0:0:0:0:
64,192,90593,1,0,0:0:0:0:
320,192,90718,1,0,0:0:0:0:
320,192,90843,1,2,0:0:0:0:
192,192,90843,1,0,0:0:0:0:
64,192,90968,1,0,0:0:0:0:
320,192,91093,1,0,0:0:0:0:
448,192,91218,1,0,0:0:0:0:
192,192,91343,1,0,0:0:0:0:
320,192,91468,1,0,0:0:0:0:
64,192,91593,1,0,0:0:0:0:
448,192,91593,1,2,0:0:0:0:
192,192,91718,1,0,0:0:0:0:
320,192,91843,1,0,0:0:0:0:
448,192,91968,1,0,0:0:0:0:
64,192,92093,1,0,0:0:0:0:
192,192,92218,1,0,0:0:0:0:
320,192,92343,1,0,0:0:0:0:
448,192,92343,1,2,0:0:0:0:
192,192,92468,1,0,0:0:0:0:
64,192,92593,1,0,0:0:0:0:
448,192,92593,1,2,0:0:0:0:
320,192,92718,1,0,0:0:0:0:
64,192,92843,1,2,0:0:0:0:
192,192,92843,1,0,0:0:0:0:
320,192,92968,1,0,0:0:0:0:
64,192,93093,1,2,0:0:0:0:
448,192,93093,1,0,0:0:0:0:
192,192,93218,1,0,0:0:0:0:
320,192,93343,1,0,0:0:0:0:
448,192,93468,1,0,0:0:0:0:
64,192,93593,1,2,0:0:0:0:
192,192,93593,1,0,0:0:0:0:
320,192,93718,1,0,0:0:0:0:
64,192,93843,1,2,0:0:0:0:
448,192,93843,1,0,0:0:0:0:
320,192,93968,1,0,0:0:0:0:
192,192,94093,1,0,0:0:0:0:
64,192,94218,1,0,0:0:0:0:
320,192,94343,1,2,0:0:0:0:
448,192,94343,1,0,0:0:0:0:
64,192,94468,1,0,0:0:0:0:
192,192,94593,1,0,0:0:0:0:
320,192,94593,1,2,0:0:0:0:
64,192,94718,1,0,0:0:0:0:
320,192,94811,1,0,0:0:0:0:
448,192,94843,1,2,0:0:0:0:
192,192,94968,1,0,0:0:0:0:
320,192,95093,1,0,0:0:0:0:
448,192,95093,1,2,0:0:0:0:
64,192,95218,1,0,0:0:0:0:
192,192,95343,1,0,0:0:0:0:
448,192,95343,1,2,0:0:0:0:
64,192,95468,1,0,0:0:0:0:
192,192,95593,1,2,0:0:0:0:
320,192,95593,1,0,0:0:0:0:
448,192,95718,1,0,0:0:0:0:
64,192,95843,1,2,0:0:0:0:
320,192,95843,1,0,0:0:0:0:
448,192,95968,1,0,0:0:0:0:
64,192,96093,1,2,0:0:0:0:
192,192,96093,1,0,0:0:0:0:
320,192,96218,1,0,0:0:0:0:
448,192,96343,1,0,0:0:0:0:
64,192,96343,1,2,0:0:0:0:
192,192,96468,1,0,0:0:0:0:
320,192,96593,1,0,0:0:0:0:
448,192,96593,1,2,0:0:0:0:
192,192,96718,1,0,0:0:0:0:
64,192,96843,1,0,0:0:0:0:
448,192,96843,1,2,0:0:0:0:
320,192,96905,1,0,0:0:0:0:
64,192,96968,1,0,0:0:0:0:
320,192,97030,1,0,0:0:0:0:
64,192,97093,1,0,0:0:0:0:
448,192,97093,1,2,0:0:0:0:
192,192,97218,1,0,0:0:0:0:
64,192,97343,1,2,0:0:0:0:
320,192,97343,1,0,0:0:0:0:
448,192,97468,1,0,0:0:0:0:
64,192,97593,1,2,0:0:0:0:
192,192,97593,1,0,0:0:0:0:
320,192,97718,1,0,0:0:0:0:
192,192,97843,1,0,0:0:0:0:
448,192,97968,1,0,0:0:0:0:
320,192,98093,1,0,0:0:0:0:
64,192,98093,1,2,0:0:0:0:
448,192,98218,1,0,0:0:0:0:
192,192,98343,1,2,0:0:0:0:
64,192,98343,1,0,0:0:0:0:
320,192,98468,1,2,0:0:0:0:
448,192,98468,1,0,0:0:0:0:
64,192,98593,1,0,0:0:0:0:
192,192,98593,1,2,0:0:0:0:
448,192,98593,1,0,0:0:0:0:
192,192,98718,1,0,0:0:0:0:
320,192,98718,1,2,0:0:0:0:
64,192,98843,1,0,0:0:0:0:
320,192,98843,1,2,0:0:0:0:
448,192,98843,1,0,0:0:0:0:
192,192,98968,1,2,0:0:0:0:
448,192,98968,1,0,0:0:0:0:
64,192,99093,1,0,0:0:0:0:
192,192,99093,1,0,0:0:0:0:
320,192,99093,1,2,0:0:0:0:
448,192,99218,1,0,0:0:0:0:
64,192,99343,1,0,0:0:0:0:
320,192,99426,1,0,0:0:0:0:
192,192,99468,1,0,0:0:0:0:
64,192,99509,1,0,0:0:0:0:
192,192,99593,1,0,0:0:0:0:
320,192,99593,1,0,0:0:0:0:
448,192,99593,1,2,0:0:0:0:
64,192,99718,1,0,0:0:0:0:
320,192,99843,1,0,0:0:0:0:
448,192,99843,1,2,0:0:0:0:
64,192,100093,1,0,0:0:0:0:
448,192,100093,1,0,0:0:0:0:
64,192,100343,1,0,0:0:0:0:
192,192,100343,1,0,0:0:0:0:
320,192,100468,1,0,0:0:0:0:
64,192,100593,1,0,0:0:0:0:
448,192,100593,1,2,0:0:0:0:
192,192,100718,1,0,0:0:0:0:
320,192,100843,1,0,0:0:0:0:
448,192,100968,1,0,0:0:0:0:
64,192,101093,1,0,0:0:0:0:
320,192,101176,1,0,0:0:0:0:
192,192,101218,1,0,0:0:0:0:
64,192,101259,1,0,0:0:0:0:
320,192,101343,1,0,0:0:0:0:
448,192,101343,1,2,0:0:0:0:
192,192,101468,1,0,0:0:0:0:
320,192,101593,1,0,0:0:0:0:
448,192,101718,1,0,0:0:0:0:
192,192,101843,1,0,0:0:0:0:
320,192,101926,1,0,0:0:0:0:
64,192,101968,1,0,0:0:0:0:
192,192,102009,1,0,0:0:0:0:
320,192,102093,1,0,0:0:0:0:
448,192,102093,1,2,0:0:0:0:
64,192,102218,1,0,0:0:0:0:
192,192,102343,1,0,0:0:0:0:
448,192,102468,1,0,0:0:0:0:
320,192,102593,1,0,0:0:0:0:
64,192,102676,1,0,0:0:0:0:
192,192,102718,1,0,0:0:0:0:
320,192,102759,1,0,0:0:0:0:
448,192,102843,1,2,0:0:0:0:
64,192,102843,1,0,0:0:0:0:
192,192,102968,1,0,0:0:0:0:
320,192,103093,1,0,0:0:0:0:
448,192,103176,1,0,0:0:0:0:
320,192,103259,1,0,0:0:0:0:
448,192,103343,1,0,0:0:0:0:
64,192,103593,1,0,0:0:0:0:
320,192,103593,1,2,0:0:0:0:
192,192,103843,1,0,0:0:0:0:
448,192,103843,1,2,0:0:0:0:
192,192,104093,1,0,0:0:0:0:
64,192,104093,1,2,0:0:0:0:
320,192,104176,1,0,0:0:0:0:
64,192,104259,1,0,0:0:0:0:
448,192,104343,1,2,0:0:0:0:
320,192,104343,1,0,0:0:0:0:
192,192,104426,1,0,0:0:0:0:
320,192,104509,1,0,0:0:0:0:
448,192,104593,1,0,0:0:0:0:
64,192,104593,1,2,0:0:0:0:
192,192,104676,1,0,0:0:0:0:
448,192,104759,1,0,0:0:0:0:
192,192,104843,1,2,0:0:0:0:
64,192,104843,1,0,0:0:0:0:
320,192,104926,1,0,0:0:0:0:
64,192,105009,1,0,0:0:0:0:
320,192,105093,1,2,0:0:0:0:
448,192,105093,1,0,0:0:0:0:
192,192,105176,1,0,0:0:0:0:
320,192,105259,1,0,0:0:0:0:
448,192,105343,1,2,0:0:0:0:
64,192,105343,1,0,0:0:0:0:
192,192,105426,1,0,0:0:0:0:
448,192,105509,1,0,0:0:0:0:
192,192,105593,1,2,0:0:0:0:
64,192,105593,1,0,0:0:0:0:
320,192,105676,1,0,0:0:0:0:
64,192,105759,1,0,0:0:0:0:
448,192,105843,1,0,0:0:0:0:
320,192,105843,1,2,0:0:0:0:
192,192,105926,1,0,0:0:0:0:
320,192,106009,1,0,0:0:0:0:
64,192,106093,1,2,0:0:0:0:
448,192,106093,1,0,0:0:0:0:
192,192,106176,1,0,0:0:0:0:
448,192,106259,1,0,0:0:0:0:
64,192,106343,1,0,0:0:0:0:
192,192,106343,1,2,0:0:0:0:
320,192,106426,1,0,0:0:0:0:
192,192,106509,1,0,0:0:0:0:
448,192,106509,1,0,0:0:0:0:
64,192,106593,1,0,0:0:0:0:
320,192,106593,1,2,0:0:0:0:
192,192,106843,1,0,0:0:0:0:
448,192,106843,1,2,0:0:0:0:
64,192,107093,1,2,0:0:0:0:
320,192,107093,1,0,0:0:0:0:
448,192,107176,1,0,0:0:0:0:
320,192,107259,1,0,0:0:0:0:
64,192,107343,1,2,0:0:0:0:
448,192,107343,1,0,0:0:0:0:
192,192,107426,1,0,0:0:0:0:
320,192,107509,1,0,0:0:0:0:
64,192,107593,1,2,0:0:0:0:
448,192,107593,1,0,0:0:0:0:
192,192,107676,1,0,0:0:0:0:
448,192,107759,1,0,0:0:0:0:
64,192,107843,1,2,0:0:0:0:
192,192,107843,1,0,0:0:0:0:
320,192,107926,1,0,0:0:0:0:
64,192,108009,1,0,0:0:0:0:
320,192,108093,1,0,0:0:0:0:
448,192,108093,1,2,0:0:0:0:
192,192,108176,1,0,0:0:0:0:
320,192,108259,1,0,0:0:0:0:
64,192,108343,1,0,0:0:0:0:
448,192,108343,1,2,0:0:0:0:
192,192,108426,1,0,0:0:0:0:
448,192,108509,1,0,0:0:0:0:
64,192,108593,1,0,0:0:0:0:
192,192,108593,1,2,0:0:0:0:
320,192,108676,1,0,0:0:0:0:
64,192,108759,1,0,0:0:0:0:
320,192,108843,1,2,0:0:0:0:
448,192,108843,1,0,0:0:0:0:
192,192,108926,1,0,0:0:0:0:
320,192,109009,1,0,0:0:0:0:
64,192,109093,1,2,0:0:0:0:
448,192,109093,1,0,0:0:0:0:
320,192,109176,1,0,0:0:0:0:
192,192,109259,1,0,0:0:0:0:
448,192,109343,1,2,0:0:0:0:
64,192,109343,1,0,0:0:0:0:
192,192,109426,1,0,0:0:0:0:
320,192,109509,1,0,0:0:0:0:
64,192,109593,1,0,0:0:0:0:
448,192,109593,1,2,0:0:0:0:
192,192,109718,1,0,0:0:0:0:
320,192,109843,1,0,0:0:0:0:
64,192,109843,1,0,0:0:0:0:
448,192,109926,1,0,0:0:0:0:
192,192,109968,1,0,0:0:0:0:
320,192,110009,1,0,0:0:0:0:
448,192,110093,1,2,0:0:0:0:
64,192,110093,1,0,0:0:0:0:
320,192,110218,1,0,0:0:0:0:
192,192,110343,1,0,0:0:0:0:
448,192,110343,1,0,0:0:0:0:
64,192,110593,1,2,0:0:0:0:
320,192,110593,1,0,0:0:0:0:
448,192,110843,1,0,0:0:0:0:
64,192,111093,1,2,0:0:0:0:
448,192,111093,1,0,0:0:0:0:
192,192,111218,1,0,0:0:0:0:
64,192,111343,1,0,0:0:0:0:
320,192,111343,1,0,0:0:0:0:
448,192,111426,1,0,0:0:0:0:
192,192,111468,1,0,0:0:0:0:
320,192,111509,1,0,0:0:0:0:
64,192,111593,1,2,0:0:0:0:
448,192,111593,1,0,0:0:0:0:
320,192,111718,1,0,0:0:0:0:
192,192,111843,1,0,0:0:0:0:
64,192,111843,1,0,0:0:0:0:
64,192,112093,1,0,0:0:0:0:
320,192,112093,1,2,0:0:0:0:
448,192,112343,1,0,0:0:0:0:
64,192,112593,1,0,0:0:0:0:
448,192,112593,1,2,0:0:0:0:
192,192,112718,1,0,0:0:0:0:
64,192,112843,1,0,0:0:0:0:
320,192,112843,1,0,0:0:0:0:
448,192,112926,1,0,0:0:0:0:
192,192,112968,1,0,0:0:0:0:
320,192,113009,1,0,0:0:0:0:
64,192,113093,1,0,0:0:0:0:
448,192,113093,1,2,0:0:0:0:
320,192,113218,1,0,0:0:0:0:
192,192,113343,1,0,0:0:0:0:
448,192,113343,1,0,0:0:0:0:
64,192,113593,1,0,0:0:0:0:
320,192,113593,1,2,0:0:0:0:
448,192,113843,1,0,0:0:0:0:
64,192,114093,1,0,0:0:0:0:
448,192,114093,1,2,0:0:0:0:
192,192,114223,1,0,0:0:0:0:
320,192,114353,1,0,0:0:0:0:
64,192,114353,1,0,0:0:0:0:
448,192,114440,1,0,0:0:0:0:
192,192,114484,1,0,0:0:0:0:
320,192,114527,1,0,0:0:0:0:
64,192,114614,1,0,0:0:0:0:
448,192,114614,1,2,0:0:0:0:
320,192,114745,1,0,0:0:0:0:
64,192,114875,1,0,0:0:0:0:
192,192,114875,1,0,0:0:0:0:
64,192,115136,1,0,0:0:0:0:
320,192,115136,1,2,0:0:0:0:
448,192,115397,1,0,0:0:0:0:
64,192,115658,1,0,0:0:0:0:
448,192,115658,1,2,0:0:0:0:
320,192,115794,1,0,0:0:0:0:
64,192,115930,1,0,0:0:0:0:
192,192,115930,1,0,0:0:0:0:
448,192,116021,1,0,0:0:0:0:
320,192,116067,1,0,0:0:0:0:
192,192,116112,1,0,0:0:0:0:
448,192,116193,1,0,0:0:0:0:
64,192,116193,1,2,0:0:0:0:
192,192,116465,1,0,0:0:0:0:
320,192,116738,1,0,0:0:0:0:
64,192,116738,1,2,0:0:0:0:
448,192,117011,1,0,0:0:0:0:
64,192,117294,1,0,0:0:0:0:
448,192,117294,1,2,0:0:0:0:
320,192,117433,1,0,0:0:0:0:
192,192,117573,1,0,0:0:0:0:
64,192,117573,1,0,0:0:0:0:
448,192,117666,1,0,0:0:0:0:
320,192,117712,1,0,0:0:0:0:
192,192,117759,1,0,0:0:0:0:
64,192,117852,1,0,0:0:0:0:
448,192,117852,1,2,0:0:0:0:
320,192,117991,1,0,0:0:0:0:
192,192,118131,1,0,0:0:0:0:
448,192,118131,1,0,0:0:0:0:
320,192,118410,1,0,0:0:0:0:
64,192,118410,1,2,0:0:0:0:
448,192,118689,1,0,0:0:0:0:
448,192,118968,1,2,0:0:0:0:
64,192,118968,1,0,0:0:0:0:
192,192,119114,1,0,0:0:0:0:
320,192,119260,1,0,0:0:0:0:
448,192,119407,1,0,0:0:0:0:
192,192,119553,1,0,0:0:0:0:
64,192,119553,1,0,0:0:0:0:
320,192,119699,1,0,0:0:0:0:
448,192,119846,1,0,0:0:0:0:
64,192,119846,1,0,0:0:0:0:
192,192,120138,1,2,0:0:0:0:
320,192,120138,1,0,0:0:0:0:
64,192,120722,1,0,0:0:0:0:
448,192,120722,1,2,0:0:0:0:
192,192,120872,1,0,0:0:0:0:
320,192,121022,1,0,0:0:0:0:
448,192,121172,1,0,0:0:0:0:
192,192,121315,1,0,0:0:0:0:
64,192,121315,1,0,0:0:0:0:
192,192,121465,1,0,0:0:0:0:
320,192,121465,1,0,0:0:0:0:
448,192,121622,1,0,0:0:0:0:
320,192,121922,1,2,0:0:0:0:
192,192,121922,1,0,0:0:0:0:
320,192,122522,1,0,0:0:0:0:
448,192,122578,1,2,0:0:0:0:
64,192,122578,1,0,0:0:0:0:
192,192,122754,1,0,0:0:0:0:
320,192,122930,1,0,0:0:0:0:
448,192,123107,1,0,0:0:0:0:
64,192,123283,1,0,0:0:0:0:
320,192,123460,1,0,0:0:0:0:
192,192,123607,1,0,0:0:0:0:
448,192,123636,1,0,0:0:0:0:
320,192,124695,1,0,0:0:0:0:
64,192,124695,1,2,0:0:0:0:
192,192,124813,1,0,0:0:0:0:
448,192,124930,1,0,0:0:0:0:
192,192,125048,1,0,0:0:0:0:
320,192,125401,1,0,0:0:0:0:
192,192,125754,1,0,0:0:0:0:
448,192,125754,1,2,0:0:0:0:
64,192,126460,1,0,0:0:0:0:
192,192,126813,1,0,0:0:0:0:
320,192,126813,1,2,0:0:0:0:
64,192,126989,1,0,0:0:0:0:
192,192,127166,1,0,0:0:0:0:
448,192,127342,1,2,0:0:0:0:
64,192,127519,1,0,0:0:0:0:
320,192,127695,1,0,0:0:0:0:
448,192,127872,1,0,0:0:0:0:
64,192,128886,1,0,0:0:0:0:
320,192,128930,1,2,0:0:0:0:
192,192,129107,1,0,0:0:0:0:
448,192,129283,1,2,0:0:0:0:
64,192,129283,1,0,0:0:0:0:
320,192,129636,1,0,0:0:0:0:
448,192,129989,1,2,0:0:0:0:
192,192,129989,1,0,0:0:0:0:
64,192,130695,1,0,0:0:0:0:
192,192,131048,1,0,0:0:0:0:
320,192,131048,1,2,0:0:0:0:
448,192,131225,1,0,0:0:0:0:
320,192,131401,1,0,0:0:0:0:
64,192,131578,1,0,0:0:0:0:
192,192,131754,1,0,0:0:0:0:
320,192,131930,1,0,0:0:0:0:
448,192,132107,1,0,0:0:0:0:
320,192,133166,1,2,0:0:0:0:
64,192,133166,1,0,0:0:0:0:
448,192,133342,1,0,0:0:0:0:
320,192,133519,1,0,0:0:0:0:
192,192,133519,1,0,0:0:0:0:
64,192,133695,1,0,0:0:0:0:
320,192,133872,1,0,0:0:0:0:
448,192,134225,1,2,0:0:0:0:
64,192,134225,1,0,0:0:0:0:
192,192,134578,1,0,0:0:0:0:
320,192,134930,1,0,0:0:0:0:
448,192,135107,1,0,0:0:0:0:
320,192,135283,1,2,0:0:0:0:
192,192,135283,1,0,0:0:0:0:
192,192,136166,1,0,0:0:0:0:
192,192,136342,1,0,0:0:0:0:
448,192,136342,1,2,0:0:0:0:
192,192,136872,1,0,0:0:0:0:
320,192,137225,1,0,0:0:0:0:
64,192,137401,1,0,0:0:0:0:
448,192,137401,1,2,0:0:0:0:
320,192,137930,1,0,0:0:0:0:
192,192,138460,1,0,0:0:0:0:
448,192,138460,1,2,0:0:0:0:
320,192,139166,1,0,0:0:0:0:
192,192,139342,1,0,0:0:0:0:
64,192,139519,1,0,0:0:0:0:
320,192,139519,1,2,0:0:0:0:
448,192,139519,1,4,0:0:0:0:
192,192,139695,1,0,0:0:0:0:
320,192,139872,1,0,0:0:0:0:
448,192,140048,1,0,0:0:0:0:
64,192,140313,1,0,0:0:0:0:
192,192,140666,1,0,0:0:0:0:
320,192,140930,1,0,0:0:0:0:
448,192,141283,1,0,0:0:0:0:
64,192,141636,1,4,0:0:0:0:
192,192,141636,1,4,0:0:0:0:
320,192,141636,1,2,0:0:0:0:
448,192,141636,1,4,0:0:0:0:
192,192,141989,1,0,0:0:0:0:
320,192,142342,1,0,0:0:0:0:
64,192,142695,1,0,0:0:0:0:
192,192,142695,1,2,0:0:0:0:
448,192,142695,1,4,0:0:0:0:
192,192,143401,1,0,0:0:0:0:
64,192,143754,1,0,0:0:0:0:
448,192,143754,1,2,0:0:0:0:
320,192,143930,1,0,0:0:0:0:
192,192,144107,1,0,0:0:0:0:
64,192,144283,1,0,0:0:0:0:
320,192,144548,1,0,0:0:0:0:
64,192,144813,1,0,0:0:0:0:
448,192,144813,1,2,0:0:0:0:
192,192,145828,1,0,0:0:0:0:
448,192,145872,1,2,0:0:0:0:
64,192,146225,1,0,0:0:0:0:
320,192,146578,1,0,0:0:0:0:
64,192,146872,1,0,0:0:0:0:
192,192,146901,1,0,0:0:0:0:
448,192,146930,1,2,0:0:0:0:
64,192,147636,1,0,0:0:0:0:
192,192,147960,1,0,0:0:0:0:
320,192,147989,1,0,0:0:0:0:
64,192,148166,1,0,0:0:0:0:
192,192,148342,1,0,0:0:0:0:
320,192,148548,1,0,0:0:0:0:
192,192,148842,1,0,0:0:0:0:
64,192,149136,1,0,0:0:0:0:
448,192,149136,1,2,0:0:0:0:
64,192,150107,1,2,0:0:0:0:
320,192,150107,1,0,0:0:0:0:
192,192,150460,1,0,0:0:0:0:
320,192,150813,1,0,0:0:0:0:
64,192,150842,1,0,0:0:0:0:
448,192,151166,1,2,0:0:0:0:
192,192,151254,1,0,0:0:0:0:
64,192,151519,1,0,0:0:0:0:
320,192,151725,1,0,0:0:0:0:
448,192,151872,1,2,0:0:0:0:
192,192,151872,1,0,0:0:0:0:
64,192,151960,1,0,0:0:0:0:
320,192,152048,1,0,0:0:0:0:
192,192,152136,1,0,0:0:0:0:
64,192,152180,1,0,0:0:0:0:
448,192,152225,1,2,0:0:0:0:
320,192,152225,1,0,0:0:0:0:
192,192,153283,1,0,0:0:0:0:
448,192,153283,1,2,0:0:0:0:
320,192,154342,1,0,0:0:0:0:
64,192,154342,1,2,0:0:0:0:
192,192,155048,1,0,0:0:0:0:
192,192,155578,1,0,0:0:0:0:
448,192,155578,1,2,0:0:0:0:
64,192,156990,1,0,0:0:0:0:
448,192,157424,1,0,0:0:0:0:
64,192,157507,1,0,0:0:0:0:
320,192,157549,1,0,0:0:0:0:
192,192,157643,1,0,0:0:0:0:
320,192,157779,1,0,0:0:0:0:
448,192,157874,1,2,0:0:0:0:
192,192,157874,1,0,0:0:0:0:
64,192,157874,1,0,0:0:0:0:
320,192,157982,1,0,0:0:0:0:
64,192,158091,1,0,0:0:0:0:
192,192,158091,1,0,0:0:0:0:
448,192,158200,1,0,0:0:0:0:
64,192,158308,1,0,0:0:0:0:
192,192,158308,1,0,0:0:0:0:
448,192,158417,1,0,0:0:0:0:
192,192,158526,1,0,0:0:0:0:
320,192,158526,1,2,0:0:0:0:
64,192,158634,1,0,0:0:0:0:
448,192,158743,1,0,0:0:0:0:
192,192,158743,1,0,0:0:0:0:
320,192,158852,1,0,0:0:0:0:
448,192,158960,1,0,0:0:0:0:
192,192,158960,1,0,0:0:0:0:
320,192,159069,1,0,0:0:0:0:
192,192,159178,1,2,0:0:0:0:
320,192,159205,1,0,0:0:0:0:
192,192,159395,1,0,0:0:0:0:
64,192,159395,1,2,0:0:0:0:
320,192,159422,1,0,0:0:0:0:
64,192,159613,1,2,0:0:0:0:
192,192,159613,1,0,0:0:0:0:
448,192,159640,1,0,0:0:0:0:
64,192,159830,1,2,0:0:0:0:
448,192,159830,1,0,0:0:0:0:
320,192,159857,1,0,0:0:0:0:
320,192,160047,1,0,0:0:0:0:
448,192,160047,1,2,0:0:0:0:
192,192,160075,1,0,0:0:0:0:
320,192,160265,1,0,0:0:0:0:
448,192,160265,1,2,0:0:0:0:
64,192,160292,1,0,0:0:0:0:
64,192,160482,1,0,0:0:0:0:
192,192,160482,1,0,0:0:0:0:
448,192,160482,1,2,0:0:0:0:
320,192,160591,1,0,0:0:0:0:
64,192,160700,1,0,0:0:0:0:
192,192,160700,1,0,0:0:0:0:
448,192,160808,1,0,0:0:0:0:
64,192,160917,1,0,0:0:0:0:
192,192,160917,1,0,0:0:0:0:
448,192,161026,1,0,0:0:0:0:
192,192,161134,1,0,0:0:0:0:
320,192,161134,1,2,0:0:0:0:
64,192,161243,1,0,0:0:0:0:
192,192,161352,1,0,0:0:0:0:
448,192,161352,1,0,0:0:0:0:
320,192,161460,1,0,0:0:0:0:
192,192,161569,1,0,0:0:0:0:
448,192,161569,1,0,0:0:0:0:
320,192,161678,1,0,0:0:0:0:
192,192,161787,1,2,0:0:0:0:
320,192,161814,1,0,0:0:0:0:
64,192,162004,1,2,0:0:0:0:
192,192,162004,1,0,0:0:0:0:
320,192,162031,1,0,0:0:0:0:
64,192,162221,1,2,0:0:0:0:
192,192,162221,1,0,0:0:0:0:
448,192,162249,1,0,0:0:0:0:
448,192,162439,1,0,0:0:0:0:
64,192,162439,1,2,0:0:0:0:
320,192,162466,1,0,0:0:0:0:
320,192,162656,1,0,0:0:0:0:
448,192,162656,1,2,0:0:0:0:
192,192,162683,1,0,0:0:0:0:
320,192,162874,1,0,0:0:0:0:
448,192,162874,1,2,0:0:0:0:
64,192,162901,1,0,0:0:0:0:
64,192,163091,1,0,0:0:0:0:
192,192,163091,1,0,0:0:0:0:
448,192,163091,1,2,0:0:0:0:
320,192,163200,1,0,0:0:0:0:
64,192,163308,1,0,0:0:0:0:
192,192,163308,1,0,0:0:0:0:
448,192,163308,1,2,0:0:0:0:
192,192,163417,1,0,0:0:0:0:
64,192,163526,1,0,0:0:0:0:
320,192,163526,1,0,0:0:0:0:
448,192,163526,1,2,0:0:0:0:
448,192,163634,1,0,0:0:0:0:
64,192,163743,1,0,0:0:0:0:
192,192,163743,1,0,0:0:0:0:
320,192,163852,1,0,0:0:0:0:
64,192,163960,1,2,0:0:0:0:
448,192,163960,1,0,0:0:0:0:
192,192,163960,1,0,0:0:0:0:
192,192,164069,1,0,0:0:0:0:
64,192,164178,1,2,0:0:0:0:
320,192,164178,1,0,0:0:0:0:
448,192,164178,1,0,0:0:0:0:
320,192,164287,1,0,0:0:0:0:
64,192,164395,1,0,0:0:0:0:
192,192,164395,1,0,0:0:0:0:
448,192,164395,1,0,0:0:0:0:
320,192,164613,1,0,0:0:0:0:
448,192,164613,1,0,0:0:0:0:
192,192,164613,1,2,0:0:0:0:
448,192,164721,1,0,0:0:0:0:
64,192,164830,1,0,0:0:0:0:
192,192,164830,1,2,0:0:0:0:
320,192,164830,1,0,0:0:0:0:
64,192,164939,1,0,0:0:0:0:
192,192,165047,1,2,0:0:0:0:
320,192,165047,1,0,0:0:0:0:
448,192,165047,1,0,0:0:0:0:
320,192,165156,1,0,0:0:0:0:
64,192,165265,1,0,0:0:0:0:
192,192,165265,1,0,0:0:0:0:
448,192,165265,1,0,0:0:0:0:
320,192,165374,1,0,0:0:0:0:
64,192,165482,1,0,0:0:0:0:
448,192,165482,1,0,0:0:0:0:
192,192,165591,1,0,0:0:0:0:
64,192,165700,1,0,0:0:0:0:
320,192,165700,1,2,0:0:0:0:
448,192,165700,1,0,0:0:0:0:
64,192,165917,1,0,0:0:0:0:
192,192,165917,1,0,0:0:0:0:
448,192,165917,1,0,0:0:0:0:
320,192,166134,1,0,0:0:0:0:
64,192,166134,1,0,0:0:0:0:
192,192,166352,1,0,0:0:0:0:
448,192,166352,1,2,0:0:0:0:
192,192,166460,1,0,0:0:0:0:
64,192,166569,1,0,0:0:0:0:
320,192,166569,1,0,0:0:0:0:
192,192,166787,1,0,0:0:0:0:
448,192,166787,1,0,0:0:0:0:
320,192,166895,1,0,0:0:0:0:
64,192,167004,1,2,0:0:0:0:
448,192,167004,1,0,0:0:0:0:
320,192,167113,1,0,0:0:0:0:
448,192,167221,1,0,0:0:0:0:
320,192,167439,1,0,0:0:0:0:
192,192,167439,1,0,0:0:0:0:
64,192,167547,1,0,0:0:0:0:
320,192,167547,1,0,0:0:0:0:
64,192,167656,1,2,0:0:0:0:
448,192,167656,1,0,0:0:0:0:
192,192,167874,1,0,0:0:0:0:
320,192,167874,1,0,0:0:0:0:
64,192,168091,1,0,0:0:0:0:
192,192,168091,1,0,0:0:0:0:
320,192,168200,1,0,0:0:0:0:
64,192,168308,1,0,0:0:0:0:
192,192,168308,1,0,0:0:0:0:
448,192,168308,1,2,0:0:0:0:
320,192,168417,1,0,0:0:0:0:
64,192,168526,1,0,0:0:0:0:
192,192,168526,1,0,0:0:0:0:
448,192,168634,1,0,0:0:0:0:
64,192,168743,1,0,0:0:0:0:
192,192,168743,1,0,0:0:0:0:
448,192,168852,1,0,0:0:0:0:
192,192,168960,1,0,0:0:0:0:
320,192,168960,1,2,0:0:0:0:
64,192,169069,1,0,0:0:0:0:
192,192,169178,1,0,0:0:0:0:
448,192,169178,1,0,0:0:0:0:
320,192,169287,1,0,0:0:0:0:
192,192,169395,1,0,0:0:0:0:
448,192,169395,1,0,0:0:0:0:
320,192,169504,1,0,0:0:0:0:
192,192,169613,1,2,0:0:0:0:
320,192,169640,1,0,0:0:0:0:
64,192,169830,1,2,0:0:0:0:
192,192,169830,1,0,0:0:0:0:
320,192,169857,1,0,0:0:0:0:
64,192,170047,1,2,0:0:0:0:
192,192,170047,1,0,0:0:0:0:
448,192,170075,1,0,0:0:0:0:
448,192,170265,1,0,0:0:0:0:
64,192,170265,1,2,0:0:0:0:
320,192,170292,1,0,0:0:0:0:
320,192,170482,1,0,0:0:0:0:
448,192,170482,1,2,0:0:0:0:
192,192,170509,1,0,0:0:0:0:
320,192,170700,1,0,0:0:0:0:
448,192,170700,1,2,0:0:0:0:
64,192,170727,1,0,0:0:0:0:
64,192,170917,1,0,0:0:0:0:
192,192,170917,1,0,0:0:0:0:
448,192,170917,1,2,0:0:0:0:
320,192,171026,1,0,0:0:0:0:
64,192,171134,1,0,0:0:0:0:
192,192,171134,1,0,0:0:0:0:
448,192,171243,1,0,0:0:0:0:
64,192,171352,1,0,0:0:0:0:
192,192,171352,1,0,0:0:0:0:
448,192,171460,1,0,0:0:0:0:
192,192,171569,1,0,0:0:0:0:
320,192,171569,1,2,0:0:0:0:
64,192,171678,1,0,0:0:0:0:
192,192,171787,1,0,0:0:0:0:
448,192,171787,1,0,0:0:0:0:
320,192,171895,1,0,0:0:0:0:
192,192,172004,1,0,0:0:0:0:
448,192,172004,1,0,0:0:0:0:
320,192,172113,1,0,0:0:0:0:
192,192,172221,1,2,0:0:0:0:
320,192,172249,1,0,0:0:0:0:
64,192,172439,1,2,0:0:0:0:
192,192,172439,1,0,0:0:0:0:
320,192,172466,1,0,0:0:0:0:
64,192,172656,1,2,0:0:0:0:
192,192,172656,1,0,0:0:0:0:
448,192,172683,1,0,0:0:0:0:
448,192,172874,1,0,0:0:0:0:
64,192,172874,1,2,0:0:0:0:
320,192,172901,1,0,0:0:0:0:
320,192,173091,1,0,0:0:0:0:
448,192,173091,1,2,0:0:0:0:
192,192,173118,1,0,0:0:0:0:
320,192,173308,1,0,0:0:0:0:
448,192,173308,1,2,0:0:0:0:
64,192,173335,1,0,0:0:0:0:
64,192,173526,1,0,0:0:0:0:
192,192,173526,1,0,0:0:0:0:
448,192,173526,1,2,0:0:0:0:
320,192,173634,1,0,0:0:0:0:
64,192,173743,1,0,0:0:0:0:
192,192,173743,1,2,0:0:0:0:
448,192,173743,1,0,0:0:0:0:
192,192,173852,1,0,0:0:0:0:
448,192,173960,1,0,0:0:0:0:
64,192,173960,1,0,0:0:0:0:
320,192,173960,1,2,0:0:0:0:
448,192,174069,1,0,0:0:0:0:
64,192,174178,1,0,0:0:0:0:
192,192,174178,1,0,0:0:0:0:
320,192,174287,1,0,0:0:0:0:
448,192,174395,1,0,0:0:0:0:
192,192,174395,1,2,0:0:0:0:
64,192,174395,1,0,0:0:0:0:
192,192,174504,1,0,0:0:0:0:
64,192,174613,1,0,0:0:0:0:
320,192,174613,1,2,0:0:0:0:
448,192,174613,1,0,0:0:0:0:
320,192,174721,1,0,0:0:0:0:
64,192,174830,1,0,0:0:0:0:
192,192,174830,1,0,0:0:0:0:
448,192,174830,1,0,0:0:0:0:
192,192,175047,1,2,0:0:0:0:
320,192,175047,1,0,0:0:0:0:
448,192,175047,1,0,0:0:0:0:
448,192,175156,1,0,0:0:0:0:
192,192,175265,1,2,0:0:0:0:
64,192,175265,1,0,0:0:0:0:
320,192,175265,1,0,0:0:0:0:
64,192,175374,1,0,0:0:0:0:
192,192,175482,1,2,0:0:0:0:
320,192,175482,1,0,0:0:0:0:
448,192,175482,1,0,0:0:0:0:
320,192,175591,1,0,0:0:0:0:
64,192,175700,1,0,0:0:0:0:
192,192,175700,1,0,0:0:0:0:
448,192,175700,1,0,0:0:0:0:
320,192,175808,1,0,0:0:0:0:
64,192,175917,1,0,0:0:0:0:
448,192,175917,1,0,0:0:0:0:
192,192,176026,1,0,0:0:0:0:
64,192,176134,1,2,0:0:0:0:
320,192,176134,1,0,0:0:0:0:
448,192,176134,1,0,0:0:0:0:
192,192,176352,1,0,0:0:0:0:
64,192,176352,1,0,0:0:0:0:
320,192,176569,1,0,0:0:0:0:
192,192,176569,1,0,0:0:0:0:
320,192,176837,1,0,0:0:0:0:
448,192,176837,1,2,0:0:0:0:
192,192,176964,1,0,0:0:0:0:
64,192,177091,1,0,0:0:0:0:
448,192,177091,1,0,0:0:0:0:
192,192,177345,1,0,0:0:0:0:
64,192,177345,1,0,0:0:0:0:
320,192,177472,1,0,0:0:0:0:
64,192,177599,1,0,0:0:0:0:
448,192,177599,1,2,0:0:0:0:
64,192,177862,1,0,0:0:0:0:
192,192,178289,1,0,0:0:0:0:
448,192,178289,1,2,0:0:0:0:
448,192,178717,1,0,0:0:0:0:
320,192,178717,1,0,0:0:0:0:
64,192,178932,1,2,0:0:0:0:
448,192,178932,1,0,0:0:0:0:
192,192,178932,1,0,0:0:0:0:
320,192,179149,1,0,0:0:0:0:
448,192,179366,1,0,0:0:0:0:
64,192,179366,1,2,0:0:0:0:
192,192,179584,1,0,0:0:0:0:
448,192,179801,1,0,0:0:0:0:
64,192,180018,1,2,0:0:0:0:
320,192,180018,1,0,0:0:0:0:
192,192,180236,1,0,0:0:0:0:
448,192,180236,1,0,0:0:0:0:
192,192,180453,1,0,0:0:0:0:
320,192,180453,1,0,0:0:0:0:
64,192,180671,1,2,0:0:0:0:
192,192,180671,1,0,0:0:0:0:
448,192,180671,1,0,0:0:0:0:
64,192,180888,1,0,0:0:0:0:
320,192,180888,1,0,0:0:0:0:
192,192,181105,1,0,0:0:0:0:
64,192,181323,1,2,0:0:0:0:
320,192,181323,1,0,0:0:0:0:
192,192,181540,1,0,0:0:0:0:
448,192,181540,1,0,0:0:0:0:
320,192,181758,1,0,0:0:0:0:
64,192,181975,1,2,0:0:0:0:
192,192,181975,1,0,0:0:0:0:
448,192,182192,1,0,0:0:0:0:
64,192,182410,1,0,0:0:0:0:
192,192,182410,1,0,0:0:0:0:
192,192,182627,1,2,0:0:0:0:
320,192,182627,1,0,0:0:0:0:
320,192,182845,1,0,0:0:0:0:
448,192,182845,1,0,0:0:0:0:
192,192,183062,1,0,0:0:0:0:
448,192,183062,1,0,0:0:0:0:
64,192,183279,1,0,0:0:0:0:
448,192,183279,1,2,0:0:0:0:
64,192,183497,1,0,0:0:0:0:
320,192,183497,1,0,0:0:0:0:
64,192,183714,1,0,0:0:0:0:
192,192,183714,1,0,0:0:0:0:
192,192,183932,1,0,0:0:0:0:
320,192,183932,1,2,0:0:0:0:
64,192,184149,1,0,0:0:0:0:
448,192,184149,1,0,0:0:0:0:
192,192,184366,1,0,0:0:0:0:
448,192,184584,1,2,0:0:0:0:
320,192,184584,1,0,0:0:0:0:
64,192,184801,1,0,0:0:0:0:
192,192,185018,1,0,0:0:0:0:
64,192,185236,1,0,0:0:0:0:
320,192,185236,1,2,0:0:0:0:
192,192,185453,1,0,0:0:0:0:
448,192,185453,1,0,0:0:0:0:
320,192,185671,1,0,0:0:0:0:
448,192,185671,1,0,0:0:0:0:
192,192,185888,1,0,0:0:0:0:
448,192,185888,1,2,0:0:0:0:
64,192,186105,1,0,0:0:0:0:
448,192,186105,1,0,0:0:0:0:
192,192,186323,1,0,0:0:0:0:
64,192,186540,1,0,0:0:0:0:
320,192,186540,1,2,0:0:0:0:
64,192,186758,1,0,0:0:0:0:
448,192,186758,1,0,0:0:0:0:
192,192,186975,1,0,0:0:0:0:
320,192,187192,1,0,0:0:0:0:
448,192,187192,1,2,0:0:0:0:
64,192,187410,1,0,0:0:0:0:
320,192,187627,1,0,0:0:0:0:
448,192,187627,1,0,0:0:0:0:
192,192,187845,1,2,0:0:0:0:
64,192,187845,1,0,0:0:0:0:
192,192,188062,1,0,0:0:0:0:
320,192,188062,1,0,0:0:0:0:
320,192,188279,1,0,0:0:0:0:
448,192,188279,1,0,0:0:0:0:
192,192,188497,1,2,0:0:0:0:
320,192,188497,1,0,0:0:0:0:
64,192,188714,1,0,0:0:0:0:
192,192,188714,1,0,0:0:0:0:
192,192,188932,1,0,0:0:0:0:
320,192,188932,1,0,0:0:0:0:
320,192,189149,1,0,0:0:0:0:
448,192,189149,1,0,0:0:0:0:
192,192,189258,1,0,0:0:0:0:
64,192,189366,1,0,0:0:0:0:
448,192,189366,1,2,0:0:0:0:
192,192,189584,1,0,0:0:0:0:
320,192,189584,1,0,0:0:0:0:
448,192,189801,1,0,0:0:0:0:
320,192,189910,1,0,0:0:0:0:
448,192,190018,1,2,0:0:0:0:
64,192,190018,1,0,0:0:0:0:
64,192,190236,1,0,0:0:0:0:
192,192,190236,1,0,0:0:0:0:
320,192,190453,1,0,0:0:0:0:
192,192,190562,1,0,0:0:0:0:
448,192,190671,1,2,0:0:0:0:
64,192,190671,1,0,0:0:0:0:
192,192,190888,1,0,0:0:0:0:
320,192,190888,1,0,0:0:0:0:
448,192,191105,1,0,0:0:0:0:
320,192,191214,1,0,0:0:0:0:
448,192,191323,1,2,0:0:0:0:
192,192,191323,1,0,0:0:0:0:
320,192,191540,1,0,0:0:0:0:
64,192,191540,1,0,0:0:0:0:
192,192,191758,1,0,0:0:0:0:
64,192,191758,1,0,0:0:0:0:
320,192,191866,1,0,0:0:0:0:
448,192,191975,1,2,0:0:0:0:
64,192,191975,1,0,0:0:0:0:
192,192,192192,1,0,0:0:0:0:
320,192,192192,1,0,0:0:0:0:
64,192,192410,1,0,0:0:0:0:
192,192,192518,1,0,0:0:0:0:
448,192,192627,1,2,0:0:0:0:
64,192,192627,1,0,0:0:0:0:
320,192,192845,1,0,0:0:0:0:
448,192,192845,1,0,0:0:0:0:
192,192,193062,1,0,0:0:0:0:
320,192,193171,1,0,0:0:0:0:
448,192,193279,1,2,0:0:0:0:
64,192,193279,1,0,0:0:0:0:
192,192,193388,1,0,0:0:0:0:
320,192,193497,1,0,0:0:0:0:
448,192,193497,1,0,0:0:0:0:
64,192,193605,1,0,0:0:0:0:
192,192,193714,1,0,0:0:0:0:
320,192,193823,1,0,0:0:0:0:
448,192,193823,1,0,0:0:0:0:
64,192,193932,1,0,0:0:0:0:
192,192,193932,1,2,0:0:0:0:
448,192,193932,1,0,0:0:0:0:
64,192,194040,1,0,0:0:0:0:
192,192,194149,1,2,0:0:0:0:
320,192,194149,1,0,0:0:0:0:
448,192,194149,1,0,0:0:0:0:
448,192,194258,1,0,0:0:0:0:
64,192,194366,1,0,0:0:0:0:
192,192,194366,1,2,0:0:0:0:
320,192,194366,1,0,0:0:0:0:
192,192,194475,1,0,0:0:0:0:
64,192,194584,1,0,0:0:0:0:
320,192,194584,1,2,0:0:0:0:
448,192,194584,1,0,0:0:0:0:
320,192,194692,1,0,0:0:0:0:
64,192,194801,1,0,0:0:0:0:
192,192,194801,1,2,0:0:0:0:
448,192,194801,1,0,0:0:0:0:
64,192,194910,1,0,0:0:0:0:
192,192,195018,1,0,0:0:0:0:
320,192,195018,1,2,0:0:0:0:
448,192,195018,1,0,0:0:0:0:
448,192,195127,1,0,0:0:0:0:
64,192,195236,1,0,0:0:0:0:
192,192,195236,1,2,0:0:0:0:
320,192,195236,1,0,0:0:0:0:
320,192,195345,1,0,0:0:0:0:
448,192,195345,1,0,0:0:0:0:
64,192,195453,1,0,0:0:0:0:
192,192,195453,1,2,0:0:0:0:
448,192,195453,1,0,0:0:0:0:
192,192,195562,1,0,0:0:0:0:
320,192,195562,1,0,0:0:0:0:
64,192,195671,1,0,0:0:0:0:
448,192,195671,1,0,0:0:0:0:
320,192,195671,1,2,0:0:0:0:
192,192,195779,1,0,0:0:0:0:
448,192,195779,1,0,0:0:0:0:
64,192,195888,1,0,0:0:0:0:
192,192,195888,1,0,0:0:0:0:
448,192,195997,1,0,0:0:0:0:
320,192,196105,1,0,0:0:0:0:
448,192,196214,1,0,0:0:0:0:
192,192,196323,1,0,0:0:0:0:
448,192,196432,1,0,0:0:0:0:
64,192,196540,1,0,0:0:0:0:
320,192,196540,1,2,0:0:0:0:
448,192,196649,1,0,0:0:0:0:
192,192,196758,1,0,0:0:0:0:
448,192,196866,1,0,0:0:0:0:
64,192,196975,1,0,0:0:0:0:
448,192,197084,1,0,0:0:0:0:
192,192,197192,1,0,0:0:0:0:
320,192,197192,1,2,0:0:0:0:
448,192,197301,1,0,0:0:0:0:
64,192,197410,1,0,0:0:0:0:
448,192,197518,1,0,0:0:0:0:
192,192,197627,1,0,0:0:0:0:
448,192,197736,1,0,0:0:0:0:
64,192,197845,1,2,0:0:0:0:
320,192,197845,1,0,0:0:0:0:
448,192,197953,1,0,0:0:0:0:
192,192,198062,1,0,0:0:0:0:
448,192,198171,1,0,0:0:0:0:
320,192,198279,1,0,0:0:0:0:
64,192,198279,1,0,0:0:0:0:
448,192,198388,1,0,0:0:0:0:
192,192,198497,1,0,0:0:0:0:
64,192,198497,1,0,0:0:0:0:
320,192,198497,1,2,0:0:0:0:
192,192,198714,1,0,0:0:0:0:
448,192,198823,1,0,0:0:0:0:
320,192,198932,1,0,0:0:0:0:
448,192,199040,1,0,0:0:0:0:
64,192,199149,1,2,0:0:0:0:
192,192,199149,1,0,0:0:0:0:
448,192,199258,1,0,0:0:0:0:
320,192,199366,1,0,0:0:0:0:
448,192,199475,1,0,0:0:0:0:
192,192,199584,1,0,0:0:0:0:
448,192,199692,1,0,0:0:0:0:
64,192,199801,1,2,0:0:0:0:
320,192,199801,1,0,0:0:0:0:
448,192,199910,1,0,0:0:0:0:
192,192,200018,1,0,0:0:0:0:
448,192,200127,1,0,0:0:0:0:
64,192,200236,1,0,0:0:0:0:
448,192,200345,1,0,0:0:0:0:
320,192,200453,1,2,0:0:0:0:
192,192,200453,1,0,0:0:0:0:
448,192,200562,1,0,0:0:0:0:
64,192,200671,1,0,0:0:0:0:
448,192,200779,1,0,0:0:0:0:
192,192,200888,1,0,0:0:0:0:
320,192,200888,1,2,0:0:0:0:
448,192,200997,1,0,0:0:0:0:
64,192,201105,1,0,0:0:0:0:
192,192,201105,1,0,0:0:0:0:
320,192,201105,1,2,0:0:0:0:
64,192,201323,1,0,0:0:0:0:
448,192,201432,1,0,0:0:0:0:
192,192,201540,1,0,0:0:0:0:
448,192,201649,1,0,0:0:0:0:
320,192,201758,1,2,0:0:0:0:
64,192,201758,1,0,0:0:0:0:
448,192,201866,1,0,0:0:0:0:
192,192,201975,1,0,0:0:0:0:
448,192,202084,1,0,0:0:0:0:
320,192,202192,1,0,0:0:0:0:
448,192,202301,1,0,0:0:0:0:
192,192,202410,1,0,0:0:0:0:
64,192,202410,1,2,0:0:0:0:
448,192,202518,1,0,0:0:0:0:
320,192,202627,1,0,0:0:0:0:
448,192,202736,1,0,0:0:0:0:
192,192,202845,1,0,0:0:0:0:
448,192,202953,1,0,0:0:0:0:
64,192,203062,1,2,0:0:0:0:
320,192,203062,1,0,0:0:0:0:
448,192,203171,1,0,0:0:0:0:
192,192,203279,1,0,0:0:0:0:
448,192,203388,1,0,0:0:0:0:
64,192,203497,1,0,0:0:0:0:
320,192,203497,1,2,0:0:0:0:
448,192,203605,1,0,0:0:0:0:
64,192,203714,1,0,0:0:0:0:
192,192,203714,1,0,0:0:0:0:
320,192,203714,1,2,0:0:0:0:
192,192,203932,1,0,0:0:0:0:
448,192,204040,1,0,0:0:0:0:
64,192,204149,1,0,0:0:0:0:
448,192,204258,1,0,0:0:0:0:
320,192,204366,1,2,0:0:0:0:
192,192,204366,1,0,0:0:0:0:
448,192,204475,1,0,0:0:0:0:
64,192,204584,1,0,0:0:0:0:
448,192,204692,1,0,0:0:0:0:
192,192,204801,1,0,0:0:0:0:
448,192,204910,1,0,0:0:0:0:
64,192,205018,1,0,0:0:0:0:
320,192,205018,1,2,0:0:0:0:
448,192,205127,1,0,0:0:0:0:
192,192,205236,1,0,0:0:0:0:
448,192,205345,1,0,0:0:0:0:
64,192,205453,1,0,0:0:0:0:
192,192,205562,1,0,0:0:0:0:
448,192,205671,1,2,0:0:0:0:
64,192,205671,1,0,0:0:0:0:
320,192,205779,1,0,0:0:0:0:
192,192,205888,1,0,0:0:0:0:
320,192,205997,1,0,0:0:0:0:
448,192,205997,1,2,0:0:0:0:
192,192,206105,1,0,0:0:0:0:
64,192,206214,1,0,0:0:0:0:
192,192,206323,1,4,0:0:0:0:
320,192,206323,1,4,0:0:0:0:
448,192,206323,1,2,0:0:0:0:
192,192,206975,1,4,0:0:0:0:
64,192,206975,1,0,0:0:0:0:
320,192,207047,1,0,0:0:0:0:
448,192,207120,1,0,0:0:0:0:
64,192,207192,1,0,0:0:0:0:
192,192,207265,1,0,0:0:0:0:
320,192,207301,1,4,0:0:0:0:
448,192,207337,1,0,0:0:0:0:
192,192,207410,1,0,0:0:0:0:
320,192,207482,1,0,0:0:0:0:
64,192,207555,1,0,0:0:0:0:
192,192,207627,1,0,0:0:0:0:
320,192,207682,1,0,0:0:0:0:
448,192,207736,1,0,0:0:0:0:
320,192,207790,1,0,0:0:0:0:
192,192,207845,1,0,0:0:0:0:
448,192,207917,1,0,0:0:0:0:
320,192,207989,1,0,0:0:0:0:
64,192,208062,1,0,0:0:0:0:
448,192,208134,1,0,0:0:0:0:
192,192,208207,1,0,0:0:0:0:
64,192,208279,1,0,0:0:0:0:
320,192,208352,1,0,0:0:0:0:
192,192,208424,1,0,0:0:0:0:
64,192,208497,1,0,0:0:0:0:
448,192,208497,1,4,0:0:0:0:
320,192,208605,1,0,0:0:0:0:
192,192,208714,1,0,0:0:0:0:
64,192,208823,1,0,0:0:0:0:
448,192,208932,1,4,0:0:0:0:
320,192,208932,1,4,0:0:0:0:
192,192,208932,1,0,0:0:0:0:
64,192,209584,1,0,0:0:0:0:
448,192,209584,1,4,0:0:0:0:
192,192,209656,1,0,0:0:0:0:
448,192,209729,1,0,0:0:0:0:
64,192,209801,1,0,0:0:0:0:
320,192,209874,1,0,0:0:0:0:
448,192,209946,1,0,0:0:0:0:
192,192,210018,1,0,0:0:0:0:
320,192,210091,1,0,0:0:0:0:
448,192,210127,1,4,0:0:0:0:
64,192,210182,1,0,0:0:0:0:
192,192,210236,1,0,0:0:0:0:
320,192,210290,1,0,0:0:0:0:
448,192,210345,1,0,0:0:0:0:
320,192,210399,1,0,0:0:0:0:
192,192,210453,1,0,0:0:0:0:
448,192,210526,1,0,0:0:0:0:
320,192,210598,1,0,0:0:0:0:
64,192,210671,1,0,0:0:0:0:
448,192,210743,1,0,0:0:0:0:
320,192,210779,1,4,0:0:0:0:
192,192,210816,1,0,0:0:0:0:
64,192,210888,1,0,0:0:0:0:
320,192,210960,1,0,0:0:0:0:
192,192,211033,1,0,0:0:0:0:
64,192,211105,1,0,0:0:0:0:
320,192,211214,1,0,0:0:0:0:
192,192,211323,1,0,0:0:0:0:
64,192,211432,1,0,0:0:0:0:
192,192,211540,1,0,0:0:0:0:
448,192,211540,1,4,0:0:0:0:
320,192,211540,1,4,0:0:0:0:
64,192,212192,1,0,0:0:0:0:
192,192,212192,1,4,0:0:0:0:
320,192,212265,1,0,0:0:0:0:
448,192,212337,1,0,0:0:0:0:
64,192,212410,1,0,0:0:0:0:
192,192,212482,1,0,0:0:0:0:
320,192,212518,1,4,0:0:0:0:
448,192,212555,1,0,0:0:0:0:
192,192,212627,1,0,0:0:0:0:
320,192,212700,1,0,0:0:0:0:
64,192,212772,1,0,0:0:0:0:
192,192,212845,1,0,0:0:0:0:
320,192,212899,1,0,0:0:0:0:
448,192,212953,1,0,0:0:0:0:
320,192,213008,1,0,0:0:0:0:
192,192,213062,1,0,0:0:0:0:
448,192,213134,1,0,0:0:0:0:
320,192,213207,1,0,0:0:0:0:
64,192,213279,1,0,0:0:0:0:
448,192,213352,1,0,0:0:0:0:
192,192,213424,1,0,0:0:0:0:
64,192,213497,1,0,0:0:0:0:
320,192,213569,1,0,0:0:0:0:
192,192,213642,1,0,0:0:0:0:
64,192,213714,1,0,0:0:0:0:
448,192,213714,1,4,0:0:0:0:
320,192,213823,1,0,0:0:0:0:
192,192,213932,1,0,0:0:0:0:
64,192,214040,1,0,0:0:0:0:
320,192,214149,1,0,0:0:0:0:
448,192,214330,1,0,0:0:0:0:
64,192,214475,1,0,0:0:0:0:
192,192,214547,1,0,0:0:0:0:
448,192,214620,1,0,0:0:0:0:
64,192,214692,1,0,0:0:0:0:
320,192,214765,1,0,0:0:0:0:
448,192,214837,1,0,0:0:0:0:
192,192,214910,1,0,0:0:0:0:
64,192,214910,1,0,0:0:0:0:
320,192,214982,1,0,0:0:0:0:
64,192,215055,1,0,0:0:0:0:
192,192,215127,1,0,0:0:0:0:
448,192,215182,1,0,0:0:0:0:
64,192,215236,1,0,0:0:0:0:
320,192,215290,1,0,0:0:0:0:
448,192,215345,1,0,0:0:0:0:
192,192,215399,1,0,0:0:0:0:
320,192,215489,1,0,0:0:0:0:
448,192,215562,1,0,0:0:0:0:
320,192,215634,1,0,0:0:0:0:
192,192,215707,1,0,0:0:0:0:
64,192,215779,1,0,0:0:0:0:
320,192,215852,1,0,0:0:0:0:
192,192,215924,1,0,0:0:0:0:
448,192,215997,1,0,0:0:0:0:
320,192,216105,1,0,0:0:0:0:
192,192,216214,1,0,0:0:0:0:
64,192,216323,1,0,0:0:0:0:
448,192,216323,1,0,0:0:0:0:
192,192,216432,1,0,0:0:0:0:
320,192,216540,1,0,0:0:0:0:
448,192,216703,1,0,0:0:0:0:
320,192,216866,1,0,0:0:0:0:
64,192,216975,1,0,0:0:0:0:
448,192,216975,1,0,0:0:0:0:
192,192,216975,1,2,0:0:0:0:
320,192,217083,1,0,0:0:0:0:
64,192,217192,1,0,0:0:0:0:
192,192,217192,1,0,0:0:0:0:
448,192,217301,1,0,0:0:0:0:
64,192,217409,1,0,0:0:0:0:
192,192,217409,1,0,0:0:0:0:
448,192,217518,1,0,0:0:0:0:
320,192,217627,1,2,0:0:0:0:
192,192,217627,1,0,0:0:0:0:
64,192,217735,1,0,0:0:0:0:
192,192,217844,1,0,0:0:0:0:
448,192,217844,1,0,0:0:0:0:
320,192,217953,1,0,0:0:0:0:
192,192,218061,1,0,0:0:0:0:
448,192,218061,1,0,0:0:0:0:
320,192,218170,1,0,0:0:0:0:
192,192,218279,1,2,0:0:0:0:
320,192,218306,1,0,0:0:0:0:
64,192,218496,1,2,0:0:0:0:
192,192,218496,1,0,0:0:0:0:
320,192,218523,1,0,0:0:0:0:
64,192,218714,1,2,0:0:0:0:
192,192,218714,1,0,0:0:0:0:
448,192,218741,1,0,0:0:0:0:
448,192,218931,1,0,0:0:0:0:
64,192,218931,1,2,0:0:0:0:
320,192,218958,1,0,0:0:0:0:
320,192,219148,1,0,0:0:0:0:
448,192,219148,1,2,0:0:0:0:
192,192,219176,1,0,0:0:0:0:
320,192,219366,1,0,0:0:0:0:
448,192,219366,1,2,0:0:0:0:
64,192,219393,1,0,0:0:0:0:
448,192,219583,1,2,0:0:0:0:
192,192,219583,1,0,0:0:0:0:
64,192,219583,1,0,0:0:0:0:
320,192,219692,1,0,0:0:0:0:
192,192,219801,1,0,0:0:0:0:
64,192,219801,1,0,0:0:0:0:
448,192,219909,1,0,0:0:0:0:
192,192,220018,1,0,0:0:0:0:
64,192,220018,1,0,0:0:0:0:
448,192,220127,1,0,0:0:0:0:
192,192,220235,1,0,0:0:0:0:
320,192,220235,1,2,0:0:0:0:
64,192,220344,1,0,0:0:0:0:
192,192,220453,1,0,0:0:0:0:
448,192,220453,1,0,0:0:0:0:
320,192,220561,1,0,0:0:0:0:
192,192,220670,1,0,0:0:0:0:
448,192,220670,1,0,0:0:0:0:
320,192,220779,1,0,0:0:0:0:
192,192,220888,1,2,0:0:0:0:
320,192,220915,1,0,0:0:0:0:
64,192,221105,1,2,0:0:0:0:
192,192,221105,1,0,0:0:0:0:
320,192,221132,1,0,0:0:0:0:
64,192,221322,1,2,0:0:0:0:
192,192,221322,1,0,0:0:0:0:
448,192,221350,1,0,0:0:0:0:
64,192,221540,1,2,0:0:0:0:
448,192,221540,1,0,0:0:0:0:
320,192,221567,1,0,0:0:0:0:
448,192,221757,1,2,0:0:0:0:
320,192,221757,1,0,0:0:0:0:
192,192,221784,1,0,0:0:0:0:
448,192,221975,1,2,0:0:0:0:
320,192,221975,1,0,0:0:0:0:
64,192,222002,1,0,0:0:0:0:
448,192,222192,1,2,0:0:0:0:
64,192,222192,1,0,0:0:0:0:
192,192,222192,1,0,0:0:0:0:
320,192,222301,1,0,0:0:0:0:
64,192,222409,1,0,0:0:0:0:
448,192,222409,1,0,0:0:0:0:
192,192,222409,1,2,0:0:0:0:
192,192,222518,1,0,0:0:0:0:
64,192,222627,1,0,0:0:0:0:
448,192,222627,1,0,0:0:0:0:
320,192,222627,1,2,0:0:0:0:
448,192,222735,1,0,0:0:0:0:
192,192,222844,1,0,0:0:0:0:
64,192,222844,1,0,0:0:0:0:
320,192,222953,1,0,0:0:0:0:
192,192,223061,1,2,0:0:0:0:
448,192,223061,1,0,0:0:0:0:
64,192,223061,1,0,0:0:0:0:
192,192,223170,1,0,0:0:0:0:
448,192,223279,1,0,0:0:0:0:
64,192,223279,1,0,0:0:0:0:
320,192,223279,1,2,0:0:0:0:
320,192,223388,1,0,0:0:0:0:
448,192,223496,1,0,0:0:0:0:
64,192,223496,1,0,0:0:0:0:
192,192,223496,1,0,0:0:0:0:
192,192,223714,1,0,0:0:0:0:
320,192,223714,1,2,0:0:0:0:
448,192,223714,1,0,0:0:0:0:
448,192,223822,1,0,0:0:0:0:
192,192,223931,1,0,0:0:0:0:
64,192,223931,1,0,0:0:0:0:
320,192,223931,1,2,0:0:0:0:
64,192,224040,1,0,0:0:0:0:
448,192,224148,1,0,0:0:0:0:
192,192,224148,1,0,0:0:0:0:
320,192,224148,1,2,0:0:0:0:
320,192,224257,1,0,0:0:0:0:
192,192,224366,1,0,0:0:0:0:
64,192,224366,1,0,0:0:0:0:
448,192,224366,1,0,0:0:0:0:
320,192,224475,1,0,0:0:0:0:
448,192,224583,1,0,0:0:0:0:
64,192,224583,1,0,0:0:0:0:
192,192,224692,1,0,0:0:0:0:
320,192,224801,1,2,0:0:0:0:
448,192,224801,1,0,0:0:0:0:
64,192,224801,1,0,0:0:0:0:
192,192,225018,1,0,0:0:0:0:
448,192,225018,1,0,0:0:0:0:
64,192,225018,1,0,0:0:0:0:
320,192,225235,1,0,0:0:0:0:
64,192,225235,1,0,0:0:0:0:
192,192,225453,1,0,0:0:0:0:
448,192,225453,1,2,0:0:0:0:
192,192,225561,1,0,0:0:0:0:
64,192,225670,1,0,0:0:0:0:
320,192,225670,1,0,0:0:0:0:
448,192,225888,1,0,0:0:0:0:
192,192,225888,1,0,0:0:0:0:
320,192,225996,1,0,0:0:0:0:
448,192,226105,1,2,0:0:0:0:
64,192,226105,1,0,0:0:0:0:
320,192,226214,1,0,0:0:0:0:
448,192,226322,1,0,0:0:0:0:
192,192,226322,1,0,0:0:0:0:
320,192,226540,1,0,0:0:0:0:
192,192,226540,1,0,0:0:0:0:
320,192,226648,1,0,0:0:0:0:
64,192,226648,1,0,0:0:0:0:
448,192,226757,1,0,0:0:0:0:
64,192,226757,1,2,0:0:0:0:
320,192,226975,1,0,0:0:0:0:
192,192,226975,1,0,0:0:0:0:
192,192,227192,1,0,0:0:0:0:
64,192,227192,1,0,0:0:0:0:
320,192,227301,1,0,0:0:0:0:
192,192,227409,1,0,0:0:0:0:
64,192,227409,1,0,0:0:0:0:
448,192,227409,1,2,0:0:0:0:
320,192,227518,1,0,0:0:0:0:
64,192,227627,1,0,0:0:0:0:
192,192,227627,1,0,0:0:0:0:
448,192,227735,1,0,0:0:0:0:
192,192,227844,1,0,0:0:0:0:
64,192,227844,1,0,0:0:0:0:
448,192,227953,1,0,0:0:0:0:
192,192,228061,1,0,0:0:0:0:
320,192,228061,1,2,0:0:0:0:
64,192,228170,1,0,0:0:0:0:
192,192,228279,1,0,0:0:0:0:
448,192,228279,1,0,0:0:0:0:
320,192,228388,1,0,0:0:0:0:
192,192,228496,1,0,0:0:0:0:
448,192,228496,1,0,0:0:0:0:
320,192,228605,1,0,0:0:0:0:
192,192,228714,1,2,0:0:0:0:
320,192,228741,1,0,0:0:0:0:
192,192,228931,1,0,0:0:0:0:
64,192,228931,1,2,0:0:0:0:
320,192,228958,1,0,0:0:0:0:
64,192,229148,1,2,0:0:0:0:
192,192,229148,1,0,0:0:0:0:
448,192,229176,1,0,0:0:0:0:
64,192,229366,1,2,0:0:0:0:
448,192,229366,1,0,0:0:0:0:
320,192,229393,1,0,0:0:0:0:
448,192,229583,1,2,0:0:0:0:
320,192,229583,1,0,0:0:0:0:
192,192,229610,1,0,0:0:0:0:
448,192,229801,1,2,0:0:0:0:
320,192,229801,1,0,0:0:0:0:
64,192,229828,1,0,0:0:0:0:
192,192,230018,1,0,0:0:0:0:
64,192,230018,1,0,0:0:0:0:
448,192,230018,1,2,0:0:0:0:
320,192,230127,1,0,0:0:0:0:
64,192,230235,1,0,0:0:0:0:
192,192,230235,1,0,0:0:0:0:
448,192,230344,1,0,0:0:0:0:
64,192,230453,1,0,0:0:0:0:
192,192,230453,1,0,0:0:0:0:
448,192,230561,1,0,0:0:0:0:
320,192,230670,1,2,0:0:0:0:
192,192,230670,1,0,0:0:0:0:
64,192,230779,1,0,0:0:0:0:
192,192,230888,1,0,0:0:0:0:
448,192,230888,1,0,0:0:0:0:
320,192,230996,1,0,0:0:0:0:
192,192,231105,1,0,0:0:0:0:
448,192,231105,1,0,0:0:0:0:
320,192,231214,1,0,0:0:0:0:
192,192,231322,1,2,0:0:0:0:
320,192,231350,1,0,0:0:0:0:
64,192,231540,1,2,0:0:0:0:
192,192,231540,1,0,0:0:0:0:
320,192,231567,1,0,0:0:0:0:
64,192,231757,1,2,0:0:0:0:
192,192,231757,1,0,0:0:0:0:
448,192,231784,1,0,0:0:0:0:
64,192,231975,1,2,0:0:0:0:
448,192,231975,1,0,0:0:0:0:
320,192,232002,1,0,0:0:0:0:
448,192,232192,1,2,0:0:0:0:
320,192,232192,1,0,0:0:0:0:
192,192,232219,1,0,0:0:0:0:
448,192,232409,1,2,0:0:0:0:
320,192,232409,1,0,0:0:0:0:
64,192,232436,1,0,0:0:0:0:
192,192,232627,1,0,0:0:0:0:
64,192,232627,1,0,0:0:0:0:
448,192,232627,1,2,0:0:0:0:
320,192,232735,1,0,0:0:0:0:
192,192,232844,1,2,0:0:0:0:
64,192,232844,1,0,0:0:0:0:
448,192,232844,1,0,0:0:0:0:
192,192,232953,1,0,0:0:0:0:
448,192,233061,1,0,0:0:0:0:
320,192,233061,1,2,0:0:0:0:
64,192,233061,1,0,0:0:0:0:
448,192,233170,1,0,0:0:0:0:
192,192,233279,1,0,0:0:0:0:
64,192,233279,1,0,0:0:0:0:
320,192,233388,1,0,0:0:0:0:
192,192,233496,1,2,0:0:0:0:
64,192,233496,1,0,0:0:0:0:
448,192,233496,1,0,0:0:0:0:
192,192,233605,1,0,0:0:0:0:
448,192,233714,1,0,0:0:0:0:
320,192,233714,1,2,0:0:0:0:
64,192,233714,1,0,0:0:0:0:
320,192,233822,1,0,0:0:0:0:
192,192,233931,1,0,0:0:0:0:
64,192,233931,1,0,0:0:0:0:
448,192,233931,1,0,0:0:0:0:
320,192,234148,1,0,0:0:0:0:
192,192,234148,1,2,0:0:0:0:
448,192,234148,1,0,0:0:0:0:
448,192,234257,1,0,0:0:0:0:
320,192,234366,1,0,0:0:0:0:
192,192,234366,1,2,0:0:0:0:
64,192,234366,1,0,0:0:0:0:
64,192,234475,1,0,0:0:0:0:
448,192,234583,1,0,0:0:0:0:
192,192,234583,1,2,0:0:0:0:
320,192,234583,1,0,0:0:0:0:
320,192,234692,1,0,0:0:0:0:
448,192,234801,1,0,0:0:0:0:
192,192,234801,1,0,0:0:0:0:
64,192,234801,1,0,0:0:0:0:
320,192,234909,1,0,0:0:0:0:
448,192,235018,1,0,0:0:0:0:
64,192,235018,1,0,0:0:0:0:
192,192,235127,1,0,0:0:0:0:
64,192,235235,1,0,0:0:0:0:
448,192,235235,1,0,0:0:0:0:
320,192,235235,1,2,0:0:0:0:
192,192,235453,1,0,0:0:0:0:
64,192,235453,1,0,0:0:0:0:
320,192,235670,1,0,0:0:0:0:
192,192,235670,1,0,0:0:0:0:
320,192,235888,1,0,0:0:0:0:
448,192,235888,1,2,0:0:0:0:
192,192,235996,1,0,0:0:0:0:
64,192,236105,1,0,0:0:0:0:
448,192,236105,1,0,0:0:0:0:
64,192,236322,1,0,0:0:0:0:
192,192,236322,1,0,0:0:0:0:
320,192,236431,1,0,0:0:0:0:
64,192,236540,1,2,0:0:0:0:
448,192,236540,1,0,0:0:0:0:
192,192,236757,1,0,0:0:0:0:
320,192,236757,1,0,0:0:0:0:
448,192,236975,1,0,0:0:0:0:
64,192,237192,1,2,0:0:0:0:
192,192,237192,1,0,0:0:0:0:
320,192,237409,1,0,0:0:0:0:
64,192,237518,1,0,0:0:0:0:
448,192,237627,1,0,0:0:0:0:
64,192,237844,1,2,0:0:0:0:
192,192,237844,1,0,0:0:0:0:
320,192,237953,1,0,0:0:0:0:
448,192,237953,1,0,0:0:0:0:
64,192,238061,1,0,0:0:0:0:
192,192,238061,1,0,0:0:0:0:
448,192,238061,1,0,0:0:0:0:
320,192,238170,1,0,0:0:0:0:
448,192,238279,1,0,0:0:0:0:
192,192,238279,1,0,0:0:0:0:
320,192,238388,1,0,0:0:0:0:
64,192,238388,1,0,0:0:0:0:
64,192,238496,1,0,0:0:0:0:
448,192,238496,1,0,0:0:0:0:
192,192,238496,1,2,0:0:0:0:
320,192,238605,1,0,0:0:0:0:
192,192,238605,1,0,0:0:0:0:
320,192,238714,1,0,0:0:0:0:
64,192,238714,1,0,0:0:0:0:
448,192,238822,1,0,0:0:0:0:
192,192,238822,1,0,0:0:0:0:
448,192,238931,1,0,0:0:0:0:
64,192,238931,1,0,0:0:0:0:
320,192,239040,1,0,0:0:0:0:
192,192,239040,1,0,0:0:0:0:
448,192,239148,1,0,0:0:0:0:
64,192,239148,1,0,0:0:0:0:
192,192,239148,1,2,0:0:0:0:
320,192,239366,1,0,0:0:0:0:
64,192,239366,1,0,0:0:0:0:
448,192,239475,1,0,0:0:0:0:
192,192,239475,1,0,0:0:0:0:
320,192,239583,1,0,0:0:0:0:
64,192,239583,1,0,0:0:0:0:
448,192,239692,1,0,0:0:0:0:
192,192,239692,1,0,0:0:0:0:
320,192,239801,1,0,0:0:0:0:
64,192,239801,1,0,0:0:0:0:
448,192,239909,1,0,0:0:0:0:
192,192,239909,1,0,0:0:0:0:
320,192,240018,1,0,0:0:0:0:
64,192,240018,1,0,0:0:0:0:
448,192,240127,1,0,0:0:0:0:
192,192,240127,1,0,0:0:0:0:
320,192,240235,1,0,0:0:0:0:
64,192,240235,1,0,0:0:0:0:
448,192,240344,1,0,0:0:0:0:
192,192,240344,1,0,0:0:0:0:
320,192,240453,1,2,0:0:0:0:
192,192,240561,1,0,0:0:0:0:
448,192,240670,1,0,0:0:0:0:
64,192,240670,1,0,0:0:0:0:
320,192,240670,1,0,0:0:0:0:
192,192,240779,1,0,0:0:0:0:
448,192,240888,1,0,0:0:0:0:
320,192,240996,1,0,0:0:0:0:
448,192,241105,1,0,0:0:0:0:
64,192,241105,1,2,0:0:0:0:
192,192,241214,1,0,0:0:0:0:
320,192,241322,1,0,0:0:0:0:
64,192,241322,1,0,0:0:0:0:
192,192,241431,1,0,0:0:0:0:
448,192,241540,1,0,0:0:0:0:
64,192,241540,1,0,0:0:0:0:
192,192,241648,1,0,0:0:0:0:
320,192,241757,1,2,0:0:0:0:
64,192,241757,1,0,0:0:0:0:
448,192,241757,1,0,0:0:0:0:
192,192,241975,1,0,0:0:0:0:
64,192,241975,1,0,0:0:0:0:
320,192,242083,1,0,0:0:0:0:
192,192,242083,1,0,0:0:0:0:
448,192,242192,1,0,0:0:0:0:
320,192,242192,1,0,0:0:0:0:
64,192,242301,1,0,0:0:0:0:
192,192,242301,1,0,0:0:0:0:
320,192,242409,1,0,0:0:0:0:
64,192,242409,1,0,0:0:0:0:
192,192,242518,1,0,0:0:0:0:
320,192,242518,1,0,0:0:0:0:
448,192,242627,1,0,0:0:0:0:
192,192,242627,1,0,0:0:0:0:
448,192,242735,1,0,0:0:0:0:
320,192,242735,1,0,0:0:0:0:
192,192,242844,1,0,0:0:0:0:
64,192,242844,1,0,0:0:0:0:
320,192,242953,1,0,0:0:0:0:
64,192,242953,1,0,0:0:0:0:
448,192,243061,1,0,0:0:0:0:
192,192,243061,1,2,0:0:0:0:
320,192,243170,1,0,0:0:0:0:
192,192,243170,1,0,0:0:0:0:
320,192,243279,1,4,0:0:0:0:
448,192,243279,1,0,0:0:0:0:
64,192,243279,1,0,0:0:0:0:
192,192,243496,1,0,0:0:0:0:
448,192,243496,1,0,0:0:0:0:
320,192,243605,1,0,0:0:0:0:
448,192,243714,1,2,0:0:0:0:
64,192,243714,1,0,0:0:0:0:
192,192,243822,1,0,0:0:0:0:
64,192,243931,1,0,0:0:0:0:
448,192,243931,1,0,0:0:0:0:
192,192,244040,1,0,0:0:0:0:
64,192,244148,1,0,0:0:0:0:
448,192,244148,1,0,0:0:0:0:
320,192,244203,1,0,0:0:0:0:
192,192,244257,1,0,0:0:0:0:
448,192,244366,1,0,0:0:0:0:
64,192,244366,1,4,0:0:0:0:
320,192,244366,1,2,0:0:0:0:
448,192,244475,1,0,0:0:0:0:
320,192,244583,1,2,0:0:0:0:
192,192,244583,1,4,0:0:0:0:
64,192,244583,1,0,0:0:0:0:
64,192,244692,1,0,0:0:0:0:
448,192,244801,1,0,0:0:0:0:
320,192,244801,1,2,0:0:0:0:
192,192,244801,1,4,0:0:0:0:
448,192,244909,1,0,0:0:0:0:
320,192,245018,1,2,0:0:0:0:
192,192,245018,1,4,0:0:0:0:
64,192,245018,1,0,0:0:0:0:
64,192,245127,1,0,0:0:0:0:
448,192,245235,1,0,0:0:0:0:
320,192,245235,1,2,0:0:0:0:
192,192,245235,1,4,0:0:0:0:
448,192,245344,1,0,0:0:0:0:
320,192,245453,1,2,0:0:0:0:
192,192,245453,1,4,0:0:0:0:
64,192,245453,1,0,0:0:0:0:
64,192,245561,1,0,0:0:0:0:
448,192,245670,1,0,0:0:0:0:
320,192,245670,1,2,0:0:0:0:
192,192,245670,1,4,0:0:0:0:
320,192,245779,1,0,0:0:0:0:
64,192,245779,1,0,0:0:0:0:
64,192,245888,1,0,0:0:0:0:
192,192,245888,1,0,0:0:0:0:
320,192,245996,1,0,0:0:0:0:
448,192,245996,1,0,0:0:0:0:
64,192,246105,1,0,0:0:0:0:
448,192,246105,1,0,0:0:0:0:
64,192,246214,1,0,0:0:0:0:
320,192,246214,1,0,0:0:0:0:
192,192,246322,1,0,0:0:0:0:
320,192,246322,1,0,0:0:0:0:
192,192,246431,1,0,0:0:0:0:
448,192,246431,1,0,0:0:0:0:
320,192,246540,1,0,0:0:0:0:
448,192,246540,1,0,0:0:0:0:
64,192,246648,1,0,0:0:0:0:
192,192,246648,1,0,0:0:0:0:
64,192,246757,1,4,0:0:0:0:
320,192,246757,1,2,0:0:0:0:
448,192,246757,1,4,0:0:0:0:
320,192,247083,1,2,0:0:0:0:
448,192,247083,1,0,0:0:0:0:
192,192,247083,1,0,0:0:0:0:
320,192,247192,1,0,0:0:0:0:
64,192,247192,1,0,0:0:0:0:
64,192,247301,1,0,0:0:0:0:
448,192,247301,1,0,0:0:0:0:
192,192,247301,1,0,0:0:0:0:
320,192,247409,1,0,0:0:0:0:
448,192,247409,1,0,0:0:0:0:
64,192,247518,1,0,0:0:0:0:
192,192,247518,1,0,0:0:0:0:
64,192,247627,1,0,0:0:0:0:
320,192,247627,1,0,0:0:0:0:
192,192,247735,1,0,0:0:0:0:
320,192,247735,1,0,0:0:0:0:
192,192,247844,1,0,0:0:0:0:
448,192,247844,1,0,0:0:0:0:
320,192,247953,1,0,0:0:0:0:
448,192,247953,1,0,0:0:0:0:
192,192,248061,1,0,0:0:0:0:
64,192,248061,1,0,0:0:0:0:
64,192,248170,1,4,0:0:0:0:
448,192,248170,1,4,0:0:0:0:
320,192,248170,1,2,0:0:0:0:
192,192,248496,1,0,0:0:0:0:
320,192,248496,1,2,0:0:0:0:
448,192,248496,1,0,0:0:0:0:
64,192,248605,1,0,0:0:0:0:
320,192,248605,1,0,0:0:0:0:
64,192,248714,1,0,0:0:0:0:
192,192,248714,1,0,0:0:0:0:
320,192,248822,1,0,0:0:0:0:
448,192,248822,1,0,0:0:0:0:
64,192,248931,1,0,0:0:0:0:
448,192,248931,1,0,0:0:0:0:
192,192,248931,1,0,0:0:0:0:
64,192,249040,1,0,0:0:0:0:
320,192,249040,1,0,0:0:0:0:
192,192,249148,1,0,0:0:0:0:
320,192,249148,1,0,0:0:0:0:
192,192,249257,1,0,0:0:0:0:
448,192,249257,1,0,0:0:0:0:
64,192,249366,1,0,0:0:0:0:
320,192,249366,1,0,0:0:0:0:
448,192,249366,1,0,0:0:0:0:
320,192,249475,1,0,0:0:0:0:
192,192,249475,1,0,0:0:0:0:
64,192,249583,1,4,0:0:0:0:
192,192,249583,1,2,0:0:0:0:
448,192,249583,1,4,0:0:0:0:
320,192,249801,1,0,0:0:0:0:
448,192,249801,1,2,0:0:0:0:
192,192,249801,1,0,0:0:0:0:
64,192,249873,1,0,0:0:0:0:
192,192,249946,1,0,0:0:0:0:
320,192,250018,1,0,0:0:0:0:
448,192,250018,1,0,0:0:0:0:
64,192,250090,1,0,0:0:0:0:
192,192,250163,1,0,0:0:0:0:
320,192,250235,1,0,0:0:0:0:
448,192,250235,1,0,0:0:0:0:
64,192,250308,1,0,0:0:0:0:
192,192,250380,1,0,0:0:0:0:
320,192,250453,1,0,0:0:0:0:
448,192,250453,1,0,0:0:0:0:
64,192,250525,1,2,0:0:0:0:
192,192,250525,1,0,0:0:0:0:
320,192,250598,1,0,0:0:0:0:
64,192,250670,1,0,0:0:0:0:
448,192,250670,1,0,0:0:0:0:
192,192,250743,1,0,0:0:0:0:
320,192,250815,1,0,0:0:0:0:
64,192,250888,1,0,0:0:0:0:
448,192,250888,1,0,0:0:0:0:
192,192,250960,1,0,0:0:0:0:
320,192,251032,1,0,0:0:0:0:
64,192,251105,1,0,0:0:0:0:
448,192,251105,1,2,0:0:0:0:
192,192,251105,1,0,0:0:0:0:
320,192,251177,1,0,0:0:0:0:
448,192,251250,1,0,0:0:0:0:
192,192,251322,1,0,0:0:0:0:
64,192,251322,1,0,0:0:0:0:
320,192,251395,1,0,0:0:0:0:
448,192,251467,1,0,0:0:0:0:
64,192,251540,1,0,0:0:0:0:
192,192,251540,1,0,0:0:0:0:
320,192,251612,1,0,0:0:0:0:
448,192,251685,1,0,0:0:0:0:
192,192,251757,1,0,0:0:0:0:
320,192,251830,1,0,0:0:0:0:
64,192,251902,1,0,0:0:0:0:
192,192,251975,1,0,0:0:0:0:
320,192,252047,1,0,0:0:0:0:
448,192,252119,1,0,0:0:0:0:
192,192,252192,1,0,0:0:0:0:
320,192,252264,1,0,0:0:0:0:
64,192,252337,1,0,0:0:0:0:
192,192,252409,1,0,0:0:0:0:
320,192,252482,1,0,0:0:0:0:
448,192,252554,1,0,0:0:0:0:
192,192,252627,1,0,0:0:0:0:
320,192,252699,1,0,0:0:0:0:
64,192,252772,1,0,0:0:0:0:
192,192,252844,1,0,0:0:0:0:
64,192,252917,1,0,0:0:0:0:
448,192,252989,1,0,0:0:0:0:
320,192,253061,1,0,0:0:0:0:
192,192,253134,1,0,0:0:0:0:
64,192,253206,1,0,0:0:0:0:
320,192,253279,1,0,0:0:0:0:
192,192,253351,1,0,0:0:0:0:
448,192,253424,1,0,0:0:0:0:
320,192,253496,1,0,0:0:0:0:
192,192,253569,1,0,0:0:0:0:
64,192,253641,1,0,0:0:0:0:
320,192,253714,1,0,0:0:0:0:
192,192,253786,1,0,0:0:0:0:
448,192,253859,1,0,0:0:0:0:
320,192,253931,1,0,0:0:0:0:
192,192,254003,1,0,0:0:0:0:
64,192,254076,1,0,0:0:0:0:
448,192,254148,1,0,0:0:0:0:
320,192,254221,1,0,0:0:0:0:
192,192,254293,1,0,0:0:0:0:
448,192,254366,1,0,0:0:0:0:
64,192,254366,1,0,0:0:0:0:
320,192,254475,1,0,0:0:0:0:
64,192,254592,1,0,0:0:0:0:
192,192,254592,1,4,0:0:0:0:
448,192,254592,1,0,0:0:0:0:
64,192,254961,1,0,0:0:0:0:
448,192,254961,1,0,0:0:0:0:
320,192,254961,1,4,0:0:0:0:
64,192,255330,1,0,0:0:0:0:
192,192,255330,1,4,0:0:0:0:
320,192,255699,1,4,0:0:0:0:
448,192,255699,1,0,0:0:0:0:
64,192,256068,1,0,0:0:0:0:
192,192,256068,1,4,0:0:0:0:
320,192,256192,1,4,0:0:0:0:
448,192,256192,1,0,0:0:0:0:
64,192,256315,1,0,0:0:0:0:
192,192,256315,1,4,0:0:0:0:
320,192,256438,1,4,0:0:0:0:
448,192,256438,1,0,0:0:0:0:
64,192,256810,1,0,0:0:0:0:
448,192,256810,1,0,0:0:0:0:
192,192,256810,1,4,0:0:0:0:
64,192,257118,1,0,0:0:0:0:
448,192,257118,1,0,0:0:0:0:
320,192,257118,1,4,0:0:0:0:
192,192,257426,1,4,0:0:0:0:
320,192,257426,1,0,0:0:0:0:
448,192,257426,1,0,0:0:0:0:
64,192,257735,1,0,0:0:0:0:
192,192,257735,1,4,0:0:0:0:
448,192,257735,1,0,0:0:0:0:
320,192,258043,1,4,0:0:0:0:
448,192,258043,1,0,0:0:0:0:
64,192,258146,1,0,0:0:0:0:
192,192,258146,1,4,0:0:0:0:
320,192,258249,1,4,0:0:0:0:
448,192,258249,1,0,0:0:0:0:
64,192,258352,1,0,0:0:0:0:
448,192,258352,1,2,0:0:0:0:
192,192,258352,1,4,0:0:0:0:
64,192,258660,1,0,0:0:0:0:
320,192,258660,1,4,0:0:0:0:
448,192,258660,1,2,0:0:0:0:
192,192,258945,1,0,0:0:0:0:
320,192,258945,1,4,0:0:0:0:
448,192,258945,1,2,0:0:0:0:
64,192,259231,1,0,0:0:0:0:
192,192,259231,1,4,0:0:0:0:
320,192,259231,1,2,0:0:0:0:
448,192,259517,1,2,0:0:0:0:
192,192,259517,1,4,0:0:0:0:
64,192,259517,1,0,0:0:0:0:
320,192,259802,1,4,0:0:0:0:
448,192,259802,1,2,0:0:0:0:
64,192,259898,1,0,0:0:0:0:
192,192,259898,1,4,0:0:0:0:
320,192,259993,1,0,0:0:0:0:
192,192,260088,1,4,0:0:0:0:
448,192,260088,1,2,0:0:0:0:
64,192,260088,1,4,0:0:0:0:
192,192,260374,1,4,0:0:0:0:
320,192,260374,1,4,0:0:0:0:
448,192,260374,1,2,0:0:0:0:
64,192,260661,1,4,0:0:0:0:
448,192,260661,1,2,0:0:0:0:
320,192,260661,1,4,0:0:0:0:
192,192,260948,1,4,0:0:0:0:
320,192,260948,1,4,0:0:0:0:
448,192,260948,1,2,0:0:0:0:
64,192,261235,1,4,0:0:0:0:
192,192,261235,1,4,0:0:0:0:
448,192,261235,1,2,0:0:0:0:
320,192,261522,1,4,0:0:0:0:
448,192,261522,1,2,0:0:0:0:
64,192,261618,1,0,0:0:0:0:
192,192,261618,1,4,0:0:0:0:
320,192,261713,1,0,0:0:0:0:
192,192,261809,1,4,0:0:0:0:
64,192,261809,1,4,0:0:0:0:
448,192,261809,1,2,0:0:0:0:
448,192,262098,1,2,0:0:0:0:
64,192,262098,1,4,0:0:0:0:
192,192,262098,1,4,0:0:0:0:
192,192,262401,1,0,0:0:0:0:
320,192,262401,1,0,0:0:0:0:
448,192,262704,1,0,0:0:0:0:
320,192,262805,1,0,0:0:0:0:
192,192,262906,1,0,0:0:0:0:
64,192,262906,1,2,0:0:0:0:
320,192,263010,1,0,0:0:0:0:
448,192,263010,1,0,0:0:0:0:
64,192,263114,1,0,0:0:0:0:
192,192,263218,1,0,0:0:0:0:
320,192,263218,1,2,0:0:0:0:
64,192,263317,1,0,0:0:0:0:
448,192,263317,1,0,0:0:0:0:
320,192,263417,1,0,0:0:0:0:
64,192,263516,1,0,0:0:0:0:
192,192,263516,1,2,0:0:0:0:
320,192,263611,1,0,0:0:0:0:
448,192,263611,1,0,0:0:0:0:
64,192,263706,1,0,0:0:0:0:
320,192,263801,1,0,0:0:0:0:
192,192,263801,1,2,0:0:0:0:
448,192,263895,1,0,0:0:0:0:
64,192,263895,1,0,0:0:0:0:
320,192,263989,1,0,0:0:0:0:
192,192,264084,1,2,0:0:0:0:
64,192,264084,1,0,0:0:0:0:
320,192,264176,1,0,0:0:0:0:
448,192,264176,1,0,0:0:0:0:
64,192,264269,1,0,0:0:0:0:
192,192,264361,1,2,0:0:0:0:
320,192,264361,1,0,0:0:0:0:
448,192,264450,1,0,0:0:0:0:
64,192,264450,1,0,0:0:0:0:
320,192,264539,1,0,0:0:0:0:
64,192,264628,1,0,0:0:0:0:
192,192,264628,1,2,0:0:0:0:
320,192,264711,1,0,0:0:0:0:
448,192,264711,1,0,0:0:0:0:
64,192,264794,1,0,0:0:0:0:
320,192,264878,1,0,0:0:0:0:
192,192,264878,1,2,0:0:0:0:
64,192,264961,1,0,0:0:0:0:
448,192,264961,1,0,0:0:0:0:
320,192,265044,1,0,0:0:0:0:
192,192,265128,1,2,0:0:0:0:
64,192,265212,1,0,0:0:0:0:
448,192,265212,1,0,0:0:0:0:
320,192,265297,1,0,0:0:0:0:
192,192,265382,1,2,0:0:0:0:
64,192,265382,1,0,0:0:0:0:
320,192,265466,1,0,0:0:0:0:
448,192,265466,1,0,0:0:0:0:
192,192,265551,1,0,0:0:0:0:
448,192,265632,1,2,0:0:0:0:
64,192,265632,1,0,0:0:0:0:
192,192,265715,1,0,0:0:0:0:
320,192,265715,1,0,0:0:0:0:
448,192,265798,1,0,0:0:0:0:
64,192,265798,1,0,0:0:0:0:
320,192,265882,1,2,0:0:0:0:
64,192,265965,1,0,0:0:0:0:
192,192,265965,1,0,0:0:0:0:
448,192,266048,1,0,0:0:0:0:
192,192,266132,1,2,0:0:0:0:
64,192,266132,1,0,0:0:0:0:
320,192,266215,1,0,0:0:0:0:
448,192,266215,1,0,0:0:0:0:
192,192,266298,1,0,0:0:0:0:
64,192,266377,1,0,0:0:0:0:
448,192,266377,1,2,0:0:0:0:
320,192,266479,1,0,0:0:0:0:
192,192,266479,1,0,0:0:0:0:
64,192,266582,1,0,0:0:0:0:
320,192,266684,1,2,0:0:0:0:
448,192,266684,1,0,0:0:0:0:
192,192,266795,1,0,0:0:0:0:
64,192,266795,1,0,0:0:0:0:
320,192,266907,1,0,0:0:0:0:
448,192,266907,1,0,0:0:0:0:
64,192,267019,1,4,0:0:0:0:
320,192,267019,1,4,0:0:0:0:
192,192,267019,1,2,0:0:0:0:
448,192,267019,1,4,0:0:0:0:
64,192,267325,1,0,0:0:0:0:
448,192,267631,1,0,0:0:0:0:
320,192,267733,1,0,0:0:0:0:
192,192,267835,1,2,0:0:0:0:
64,192,267835,1,0,0:0:0:0:
320,192,267937,1,0,0:0:0:0:
448,192,267937,1,0,0:0:0:0:
64,192,268039,1,0,0:0:0:0:
192,192,268141,1,2,0:0:0:0:
320,192,268141,1,0,0:0:0:0:
448,192,268241,1,0,0:0:0:0:
64,192,268241,1,0,0:0:0:0:
320,192,268341,1,0,0:0:0:0:
192,192,268441,1,2,0:0:0:0:
64,192,268441,1,0,0:0:0:0:
320,192,268537,1,0,0:0:0:0:
448,192,268537,1,0,0:0:0:0:
64,192,268633,1,0,0:0:0:0:
192,192,268729,1,2,0:0:0:0:
320,192,268729,1,0,0:0:0:0:
448,192,268821,1,0,0:0:0:0:
64,192,268821,1,0,0:0:0:0:
320,192,268914,1,0,0:0:0:0:
192,192,269006,1,2,0:0:0:0:
64,192,269006,1,0,0:0:0:0:
320,192,269099,1,0,0:0:0:0:
448,192,269099,1,0,0:0:0:0:
64,192,269191,1,0,0:0:0:0:
192,192,269283,1,2,0:0:0:0:
320,192,269283,1,0,0:0:0:0:
64,192,269371,1,0,0:0:0:0:
448,192,269371,1,0,0:0:0:0:
320,192,269460,1,0,0:0:0:0:
192,192,269549,1,2,0:0:0:0:
64,192,269549,1,0,0:0:0:0:
320,192,269633,1,0,0:0:0:0:
448,192,269633,1,0,0:0:0:0:
64,192,269717,1,0,0:0:0:0:
192,192,269801,1,2,0:0:0:0:
320,192,269801,1,0,0:0:0:0:
448,192,269885,1,0,0:0:0:0:
64,192,269885,1,0,0:0:0:0:
192,192,269969,1,0,0:0:0:0:
64,192,270053,1,0,0:0:0:0:
320,192,270136,1,0,0:0:0:0:
448,192,270219,1,0,0:0:0:0:
192,192,270303,1,0,0:0:0:0:
64,192,270386,1,0,0:0:0:0:
320,192,270469,1,0,0:0:0:0:
448,192,270553,1,0,0:0:0:0:
192,192,270638,1,0,0:0:0:0:
64,192,270723,1,0,0:0:0:0:
320,192,270809,1,0,0:0:0:0:
448,192,270894,1,0,0:0:0:0:
192,192,270980,1,0,0:0:0:0:
64,192,271065,1,0,0:0:0:0:
320,192,271151,1,0,0:0:0:0:
448,192,271236,1,0,0:0:0:0:
192,192,271322,1,0,0:0:0:0:
320,192,271436,1,0,0:0:0:0:
64,192,271551,1,0,0:0:0:0:
192,192,271666,1,0,0:0:0:0:
320,192,271813,1,0,0:0:0:0:
448,192,271960,1,0,0:0:0:0:
192,192,272107,1,0,0:0:0:0:
64,192,272107,1,0,0:0:0:0:
448,192,273703,1,2,0:0:0:0:
320,192,273703,1,0,0:0:0:0:
64,192,274880,1,0,0:0:0:0:
192,192,275458,1,0,0:0:0:0:
320,192,275458,1,2,0:0:0:0:
192,192,277680,1,0,0:0:0:0:
448,192,277680,1,2,0:0:0:0:
320,192,278050,1,0,0:0:0:0:
448,192,278420,1,0,0:0:0:0:
192,192,278791,1,0,0:0:0:0:
64,192,279532,1,0,0:0:0:0:
192,192,279902,1,0,0:0:0:0:
320,192,279902,1,2,0:0:0:0:
64,192,282093,1,0,0:0:0:0:
320,192,282124,1,2,0:0:0:0:
448,192,282495,1,0,0:0:0:0:
320,192,282865,1,0,0:0:0:0:
192,192,283235,1,0,0:0:0:0:
64,192,283976,1,0,0:0:0:0:
320,192,284346,1,2,0:0:0:0:
192,192,284346,1,0,0:0:0:0:
192,192,286569,1,0,0:0:0:0:
448,192,286569,1,2,0:0:0:0:
320,192,286939,1,0,0:0:0:0:
448,192,287309,1,0,0:0:0:0:
192,192,287680,1,0,0:0:0:0:
64,192,288420,1,0,0:0:0:0:
192,192,288791,1,0,0:0:0:0:
320,192,288791,1,2,0:0:0:0:
192,192,289902,1,0,0:0:0:0:
448,192,289902,1,0,0:0:0:0:
320,192,291013,1,0,0:0:0:0:
64,192,291013,1,0,0:0:0:0:
192,192,291569,1,2,0:0:0:0:
320,192,291569,1,0,0:0:0:0:
448,192,292124,1,0,0:0:0:0:
192,192,292124,1,2,0:0:0:0:
64,192,292124,1,0,0:0:0:0:
320,192,292495,1,2,0:0:0:0:
448,192,292865,1,4,0:0:0:0:
320,192,292865,1,4,0:0:0:0:
192,192,292865,1,2,0:0:0:0:
64,192,292865,1,0,0:0:0:0:
192,192,293606,1,0,0:0:0:0:
320,192,293974,1,0,0:0:0:0:
448,192,293974,1,2,0:0:0:0:
64,192,294182,1,0,0:0:0:0:
320,192,294344,1,0,0:0:0:0:
64,192,294494,1,0,0:0:0:0:
320,192,294624,1,0,0:0:0:0:
64,192,294762,1,0,0:0:0:0:
320,192,294867,1,0,0:0:0:0:
64,192,294971,1,0,0:0:0:0:
320,192,295075,1,0,0:0:0:0:
64,192,295179,1,0,0:0:0:0:
320,192,295265,1,0,0:0:0:0:
64,192,295355,1,0,0:0:0:0:
320,192,295446,1,0,0:0:0:0:
64,192,295537,1,0,0:0:0:0:
320,192,295628,1,0,0:0:0:0:
64,192,295719,1,0,0:0:0:0:
320,192,295810,1,0,0:0:0:0:
64,192,295901,1,0,0:0:0:0:
320,192,295992,1,2,0:0:0:0:
448,192,295992,1,0,0:0:0:0:
64,192,296082,1,0,0:0:0:0:
320,192,296173,1,0,0:0:0:0:
64,192,296264,1,0,0:0:0:0:
192,192,296264,1,2,0:0:0:0:
320,192,296355,1,0,0:0:0:0:
64,192,296446,1,0,0:0:0:0:
320,192,296537,1,2,0:0:0:0:
448,192,296537,1,0,0:0:0:0:
64,192,296628,1,0,0:0:0:0:
320,192,296719,1,0,0:0:0:0:
64,192,296810,1,0,0:0:0:0:
192,192,296810,1,2,0:0:0:0:
320,192,296901,1,0,0:0:0:0:
64,192,296992,1,0,0:0:0:0:
320,192,297082,1,0,0:0:0:0:
64,192,297173,1,0,0:0:0:0:
320,192,297264,1,0,0:0:0:0:
64,192,297355,1,0,0:0:0:0:
192,192,297355,1,2,0:0:0:0:
320,192,297446,1,0,0:0:0:0:
64,192,297537,1,0,0:0:0:0:
320,192,297628,1,0,0:0:0:0:
448,192,297628,1,2,0:0:0:0:
64,192,297719,1,0,0:0:0:0:
320,192,297810,1,0,0:0:0:0:
64,192,297901,1,0,0:0:0:0:
320,192,297992,1,0,0:0:0:0:
64,192,298082,1,0,0:0:0:0:
320,192,298173,1,0,0:0:0:0:
64,192,298264,1,0,0:0:0:0:
320,192,298355,1,0,0:0:0:0:
64,192,298446,1,0,0:0:0:0:
320,192,298537,1,0,0:0:0:0:
64,192,298628,1,0,0:0:0:0:
320,192,298719,1,0,0:0:0:0:
64,192,298810,1,0,0:0:0:0:
320,192,298901,1,0,0:0:0:0:
64,192,298992,1,0,0:0:0:0:
320,192,299082,1,0,0:0:0:0:
64,192,299173,1,0,0:0:0:0:
320,192,299264,1,0,0:0:0:0:
448,192,299264,1,2,0:0:0:0:
64,192,299355,1,0,0:0:0:0:
320,192,299446,1,0,0:0:0:0:
64,192,299537,1,0,0:0:0:0:
192,192,299537,1,2,0:0:0:0:
320,192,299628,1,0,0:0:0:0:
64,192,299719,1,0,0:0:0:0:
320,192,299810,1,0,0:0:0:0:
448,192,299810,1,2,0:0:0:0:
64,192,299901,1,0,0:0:0:0:
320,192,299992,1,0,0:0:0:0:
64,192,300082,1,0,0:0:0:0:
192,192,300082,1,2,0:0:0:0:
320,192,300173,1,0,0:0:0:0:
64,192,300264,1,0,0:0:0:0:
320,192,300355,1,0,0:0:0:0:
64,192,300446,1,0,0:0:0:0:
320,192,300537,1,0,0:0:0:0:
64,192,300628,1,0,0:0:0:0:
192,192,300628,1,2,0:0:0:0:
320,192,300719,1,0,0:0:0:0:
64,192,300810,1,0,0:0:0:0:
320,192,300901,1,0,0:0:0:0:
448,192,300901,1,2,0:0:0:0:
64,192,300992,1,0,0:0:0:0:
320,192,301082,1,0,0:0:0:0:
64,192,301173,1,0,0:0:0:0:
320,192,301264,1,0,0:0:0:0:
64,192,301355,1,0,0:0:0:0:
320,192,301446,1,0,0:0:0:0:
64,192,301537,1,0,0:0:0:0:
320,192,301628,1,0,0:0:0:0:
64,192,301719,1,0,0:0:0:0:
320,192,301810,1,0,0:0:0:0:
64,192,301901,1,0,0:0:0:0:
320,192,301992,1,0,0:0:0:0:
64,192,302082,1,0,0:0:0:0:
320,192,302173,1,0,0:0:0:0:
64,192,302264,1,0,0:0:0:0:
320,192,302355,1,0,0:0:0:0:
64,192,302446,1,0,0:0:0:0:
320,192,302537,1,0,0:0:0:0:
448,192,302537,1,2,0:0:0:0:
64,192,302628,1,0,0:0:0:0:
320,192,302719,1,0,0:0:0:0:
64,192,302810,1,0,0:0:0:0:
192,192,302810,1,2,0:0:0:0:
320,192,302901,1,0,0:0:0:0:
64,192,302992,1,0,0:0:0:0:
320,192,303082,1,0,0:0:0:0:
448,192,303082,1,2,0:0:0:0:
64,192,303173,1,0,0:0:0:0:
320,192,303264,1,0,0:0:0:0:
64,192,303355,1,0,0:0:0:0:
192,192,303355,1,0,0:0:0:0:
448,192,303355,1,2,0:0:0:0:
192,192,303628,1,0,0:0:0:0:
320,192,303628,1,0,0:0:0:0:
64,192,303901,1,0,0:0:0:0:
448,192,303901,1,2,0:0:0:0:
320,192,303901,1,0,0:0:0:0:
192,192,303992,1,0,0:0:0:0:
320,192,304082,1,0,0:0:0:0:
64,192,304173,1,0,0:0:0:0:
448,192,304173,1,2,0:0:0:0:
320,192,304446,1,0,0:0:0:0:
192,192,304537,1,0,0:0:0:0:
448,192,304628,1,0,0:0:0:0:
192,192,304719,1,0,0:0:0:0:
320,192,304810,1,0,0:0:0:0:
448,192,304901,1,0,0:0:0:0:
320,192,304992,1,0,0:0:0:0:
64,192,305082,1,0,0:0:0:0:
192,192,305082,1,0,0:0:0:0:
448,192,305173,1,0,0:0:0:0:
64,192,305264,1,0,0:0:0:0:
320,192,305264,1,0,0:0:0:0:
192,192,305355,1,0,0:0:0:0:
64,192,305446,1,0,0:0:0:0:
448,192,305446,1,0,0:0:0:0:
320,192,305537,1,0,0:0:0:0:
64,192,305628,1,0,0:0:0:0:
192,192,305628,1,0,0:0:0:0:
320,192,305719,1,0,0:0:0:0:
64,192,305810,1,0,0:0:0:0:
192,192,305810,1,2,0:0:0:0:
448,192,305810,1,0,0:0:0:0:
320,192,305901,1,0,0:0:0:0:
64,192,305992,1,0,0:0:0:0:
448,192,306082,1,0,0:0:0:0:
64,192,306173,1,0,0:0:0:0:
320,192,306173,1,0,0:0:0:0:
448,192,306264,1,0,0:0:0:0:
64,192,306355,1,0,0:0:0:0:
192,192,306355,1,0,0:0:0:0:
320,192,306446,1,0,0:0:0:0:
64,192,306537,1,0,0:0:0:0:
448,192,306537,1,0,0:0:0:0:
320,192,306628,1,0,0:0:0:0:
64,192,306719,1,0,0:0:0:0:
192,192,306719,1,0,0:0:0:0:
448,192,306810,1,0,0:0:0:0:
64,192,306901,1,0,0:0:0:0:
320,192,306901,1,0,0:0:0:0:
192,192,306992,1,0,0:0:0:0:
64,192,307082,1,0,0:0:0:0:
448,192,307082,1,0,0:0:0:0:
320,192,307173,1,0,0:0:0:0:
64,192,307264,1,0,0:0:0:0:
192,192,307264,1,0,0:0:0:0:
320,192,307355,1,0,0:0:0:0:
64,192,307446,1,0,0:0:0:0:
192,192,307446,1,2,0:0:0:0:
448,192,307446,1,0,0:0:0:0:
320,192,307537,1,0,0:0:0:0:
64,192,307628,1,0,0:0:0:0:
448,192,307719,1,0,0:0:0:0:
64,192,307810,1,0,0:0:0:0:
320,192,307810,1,0,0:0:0:0:
448,192,307901,1,0,0:0:0:0:
64,192,307992,1,0,0:0:0:0:
192,192,307992,1,0,0:0:0:0:
320,192,308082,1,0,0:0:0:0:
64,192,308173,1,0,0:0:0:0:
448,192,308173,1,0,0:0:0:0:
320,192,308264,1,0,0:0:0:0:
64,192,308355,1,0,0:0:0:0:
192,192,308355,1,0,0:0:0:0:
448,192,308446,1,0,0:0:0:0:
64,192,308537,1,0,0:0:0:0:
320,192,308537,1,0,0:0:0:0:
192,192,308628,1,0,0:0:0:0:
64,192,308719,1,0,0:0:0:0:
448,192,308719,1,0,0:0:0:0:
320,192,308810,1,0,0:0:0:0:
64,192,308901,1,0,0:0:0:0:
192,192,308901,1,0,0:0:0:0:
320,192,308992,1,0,0:0:0:0:
64,192,309082,1,0,0:0:0:0:
192,192,309082,1,2,0:0:0:0:
448,192,309082,1,0,0:0:0:0:
320,192,309173,1,0,0:0:0:0:
64,192,309264,1,0,0:0:0:0:
448,192,309355,1,0,0:0:0:0:
64,192,309446,1,0,0:0:0:0:
320,192,309446,1,0,0:0:0:0:
448,192,309537,1,0,0:0:0:0:
64,192,309628,1,0,0:0:0:0:
192,192,309628,1,0,0:0:0:0:
320,192,309719,1,0,0:0:0:0:
64,192,309810,1,0,0:0:0:0:
448,192,309810,1,0,0:0:0:0:
320,192,309901,1,0,0:0:0:0:
64,192,309992,1,0,0:0:0:0:
192,192,309992,1,0,0:0:0:0:
448,192,310082,1,0,0:0:0:0:
64,192,310173,1,0,0:0:0:0:
320,192,310173,1,0,0:0:0:0:
192,192,310264,1,0,0:0:0:0:
64,192,310355,1,0,0:0:0:0:
448,192,310355,1,0,0:0:0:0:
320,192,310446,1,0,0:0:0:0:
64,192,310537,1,0,0:0:0:0:
192,192,310537,1,0,0:0:0:0:
320,192,310628,1,0,0:0:0:0:
64,192,310719,1,0,0:0:0:0:
192,192,310719,1,2,0:0:0:0:
448,192,310719,1,0,0:0:0:0:
64,192,310992,1,0,0:0:0:0:
192,192,310992,1,0,0:0:0:0:
320,192,311082,1,0,0:0:0:0:
448,192,311173,1,0,0:0:0:0:
320,192,311264,1,0,0:0:0:0:
192,192,311264,1,0,0:0:0:0:
64,192,311355,1,0,0:0:0:0:
320,192,311446,1,0,0:0:0:0:
64,192,311537,1,0,0:0:0:0:
448,192,311537,1,0,0:0:0:0:
192,192,311628,1,0,0:0:0:0:
448,192,311719,1,0,0:0:0:0:
192,192,311810,1,0,0:0:0:0:
320,192,311810,1,0,0:0:0:0:
64,192,311901,1,0,0:0:0:0:
192,192,311992,1,0,0:0:0:0:
320,192,312082,1,0,0:0:0:0:
448,192,312082,1,0,0:0:0:0:
192,192,312173,1,0,0:0:0:0:
64,192,312264,1,0,0:0:0:0:
192,192,312355,1,0,0:0:0:0:
320,192,312355,1,0,0:0:0:0:
448,192,312446,1,0,0:0:0:0:
320,192,312537,1,0,0:0:0:0:
64,192,312628,1,0,0:0:0:0:
192,192,312628,1,0,0:0:0:0:
320,192,312719,1,0,0:0:0:0:
448,192,312719,1,0,0:0:0:0:
192,192,312810,1,0,0:0:0:0:
64,192,312901,1,0,0:0:0:0:
320,192,312992,1,0,0:0:0:0:
192,192,312992,1,0,0:0:0:0:
448,192,313082,1,0,0:0:0:0:
320,192,313173,1,0,0:0:0:0:
64,192,313264,1,0,0:0:0:0:
192,192,313264,1,0,0:0:0:0:
448,192,313355,1,0,0:0:0:0:
192,192,313446,1,0,0:0:0:0:
64,192,313537,1,0,0:0:0:0:
448,192,313537,1,0,0:0:0:0:
320,192,313628,1,0,0:0:0:0:
64,192,313719,1,0,0:0:0:0:
192,192,313719,1,0,0:0:0:0:
448,192,313810,1,0,0:0:0:0:
320,192,313901,1,0,0:0:0:0:
64,192,313992,1,0,0:0:0:0:
448,192,314082,1,0,0:0:0:0:
64,192,314173,1,0,0:0:0:0:
320,192,314264,1,0,0:0:0:0:
64,192,314355,1,0,0:0:0:0:
192,192,314446,1,0,0:0:0:0:
64,192,314537,1,0,0:0:0:0:
320,192,314628,1,0,0:0:0:0:
64,192,314719,1,0,0:0:0:0:
448,192,314810,1,0,0:0:0:0:
64,192,314901,1,0,0:0:0:0:
320,192,314992,1,0,0:0:0:0:
64,192,315082,1,0,0:0:0:0:
192,192,315173,1,0,0:0:0:0:
64,192,315264,1,0,0:0:0:0:
320,192,315355,1,0,0:0:0:0:
64,192,315446,1,0,0:0:0:0:
448,192,315537,1,0,0:0:0:0:
64,192,315628,1,0,0:0:0:0:
320,192,315719,1,0,0:0:0:0:
192,192,315810,1,0,0:0:0:0:
64,192,315901,1,0,0:0:0:0:
192,192,315992,1,0,0:0:0:0:
320,192,316082,1,0,0:0:0:0:
192,192,316173,1,0,0:0:0:0:
448,192,316264,1,0,0:0:0:0:
320,192,316355,1,0,0:0:0:0:
64,192,316446,1,0,0:0:0:0:
320,192,316537,1,0,0:0:0:0:
192,192,316628,1,0,0:0:0:0:
320,192,316719,1,0,0:0:0:0:
64,192,316810,1,0,0:0:0:0:
448,192,316901,1,0,0:0:0:0:
192,192,316992,1,0,0:0:0:0:
448,192,317082,1,0,0:0:0:0:
320,192,317173,1,0,0:0:0:0:
448,192,317265,1,0,0:0:0:0:
64,192,317265,1,2,0:0:0:0:
192,192,317765,1,0,0:0:0:0:
64,192,318255,1,4,0:0:0:0:
192,192,318255,1,4,0:0:0:0:
320,192,318255,1,4,0:0:0:0:
448,192,318255,1,2,0:0:0:0:
320,192,318500,1,0,0:0:0:0:
448,192,318500,1,2,0:0:0:0:
64,192,318582,1,0,0:0:0:0:
192,192,318664,1,0,0:0:0:0:
448,192,318746,1,2,0:0:0:0:
320,192,318746,1,0,0:0:0:0:
192,192,318828,1,0,0:0:0:0:
64,192,318910,1,0,0:0:0:0:
448,192,318992,1,2,0:0:0:0:
320,192,318992,1,0,0:0:0:0:
64,192,319074,1,0,0:0:0:0:
192,192,319156,1,0,0:0:0:0:
448,192,319238,1,2,0:0:0:0:
320,192,319238,1,0,0:0:0:0:
192,192,319320,1,0,0:0:0:0:
64,192,319402,1,0,0:0:0:0:
320,192,319484,1,0,0:0:0:0:
448,192,319484,1,2,0:0:0:0:
192,192,319566,1,0,0:0:0:0:
64,192,319566,1,0,0:0:0:0:
320,192,319648,1,0,0:0:0:0:
448,192,319648,1,0,0:0:0:0:
448,192,319730,1,2,0:0:0:0:
192,192,319730,1,4,0:0:0:0:
64,192,319730,1,0,0:0:0:0:
320,192,319730,1,4,0:0:0:0:
448,192,319976,1,2,0:0:0:0:
320,192,319976,1,0,0:0:0:0:
64,192,320058,1,0,0:0:0:0:
192,192,320140,1,0,0:0:0:0:
448,192,320222,1,2,0:0:0:0:
320,192,320222,1,0,0:0:0:0:
192,192,320304,1,0,0:0:0:0:
64,192,320386,1,0,0:0:0:0:
448,192,320468,1,2,0:0:0:0:
320,192,320468,1,0,0:0:0:0:
64,192,320550,1,0,0:0:0:0:
192,192,320632,1,0,0:0:0:0:
448,192,320714,1,2,0:0:0:0:
320,192,320714,1,0,0:0:0:0:
192,192,320795,1,0,0:0:0:0:
64,192,320877,1,0,0:0:0:0:
448,192,320959,1,2,0:0:0:0:
320,192,320959,1,0,0:0:0:0:
192,192,321041,1,0,0:0:0:0:
64,192,321041,1,0,0:0:0:0:
320,192,321123,1,0,0:0:0:0:
448,192,321123,1,0,0:0:0:0:
448,192,321205,1,2,0:0:0:0:
320,192,321205,1,4,0:0:0:0:
192,192,321205,1,4,0:0:0:0:
64,192,321205,1,0,0:0:0:0:
64,192,321451,1,2,0:0:0:0:
192,192,321451,1,0,0:0:0:0:
448,192,321533,1,0,0:0:0:0:
320,192,321615,1,0,0:0:0:0:
64,192,321697,1,2,0:0:0:0:
192,192,321697,1,0,0:0:0:0:
320,192,321779,1,0,0:0:0:0:
448,192,321861,1,0,0:0:0:0:
192,192,321943,1,0,0:0:0:0:
64,192,321943,1,2,0:0:0:0:
448,192,322025,1,0,0:0:0:0:
320,192,322107,1,0,0:0:0:0:
64,192,322189,1,2,0:0:0:0:
192,192,322189,1,0,0:0:0:0:
320,192,322271,1,0,0:0:0:0:
448,192,322353,1,0,0:0:0:0:
192,192,322435,1,0,0:0:0:0:
64,192,322435,1,2,0:0:0:0:
320,192,322517,1,0,0:0:0:0:
448,192,322517,1,0,0:0:0:0:
64,192,322599,1,0,0:0:0:0:
192,192,322599,1,0,0:0:0:0:
320,192,322681,1,4,0:0:0:0:
64,192,322681,1,2,0:0:0:0:
192,192,322681,1,4,0:0:0:0:
448,192,322681,1,0,0:0:0:0:
64,192,322927,1,2,0:0:0:0:
192,192,322927,1,0,0:0:0:0:
448,192,323009,1,0,0:0:0:0:
320,192,323091,1,0,0:0:0:0:
64,192,323173,1,2,0:0:0:0:
192,192,323173,1,0,0:0:0:0:
320,192,323255,1,0,0:0:0:0:
448,192,323336,1,0,0:0:0:0:
64,192,323418,1,2,0:0:0:0:
192,192,323418,1,0,0:0:0:0:
448,192,323500,1,0,0:0:0:0:
320,192,323582,1,0,0:0:0:0:
64,192,323664,1,2,0:0:0:0:
192,192,323664,1,0,0:0:0:0:
320,192,323746,1,0,0:0:0:0:
448,192,323828,1,0,0:0:0:0:
64,192,323910,1,2,0:0:0:0:
192,192,323910,1,0,0:0:0:0:
320,192,323992,1,0,0:0:0:0:
448,192,323992,1,0,0:0:0:0:
64,192,324074,1,0,0:0:0:0:
192,192,324074,1,0,0:0:0:0:
192,192,324156,1,4,0:0:0:0:
64,192,324156,1,2,0:0:0:0:
320,192,324156,1,4,0:0:0:0:
448,192,324156,1,0,0:0:0:0:
448,192,324402,1,2,0:0:0:0:
320,192,324402,1,0,0:0:0:0:
64,192,324484,1,0,0:0:0:0:
192,192,324566,1,0,0:0:0:0:
448,192,324648,1,2,0:0:0:0:
320,192,324648,1,0,0:0:0:0:
192,192,324730,1,0,0:0:0:0:
64,192,324812,1,0,0:0:0:0:
320,192,324894,1,0,0:0:0:0:
448,192,324894,1,2,0:0:0:0:
64,192,324976,1,0,0:0:0:0:
192,192,325058,1,0,0:0:0:0:
448,192,325140,1,2,0:0:0:0:
320,192,325140,1,0,0:0:0:0:
192,192,325222,1,0,0:0:0:0:
64,192,325304,1,0,0:0:0:0:
320,192,325386,1,0,0:0:0:0:
448,192,325386,1,2,0:0:0:0:
192,192,325468,1,0,0:0:0:0:
64,192,325468,1,0,0:0:0:0:
320,192,325550,1,0,0:0:0:0:
448,192,325550,1,0,0:0:0:0:
192,192,325632,1,4,0:0:0:0:
448,192,325632,1,2,0:0:0:0:
320,192,325632,1,4,0:0:0:0:
64,192,325632,1,0,0:0:0:0:
448,192,325877,1,2,0:0:0:0:
320,192,325877,1,0,0:0:0:0:
64,192,325959,1,0,0:0:0:0:
192,192,326041,1,0,0:0:0:0:
448,192,326123,1,2,0:0:0:0:
320,192,326123,1,0,0:0:0:0:
192,192,326205,1,0,0:0:0:0:
64,192,326287,1,0,0:0:0:0:
320,192,326369,1,0,0:0:0:0:
448,192,326369,1,2,0:0:0:0:
64,192,326451,1,0,0:0:0:0:
192,192,326533,1,0,0:0:0:0:
448,192,326615,1,2,0:0:0:0:
320,192,326615,1,0,0:0:0:0:
192,192,326697,1,0,0:0:0:0:
64,192,326779,1,0,0:0:0:0:
448,192,326861,1,2,0:0:0:0:
320,192,326861,1,0,0:0:0:0:
192,192,326943,1,0,0:0:0:0:
64,192,326943,1,0,0:0:0:0:
320,192,327025,1,0,0:0:0:0:
448,192,327025,1,0,0:0:0:0:
448,192,327107,1,2,0:0:0:0:
192,192,327107,1,4,0:0:0:0:
320,192,327107,1,4,0:0:0:0:
64,192,327107,1,0,0:0:0:0:
192,192,327353,1,0,0:0:0:0:
64,192,327353,1,2,0:0:0:0:
448,192,327435,1,0,0:0:0:0:
320,192,327517,1,0,0:0:0:0:
64,192,327599,1,2,0:0:0:0:
192,192,327599,1,0,0:0:0:0:
320,192,327681,1,0,0:0:0:0:
448,192,327763,1,0,0:0:0:0:
64,192,327845,1,2,0:0:0:0:
192,192,327845,1,0,0:0:0:0:
448,192,327927,1,0,0:0:0:0:
320,192,328009,1,0,0:0:0:0:
64,192,328091,1,2,0:0:0:0:
192,192,328091,1,0,0:0:0:0:
320,192,328173,1,0,0:0:0:0:
448,192,328255,1,0,0:0:0:0:
192,192,328336,1,0,0:0:0:0:
64,192,328336,1,2,0:0:0:0:
320,192,328418,1,0,0:0:0:0:
448,192,328418,1,0,0:0:0:0:
64,192,328500,1,0,0:0:0:0:
192,192,328500,1,0,0:0:0:0:
192,192,328582,1,4,0:0:0:0:
320,192,328582,1,4,0:0:0:0:
64,192,328582,1,2,0:0:0:0:
448,192,328582,1,0,0:0:0:0:
192,192,328828,1,0,0:0:0:0:
64,192,328828,1,2,0:0:0:0:
448,192,328910,1,0,0:0:0:0:
320,192,328992,1,0,0:0:0:0:
64,192,329074,1,2,0:0:0:0:
192,192,329074,1,0,0:0:0:0:
320,192,329156,1,0,0:0:0:0:
448,192,329238,1,0,0:0:0:0:
64,192,329320,1,2,0:0:0:0:
192,192,329320,1,0,0:0:0:0:
448,192,329402,1,0,0:0:0:0:
320,192,329484,1,0,0:0:0:0:
64,192,329566,1,2,0:0:0:0:
192,192,329566,1,0,0:0:0:0:
320,192,329648,1,0,0:0:0:0:
448,192,329730,1,0,0:0:0:0:
64,192,329812,1,2,0:0:0:0:
192,192,329812,1,0,0:0:0:0:
320,192,329894,1,0,0:0:0:0:
448,192,329894,1,0,0:0:0:0:
64,192,329976,1,0,0:0:0:0:
192,192,329976,1,0,0:0:0:0:
320,192,330058,1,4,0:0:0:0:
192,192,330058,1,4,0:0:0:0:
64,192,330058,1,2,0:0:0:0:
448,192,330058,1,0,0:0:0:0:
448,192,330304,1,2,0:0:0:0:
64,192,330304,1,0,0:0:0:0:
192,192,330386,1,0,0:0:0:0:
320,192,330386,1,0,0:0:0:0:
448,192,330468,1,0,0:0:0:0:
64,192,330468,1,0,0:0:0:0:
192,192,330550,1,0,0:0:0:0:
320,192,330550,1,2,0:0:0:0:
448,192,330632,1,0,0:0:0:0:
64,192,330714,1,0,0:0:0:0:
192,192,330795,1,0,0:0:0:0:
320,192,330795,1,2,0:0:0:0:
448,192,330877,1,0,0:0:0:0:
64,192,330877,1,0,0:0:0:0:
192,192,330959,1,0,0:0:0:0:
320,192,330959,1,0,0:0:0:0:
448,192,331041,1,2,0:0:0:0:
64,192,331041,1,0,0:0:0:0:
320,192,331123,1,0,0:0:0:0:
192,192,331205,1,0,0:0:0:0:
320,192,331287,1,0,0:0:0:0:
448,192,331287,1,2,0:0:0:0:
192,192,331369,1,0,0:0:0:0:
64,192,331369,1,0,0:0:0:0:
320,192,331451,1,0,0:0:0:0:
448,192,331451,1,0,0:0:0:0:
64,192,331533,1,0,0:0:0:0:
192,192,331533,1,4,0:0:0:0:
448,192,331533,1,2,0:0:0:0:
320,192,331533,1,4,0:0:0:0:
64,192,331779,1,0,0:0:0:0:
320,192,331779,1,2,0:0:0:0:
192,192,331861,1,0,0:0:0:0:
448,192,331861,1,0,0:0:0:0:
64,192,331943,1,0,0:0:0:0:
320,192,331943,1,0,0:0:0:0:
192,192,332025,1,2,0:0:0:0:
448,192,332025,1,0,0:0:0:0:
320,192,332107,1,0,0:0:0:0:
64,192,332189,1,0,0:0:0:0:
448,192,332271,1,0,0:0:0:0:
192,192,332271,1,2,0:0:0:0:
320,192,332353,1,0,0:0:0:0:
64,192,332353,1,0,0:0:0:0:
448,192,332435,1,0,0:0:0:0:
192,192,332435,1,0,0:0:0:0:
320,192,332517,1,2,0:0:0:0:
64,192,332517,1,0,0:0:0:0:
448,192,332599,1,0,0:0:0:0:
192,192,332681,1,0,0:0:0:0:
320,192,332763,1,2,0:0:0:0:
448,192,332763,1,0,0:0:0:0:
192,192,332845,1,0,0:0:0:0:
64,192,332845,1,0,0:0:0:0:
320,192,332927,1,0,0:0:0:0:
448,192,332927,1,0,0:0:0:0:
64,192,333009,1,4,0:0:0:0:
192,192,333009,1,4,0:0:0:0:
448,192,333009,1,0,0:0:0:0:
320,192,333009,1,2,0:0:0:0:
192,192,333255,1,0,0:0:0:0:
320,192,333255,1,2,0:0:0:0:
64,192,333336,1,0,0:0:0:0:
448,192,333336,1,0,0:0:0:0:
192,192,333418,1,0,0:0:0:0:
320,192,333418,1,0,0:0:0:0:
64,192,333500,1,0,0:0:0:0:
448,192,333500,1,2,0:0:0:0:
192,192,333582,1,0,0:0:0:0:
320,192,333664,1,0,0:0:0:0:
64,192,333746,1,0,0:0:0:0:
448,192,333746,1,2,0:0:0:0:
192,192,333828,1,0,0:0:0:0:
320,192,333828,1,0,0:0:0:0:
64,192,333910,1,0,0:0:0:0:
448,192,333910,1,0,0:0:0:0:
192,192,333992,1,0,0:0:0:0:
320,192,333992,1,2,0:0:0:0:
64,192,334074,1,0,0:0:0:0:
448,192,334156,1,0,0:0:0:0:
192,192,334238,1,2,0:0:0:0:
64,192,334238,1,0,0:0:0:0:
448,192,334320,1,0,0:0:0:0:
320,192,334320,1,0,0:0:0:0:
192,192,334402,1,0,0:0:0:0:
64,192,334402,1,0,0:0:0:0:
448,192,334484,1,2,0:0:0:0:
320,192,334484,1,4,0:0:0:0:
64,192,334484,1,0,0:0:0:0:
192,192,334484,1,4,0:0:0:0:
192,192,334730,1,0,0:0:0:0:
448,192,334730,1,2,0:0:0:0:
64,192,334812,1,0,0:0:0:0:
320,192,334812,1,0,0:0:0:0:
192,192,334894,1,0,0:0:0:0:
448,192,334894,1,0,0:0:0:0:
64,192,334976,1,0,0:0:0:0:
320,192,334976,1,2,0:0:0:0:
192,192,335058,1,0,0:0:0:0:
448,192,335140,1,0,0:0:0:0:
64,192,335222,1,0,0:0:0:0:
320,192,335222,1,2,0:0:0:0:
192,192,335304,1,0,0:0:0:0:
448,192,335304,1,0,0:0:0:0:
320,192,335386,1,0,0:0:0:0:
64,192,335468,1,4,0:0:0:0:
448,192,335468,1,0,0:0:0:0:
192,192,335468,1,2,0:0:0:0:
320,192,335550,1,0,0:0:0:0:
192,192,335632,1,0,0:0:0:0:
64,192,335714,1,0,0:0:0:0:
320,192,335714,1,2,0:0:0:0:
448,192,335714,1,4,0:0:0:0:
192,192,335795,1,0,0:0:0:0:
448,192,335877,1,0,0:0:0:0:
64,192,335959,1,4,0:0:0:0:
448,192,335959,1,0,0:0:0:0:
192,192,335959,1,4,0:0:0:0:
320,192,335959,1,2,0:0:0:0:
192,192,336205,1,0,0:0:0:0:
320,192,336205,1,2,0:0:0:0:
64,192,336287,1,0,0:0:0:0:
448,192,336287,1,0,0:0:0:0:
192,192,336369,1,0,0:0:0:0:
320,192,336369,1,0,0:0:0:0:
64,192,336451,1,0,0:0:0:0:
448,192,336451,1,2,0:0:0:0:
320,192,336533,1,0,0:0:0:0:
192,192,336615,1,0,0:0:0:0:
64,192,336697,1,0,0:0:0:0:
448,192,336697,1,2,0:0:0:0:
192,192,336779,1,0,0:0:0:0:
320,192,336779,1,0,0:0:0:0:
64,192,336861,1,0,0:0:0:0:
448,192,336861,1,0,0:0:0:0:
192,192,336943,1,0,0:0:0:0:
320,192,336943,1,2,0:0:0:0:
448,192,337025,1,0,0:0:0:0:
64,192,337107,1,0,0:0:0:0:
320,192,337189,1,2,0:0:0:0:
448,192,337189,1,0,0:0:0:0:
64,192,337271,1,0,0:0:0:0:
192,192,337271,1,0,0:0:0:0:
320,192,337353,1,0,0:0:0:0:
448,192,337353,1,0,0:0:0:0:
64,192,337435,1,0,0:0:0:0:
192,192,337435,1,2,0:0:0:0:
448,192,337435,1,4,0:0:0:0:
320,192,337435,1,4,0:0:0:0:
64,192,337681,1,0,0:0:0:0:
320,192,337681,1,2,0:0:0:0:
192,192,337763,1,0,0:0:0:0:
448,192,337763,1,0,0:0:0:0:
64,192,337845,1,0,0:0:0:0:
320,192,337845,1,0,0:0:0:0:
192,192,337927,1,2,0:0:0:0:
448,192,337927,1,0,0:0:0:0:
320,192,338009,1,0,0:0:0:0:
64,192,338091,1,0,0:0:0:0:
192,192,338173,1,2,0:0:0:0:
448,192,338173,1,0,0:0:0:0:
64,192,338255,1,0,0:0:0:0:
320,192,338255,1,0,0:0:0:0:
192,192,338336,1,0,0:0:0:0:
448,192,338336,1,0,0:0:0:0:
64,192,338418,1,0,0:0:0:0:
320,192,338418,1,2,0:0:0:0:
448,192,338500,1,0,0:0:0:0:
192,192,338582,1,0,0:0:0:0:
448,192,338664,1,0,0:0:0:0:
320,192,338664,1,2,0:0:0:0:
192,192,338746,1,0,0:0:0:0:
64,192,338746,1,0,0:0:0:0:
448,192,338828,1,0,0:0:0:0:
320,192,338828,1,0,0:0:0:0:
192,192,338910,1,2,0:0:0:0:
64,192,338910,1,0,0:0:0:0:
448,192,338910,1,4,0:0:0:0:
320,192,338910,1,4,0:0:0:0:
192,192,339156,1,0,0:0:0:0:
320,192,339156,1,2,0:0:0:0:
64,192,339238,1,0,0:0:0:0:
448,192,339238,1,0,0:0:0:0:
192,192,339320,1,0,0:0:0:0:
320,192,339320,1,0,0:0:0:0:
64,192,339402,1,0,0:0:0:0:
448,192,339402,1,2,0:0:0:0:
192,192,339484,1,0,0:0:0:0:
320,192,339566,1,0,0:0:0:0:
64,192,339648,1,0,0:0:0:0:
448,192,339648,1,2,0:0:0:0:
192,192,339730,1,0,0:0:0:0:
320,192,339730,1,0,0:0:0:0:
64,192,339812,1,0,0:0:0:0:
448,192,339812,1,0,0:0:0:0:
192,192,339894,1,0,0:0:0:0:
320,192,339894,1,2,0:0:0:0:
64,192,339976,1,0,0:0:0:0:
448,192,340058,1,0,0:0:0:0:
64,192,340140,1,0,0:0:0:0:
192,192,340140,1,2,0:0:0:0:
320,192,340222,1,0,0:0:0:0:
448,192,340304,1,0,0:0:0:0:
64,192,340386,1,4,0:0:0:0:
320,192,340386,1,2,0:0:0:0:
192,192,340386,1,4,0:0:0:0:
448,192,340386,1,0,0:0:0:0:
192,192,340632,1,0,0:0:0:0:
448,192,340632,1,2,0:0:0:0:
64,192,340714,1,0,0:0:0:0:
320,192,340714,1,0,0:0:0:0:
192,192,340795,1,0,0:0:0:0:
448,192,340795,1,0,0:0:0:0:
64,192,340877,1,0,0:0:0:0:
320,192,340877,1,2,0:0:0:0:
192,192,340959,1,0,0:0:0:0:
448,192,341041,1,0,0:0:0:0:
64,192,341123,1,0,0:0:0:0:
320,192,341123,1,2,0:0:0:0:
192,192,341205,1,0,0:0:0:0:
448,192,341205,1,0,0:0:0:0:
64,192,341287,1,0,0:0:0:0:
320,192,341287,1,0,0:0:0:0:
192,192,341369,1,2,0:0:0:0:
448,192,341369,1,0,0:0:0:0:
64,192,341451,1,0,0:0:0:0:
320,192,341533,1,0,0:0:0:0:
64,192,341615,1,0,0:0:0:0:
192,192,341615,1,2,0:0:0:0:
320,192,341697,1,0,0:0:0:0:
448,192,341697,1,0,0:0:0:0:
64,192,341779,1,0,0:0:0:0:
192,192,341779,1,0,0:0:0:0:
448,192,341861,1,0,0:0:0:0:
320,192,341947,1,0,0:0:0:0:
448,192,342034,1,0,0:0:0:0:
192,192,342121,1,0,0:0:0:0:
448,192,342208,1,0,0:0:0:0:
192,192,342295,1,0,0:0:0:0:
320,192,342382,1,0,0:0:0:0:
192,192,342469,1,0,0:0:0:0:
320,192,342556,1,0,0:0:0:0:
64,192,342643,1,0,0:0:0:0:
320,192,342733,1,0,0:0:0:0:
64,192,342824,1,0,0:0:0:0:
192,192,342915,1,0,0:0:0:0:
64,192,343015,1,0,0:0:0:0:
192,192,343115,1,0,0:0:0:0:
448,192,343215,1,0,0:0:0:0:
320,192,343320,1,0,0:0:0:0:
192,192,343425,1,0,0:0:0:0:
64,192,343530,1,0,0:0:0:0:
448,192,343530,1,0,0:0:0:0:
192,192,343613,1,0,0:0:0:0:
64,192,343696,1,0,0:0:0:0:
192,192,343779,1,0,0:0:0:0:
64,192,343862,1,0,0:0:0:0:
320,192,343945,1,0,0:0:0:0:
64,192,344028,1,0,0:0:0:0:
320,192,344111,1,0,0:0:0:0:
192,192,344194,1,0,0:0:0:0:
320,192,344277,1,0,0:0:0:0:
192,192,344361,1,0,0:0:0:0:
320,192,344444,1,0,0:0:0:0:
192,192,344527,1,0,0:0:0:0:
448,192,344610,1,0,0:0:0:0:
192,192,344693,1,0,0:0:0:0:
448,192,344776,1,0,0:0:0:0:
320,192,344859,1,0,0:0:0:0:
448,192,344942,1,0,0:0:0:0:
320,192,345025,1,0,0:0:0:0:
448,192,345108,1,0,0:0:0:0:
192,192,345192,1,0,0:0:0:0:
64,192,345192,1,0,0:0:0:0:
320,192,345275,1,0,0:0:0:0:
448,192,345275,1,0,0:0:0:0:
192,192,345358,1,0,0:0:0:0:
64,192,345358,1,0,0:0:0:0:
320,192,345441,1,0,0:0:0:0:
64,192,345524,1,0,0:0:0:0:
448,192,345524,1,0,0:0:0:0:
192,192,345607,1,0,0:0:0:0:
320,192,345607,1,0,0:0:0:0:
64,192,345690,1,0,0:0:0:0:
448,192,345690,1,0,0:0:0:0:
192,192,345773,1,0,0:0:0:0:
64,192,345856,1,4,0:0:0:0:
320,192,345856,1,2,0:0:0:0:
448,192,345856,1,0,0:0:0:0:
192,192,345939,1,0,0:0:0:0:
320,192,346023,1,0,0:0:0:0:
448,192,346106,1,0,0:0:0:0:
64,192,346189,1,4,0:0:0:0:
320,192,346189,1,0,0:0:0:0:
448,192,346189,1,2,0:0:0:0:
192,192,346272,1,0,0:0:0:0:
320,192,346355,1,0,0:0:0:0:
64,192,346438,1,4,0:0:0:0:
320,192,346438,1,0,0:0:0:0:
448,192,346438,1,2,0:0:0:0:
192,192,346521,1,0,0:0:0:0:
320,192,346604,1,0,0:0:0:0:
64,192,346687,1,4,0:0:0:0:
320,192,346687,1,0,0:0:0:0:
448,192,346687,1,2,0:0:0:0:
192,192,346770,1,0,0:0:0:0:
320,192,346854,1,0,0:0:0:0:
64,192,346937,1,4,0:0:0:0:
320,192,346937,1,0,0:0:0:0:
448,192,346937,1,2,0:0:0:0:
192,192,347020,1,0,0:0:0:0:
320,192,347103,1,0,0:0:0:0:
64,192,347186,1,4,0:0:0:0:
320,192,347186,1,0,0:0:0:0:
448,192,347186,1,2,0:0:0:0:
192,192,347269,1,0,0:0:0:0:
320,192,347352,1,0,0:0:0:0:
192,192,347435,1,0,0:0:0:0:
64,192,347518,1,4,0:0:0:0:
448,192,347518,1,2,0:0:0:0:
320,192,347518,1,0,0:0:0:0:
64,192,347737,1,4,0:0:0:0:
320,192,347737,1,0,0:0:0:0:
448,192,347737,1,2,0:0:0:0:
64,192,347957,1,4,0:0:0:0:
320,192,347957,1,0,0:0:0:0:
448,192,347957,1,2,0:0:0:0:
448,192,348177,1,2,0:0:0:0:
320,192,348177,1,0,0:0:0:0:
64,192,348177,1,4,0:0:0:0:
64,192,348356,1,4,0:0:0:0:
320,192,348356,1,0,0:0:0:0:
448,192,348356,1,2,0:0:0:0:
64,192,348535,1,4,0:0:0:0:
320,192,348535,1,0,0:0:0:0:
448,192,348535,1,2,0:0:0:0:
448,192,348714,1,2,0:0:0:0:
320,192,348714,1,0,0:0:0:0:
64,192,348714,1,4,0:0:0:0:
64,192,348865,1,4,0:0:0:0:
320,192,348865,1,0,0:0:0:0:
448,192,348865,1,2,0:0:0:0:
448,192,349017,1,2,0:0:0:0:
320,192,349017,1,0,0:0:0:0:
64,192,349017,1,4,0:0:0:0:
64,192,349143,1,4,0:0:0:0:
320,192,349143,1,0,0:0:0:0:
448,192,349143,1,2,0:0:0:0:
320,192,349269,1,0,0:0:0:0:
448,192,349269,1,2,0:0:0:0:
64,192,349269,1,4,0:0:0:0:
448,192,349395,1,2,0:0:0:0:
320,192,349395,1,0,0:0:0:0:
64,192,349395,1,4,0:0:0:0:
320,192,349522,1,0,0:0:0:0:
448,192,349522,1,2,0:0:0:0:
64,192,349522,1,4,0:0:0:0:
64,192,349660,1,4,0:0:0:0:
320,192,349660,1,0,0:0:0:0:
448,192,349660,1,2,0:0:0:0:
448,192,349842,1,2,0:0:0:0:
320,192,349842,1,0,0:0:0:0:
64,192,349842,1,4,0:0:0:0:
64,192,350099,1,4,0:0:0:0:
320,192,350099,1,0,0:0:0:0:
448,192,350099,1,2,0:0:0:0:
448,192,350330,1,2,0:0:0:0:
192,192,350330,1,4,0:0:0:0:
64,192,350330,1,4,0:0:0:0:
320,192,350508,1,0,0:0:0:0:
448,192,350508,1,0,0:0:0:0:
64,192,350597,1,0,0:0:0:0:
192,192,350597,1,0,0:0:0:0:
64,192,350687,1,0,0:0:0:0:
448,192,350687,1,0,0:0:0:0:
192,192,350776,1,0,0:0:0:0:
320,192,350776,1,0,0:0:0:0:
64,192,350865,1,0,0:0:0:0:
448,192,350865,1,0,0:0:0:0:
320,192,350955,1,0,0:0:0:0:
448,192,351044,1,0,0:0:0:0:
192,192,351044,1,0,0:0:0:0:
320,192,351133,1,0,0:0:0:0:
64,192,351133,1,0,0:0:0:0:
64,192,351222,1,4,0:0:0:0:
192,192,351222,1,4,0:0:0:0:
448,192,351222,1,2,0:0:0:0:
320,192,351222,1,4,0:0:0:0:
64,192,351401,1,4,0:0:0:0:
192,192,351401,1,4,0:0:0:0:
320,192,351401,1,4,0:0:0:0:
448,192,351401,1,2,0:0:0:0:
448,192,351580,1,0,0:0:0:0:
320,192,351580,1,0,0:0:0:0:
192,192,351669,1,0,0:0:0:0:
64,192,351669,1,0,0:0:0:0:
64,192,351758,1,0,0:0:0:0:
448,192,351758,1,0,0:0:0:0:
192,192,351847,1,0,0:0:0:0:
320,192,351847,1,0,0:0:0:0:
64,192,351937,1,0,0:0:0:0:
192,192,351937,1,0,0:0:0:0:
448,192,352026,1,0,0:0:0:0:
320,192,352026,1,0,0:0:0:0:
64,192,352115,1,4,0:0:0:0:
448,192,352115,1,2,0:0:0:0:
192,192,352115,1,4,0:0:0:0:
192,192,352205,1,0,0:0:0:0:
320,192,352205,1,0,0:0:0:0:
448,192,352294,1,4,0:0:0:0:
64,192,352294,1,4,0:0:0:0:
320,192,352294,1,2,0:0:0:0:
192,192,352472,1,4,0:0:0:0:
64,192,352472,1,4,0:0:0:0:
320,192,352472,1,2,0:0:0:0:
64,192,352651,1,0,0:0:0:0:
448,192,352651,1,0,0:0:0:0:
192,192,352740,1,0,0:0:0:0:
448,192,352740,1,0,0:0:0:0:
64,192,352830,1,0,0:0:0:0:
320,192,352830,1,0,0:0:0:0:
64,192,352919,1,0,0:0:0:0:
448,192,352919,1,0,0:0:0:0:
192,192,353008,1,0,0:0:0:0:
448,192,353008,1,0,0:0:0:0:
64,192,353097,1,0,0:0:0:0:
320,192,353097,1,0,0:0:0:0:
64,192,353187,1,4,0:0:0:0:
448,192,353187,1,2,0:0:0:0:
192,192,353187,1,4,0:0:0:0:
320,192,353276,1,0,0:0:0:0:
192,192,353276,1,0,0:0:0:0:
448,192,353365,1,4,0:0:0:0:
64,192,353365,1,4,0:0:0:0:
320,192,353365,1,2,0:0:0:0:
320,192,353544,1,2,0:0:0:0:
64,192,353544,1,4,0:0:0:0:
192,192,353544,1,4,0:0:0:0:
320,192,353722,1,0,0:0:0:0:
448,192,353722,1,0,0:0:0:0:
192,192,353812,1,0,0:0:0:0:
64,192,353812,1,0,0:0:0:0:
448,192,353901,1,0,0:0:0:0:
320,192,353901,1,0,0:0:0:0:
320,192,353990,1,0,0:0:0:0:
192,192,353990,1,0,0:0:0:0:
192,192,354080,1,0,0:0:0:0:
64,192,354080,1,0,0:0:0:0:
448,192,354169,1,0,0:0:0:0:
320,192,354169,1,0,0:0:0:0:
192,192,354258,1,4,0:0:0:0:
448,192,354258,1,2,0:0:0:0:
64,192,354258,1,4,0:0:0:0:
320,192,354347,1,0,0:0:0:0:
192,192,354347,1,0,0:0:0:0:
64,192,354437,1,4,0:0:0:0:
320,192,354437,1,2,0:0:0:0:
448,192,354437,1,4,0:0:0:0:
192,192,354526,1,0,0:0:0:0:
448,192,354526,1,0,0:0:0:0:
192,192,354615,1,4,0:0:0:0:
64,192,354615,1,4,0:0:0:0:
320,192,354615,1,2,0:0:0:0:
320,192,354794,1,0,0:0:0:0:
448,192,354794,1,0,0:0:0:0:
192,192,354883,1,0,0:0:0:0:
64,192,354883,1,0,0:0:0:0:
320,192,354972,1,0,0:0:0:0:
448,192,354972,1,0,0:0:0:0:
320,192,355062,1,0,0:0:0:0:
192,192,355062,1,0,0:0:0:0:
64,192,355151,1,0,0:0:0:0:
448,192,355151,1,0,0:0:0:0:
192,192,355240,1,0,0:0:0:0:
64,192,355330,1,0,0:0:0:0:
320,192,355330,1,0,0:0:0:0:
192,192,355419,1,0,0:0:0:0:
448,192,355419,1,0,0:0:0:0:
64,192,355508,1,4,0:0:0:0:
192,192,355508,1,4,0:0:0:0:
320,192,355508,1,4,0:0:0:0:
448,192,355508,1,2,0:0:0:0:
64,192,355687,1,4,0:0:0:0:
192,192,355687,1,4,0:0:0:0:
320,192,355687,1,4,0:0:0:0:
448,192,355687,1,2,0:0:0:0:
320,192,355865,1,0,0:0:0:0:
448,192,355865,1,0,0:0:0:0:
192,192,355955,1,0,0:0:0:0:
64,192,355955,1,0,0:0:0:0:
64,192,356044,1,0,0:0:0:0:
320,192,356044,1,0,0:0:0:0:
192,192,356133,1,0,0:0:0:0:
448,192,356133,1,0,0:0:0:0:
320,192,356222,1,0,0:0:0:0:
448,192,356222,1,0,0:0:0:0:
64,192,356312,1,0,0:0:0:0:
192,192,356312,1,0,0:0:0:0:
320,192,356401,1,4,0:0:0:0:
448,192,356401,1,2,0:0:0:0:
64,192,356401,1,4,0:0:0:0:
320,192,356490,1,0,0:0:0:0:
448,192,356580,1,2,0:0:0:0:
64,192,356580,1,4,0:0:0:0:
192,192,356580,1,4,0:0:0:0:
448,192,356758,1,2,0:0:0:0:
192,192,356758,1,4,0:0:0:0:
320,192,356758,1,4,0:0:0:0:
192,192,356937,1,0,0:0:0:0:
64,192,356937,1,0,0:0:0:0:
320,192,357026,1,0,0:0:0:0:
448,192,357026,1,0,0:0:0:0:
192,192,357115,1,0,0:0:0:0:
448,192,357115,1,0,0:0:0:0:
320,192,357205,1,0,0:0:0:0:
64,192,357205,1,0,0:0:0:0:
192,192,357294,1,0,0:0:0:0:
64,192,357294,1,0,0:0:0:0:
448,192,357383,1,0,0:0:0:0:
320,192,357383,1,0,0:0:0:0:
448,192,357472,1,4,0:0:0:0:
192,192,357472,1,4,0:0:0:0:
64,192,357472,1,2,0:0:0:0:
192,192,357562,1,0,0:0:0:0:
448,192,357651,1,4,0:0:0:0:
320,192,357651,1,4,0:0:0:0:
64,192,357651,1,2,0:0:0:0:
192,192,357830,1,4,0:0:0:0:
320,192,357830,1,4,0:0:0:0:
448,192,357830,1,4,0:0:0:0:
64,192,357830,1,2,0:0:0:0:
448,192,358008,1,0,0:0:0:0:
320,192,358008,1,0,0:0:0:0:
64,192,358097,1,0,0:0:0:0:
192,192,358097,1,0,0:0:0:0:
320,192,358187,1,0,0:0:0:0:
64,192,358187,1,0,0:0:0:0:
192,192,358276,1,0,0:0:0:0:
448,192,358276,1,0,0:0:0:0:
320,192,358365,1,0,0:0:0:0:
448,192,358365,1,0,0:0:0:0:
192,192,358455,1,0,0:0:0:0:
64,192,358455,1,0,0:0:0:0:
64,192,358544,1,4,0:0:0:0:
320,192,358544,1,4,0:0:0:0:
448,192,358544,1,2,0:0:0:0:
192,192,358633,1,0,0:0:0:0:
320,192,358633,1,0,0:0:0:0:
64,192,358722,1,2,0:0:0:0:
192,192,358722,1,4,0:0:0:0:
320,192,358812,1,0,0:0:0:0:
448,192,358812,1,0,0:0:0:0:
64,192,358901,1,4,0:0:0:0:
448,192,358901,1,4,0:0:0:0:
192,192,358901,1,2,0:0:0:0:
448,192,359080,1,0,0:0:0:0:
320,192,359080,1,0,0:0:0:0:
192,192,359169,1,0,0:0:0:0:
64,192,359169,1,0,0:0:0:0:
64,192,359258,1,0,0:0:0:0:
448,192,359258,1,0,0:0:0:0:
320,192,359347,1,0,0:0:0:0:
192,192,359347,1,0,0:0:0:0:
64,192,359437,1,0,0:0:0:0:
448,192,359437,1,0,0:0:0:0:
320,192,359526,1,0,0:0:0:0:
448,192,359615,1,0,0:0:0:0:
192,192,359615,1,0,0:0:0:0:
64,192,359705,1,0,0:0:0:0:
320,192,359705,1,0,0:0:0:0:
448,192,359794,1,2,0:0:0:0:
64,192,359794,1,4,0:0:0:0:
320,192,359794,1,4,0:0:0:0:
192,192,359794,1,4,0:0:0:0:
320,192,359972,1,4,0:0:0:0:
64,192,359972,1,4,0:0:0:0:
448,192,359972,1,2,0:0:0:0:
192,192,359972,1,4,0:0:0:0:
448,192,360151,1,0,0:0:0:0:
320,192,360151,1,0,0:0:0:0:
64,192,360240,1,0,0:0:0:0:
192,192,360240,1,0,0:0:0:0:
448,192,360330,1,0,0:0:0:0:
64,192,360330,1,0,0:0:0:0:
320,192,360419,1,0,0:0:0:0:
192,192,360419,1,0,0:0:0:0:
64,192,360508,1,0,0:0:0:0:
192,192,360508,1,0,0:0:0:0:
448,192,360597,1,0,0:0:0:0:
320,192,360597,1,0,0:0:0:0:
64,192,360687,1,4,0:0:0:0:
192,192,360687,1,2,0:0:0:0:
448,192,360687,1,4,0:0:0:0:
192,192,360776,1,0,0:0:0:0:
320,192,360776,1,0,0:0:0:0:
448,192,360865,1,4,0:0:0:0:
320,192,360865,1,2,0:0:0:0:
64,192,360865,1,4,0:0:0:0:
192,192,361044,1,4,0:0:0:0:
64,192,361044,1,4,0:0:0:0:
320,192,361044,1,2,0:0:0:0:
320,192,361222,1,0,0:0:0:0:
448,192,361222,1,0,0:0:0:0:
192,192,361312,1,0,0:0:0:0:
64,192,361401,1,0,0:0:0:0:
448,192,361401,1,0,0:0:0:0:
320,192,361490,1,0,0:0:0:0:
64,192,361580,1,0,0:0:0:0:
192,192,361580,1,0,0:0:0:0:
448,192,361669,1,0,0:0:0:0:
192,192,361758,1,4,0:0:0:0:
320,192,361758,1,4,0:0:0:0:
448,192,361758,1,0,0:0:0:0:
64,192,361758,1,4,0:0:0:0:
192,192,361847,1,0,0:0:0:0:
64,192,361937,1,4,0:0:0:0:
320,192,361937,1,4,0:0:0:0:
448,192,361937,1,0,0:0:0:0:
64,192,362115,1,4,0:0:0:0:
192,192,362115,1,4,0:0:0:0:
320,192,362115,1,4,0:0:0:0:
448,192,362115,1,0,0:0:0:0:
64,192,362294,1,0,0:0:0:0:
192,192,362383,1,0,0:0:0:0:
320,192,362472,1,0,0:0:0:0:
448,192,362562,1,0,0:0:0:0:
192,192,362651,1,0,0:0:0:0:
64,192,362651,1,0,0:0:0:0:
320,192,362740,1,0,0:0:0:0:
64,192,362830,1,0,0:0:0:0:
448,192,362830,1,0,0:0:0:0:
192,192,362919,1,0,0:0:0:0:
448,192,363008,1,2,0:0:0:0:
320,192,363008,1,0,0:0:0:0:
64,192,363097,1,0,0:0:0:0:
192,192,363187,1,0,0:0:0:0:
448,192,363187,1,2,0:0:0:0:
320,192,363276,1,0,0:0:0:0:
64,192,363365,1,0,0:0:0:0:
192,192,363365,1,0,0:0:0:0:
448,192,363455,1,0,0:0:0:0:
320,192,363544,1,0,0:0:0:0:
192,192,363633,1,0,0:0:0:0:
64,192,363722,1,0,0:0:0:0:
192,192,363812,1,0,0:0:0:0:
320,192,363901,1,0,0:0:0:0:
448,192,363990,1,2,0:0:0:0:
448,192,364080,1,2,0:0:0:0:
64,192,364258,1,2,0:0:0:0:
320,192,364258,1,0,0:0:0:0:
192,192,364437,1,0,0:0:0:0:
448,192,364615,1,0,0:0:0:0:
192,192,364794,1,0,0:0:0:0:
64,192,364972,1,0,0:0:0:0:
320,192,365062,1,2,0:0:0:0:
320,192,365151,1,2,0:0:0:0:
192,192,365151,1,0,0:0:0:0:
64,192,365330,1,0,0:0:0:0:
192,192,365330,1,0,0:0:0:0:
448,192,365330,1,2,0:0:0:0:
320,192,365492,1,0,0:0:0:0:
64,192,365654,1,0,0:0:0:0:
192,192,365816,1,0,0:0:0:0:
320,192,365978,1,0,0:0:0:0:
448,192,366140,1,0,0:0:0:0:
64,192,366302,1,0,0:0:0:0:
192,192,366302,1,2,0:0:0:0:
320,192,366390,1,0,0:0:0:0:
64,192,366478,1,0,0:0:0:0:
320,192,366566,1,0,0:0:0:0:
64,192,366654,1,0,0:0:0:0:
192,192,366654,1,2,0:0:0:0:
448,192,366743,1,0,0:0:0:0:
192,192,366831,1,0,0:0:0:0:
448,192,366919,1,0,0:0:0:0:
192,192,367007,1,2,0:0:0:0:
64,192,367007,1,4,0:0:0:0:
320,192,367007,1,4,0:0:0:0:
448,192,367007,1,0,0:0:0:0:
448,192,367355,1,2,0:0:0:0:
320,192,367355,1,4,0:0:0:0:
64,192,367355,1,4,0:0:0:0:
64,192,367533,1,0,0:0:0:0:
192,192,367533,1,0,0:0:0:0:
448,192,367622,1,0,0:0:0:0:
320,192,367622,1,0,0:0:0:0:
64,192,367712,1,0,0:0:0:0:
448,192,367712,1,0,0:0:0:0:
320,192,367801,1,0,0:0:0:0:
192,192,367801,1,0,0:0:0:0:
448,192,367890,1,0,0:0:0:0:
64,192,367890,1,0,0:0:0:0:
192,192,367980,1,0,0:0:0:0:
64,192,368069,1,0,0:0:0:0:
320,192,368069,1,0,0:0:0:0:
192,192,368158,1,0,0:0:0:0:
448,192,368158,1,0,0:0:0:0:
320,192,368247,1,4,0:0:0:0:
192,192,368247,1,4,0:0:0:0:
448,192,368247,1,2,0:0:0:0:
64,192,368247,1,4,0:0:0:0:
320,192,368426,1,4,0:0:0:0:
192,192,368426,1,4,0:0:0:0:
64,192,368426,1,4,0:0:0:0:
448,192,368426,1,2,0:0:0:0:
192,192,368605,1,0,0:0:0:0:
64,192,368605,1,0,0:0:0:0:
320,192,368694,1,0,0:0:0:0:
448,192,368694,1,0,0:0:0:0:
64,192,368783,1,0,0:0:0:0:
448,192,368783,1,0,0:0:0:0:
192,192,368872,1,0,0:0:0:0:
320,192,368872,1,0,0:0:0:0:
320,192,368962,1,0,0:0:0:0:
448,192,368962,1,0,0:0:0:0:
64,192,369051,1,0,0:0:0:0:
192,192,369051,1,0,0:0:0:0:
320,192,369140,1,4,0:0:0:0:
64,192,369140,1,4,0:0:0:0:
448,192,369140,1,2,0:0:0:0:
320,192,369230,1,0,0:0:0:0:
192,192,369230,1,0,0:0:0:0:
192,192,369319,1,4,0:0:0:0:
448,192,369319,1,2,0:0:0:0:
64,192,369319,1,4,0:0:0:0:
448,192,369497,1,2,0:0:0:0:
320,192,369497,1,4,0:0:0:0:
192,192,369497,1,4,0:0:0:0:
64,192,369676,1,0,0:0:0:0:
448,192,369676,1,0,0:0:0:0:
64,192,369765,1,0,0:0:0:0:
320,192,369765,1,0,0:0:0:0:
448,192,369855,1,0,0:0:0:0:
192,192,369855,1,0,0:0:0:0:
64,192,369944,1,0,0:0:0:0:
448,192,369944,1,0,0:0:0:0:
64,192,370033,1,0,0:0:0:0:
320,192,370033,1,0,0:0:0:0:
192,192,370122,1,0,0:0:0:0:
448,192,370122,1,0,0:0:0:0:
64,192,370212,1,4,0:0:0:0:
320,192,370212,1,4,0:0:0:0:
448,192,370212,1,2,0:0:0:0:
192,192,370301,1,0,0:0:0:0:
320,192,370301,1,0,0:0:0:0:
448,192,370390,1,2,0:0:0:0:
64,192,370390,1,4,0:0:0:0:
192,192,370390,1,4,0:0:0:0:
448,192,370569,1,2,0:0:0:0:
192,192,370569,1,4,0:0:0:0:
320,192,370569,1,4,0:0:0:0:
64,192,370747,1,0,0:0:0:0:
192,192,370747,1,0,0:0:0:0:
320,192,370837,1,0,0:0:0:0:
448,192,370837,1,0,0:0:0:0:
192,192,370926,1,0,0:0:0:0:
64,192,370926,1,0,0:0:0:0:
320,192,371015,1,0,0:0:0:0:
192,192,371015,1,0,0:0:0:0:
320,192,371105,1,0,0:0:0:0:
448,192,371105,1,0,0:0:0:0:
64,192,371194,1,0,0:0:0:0:
192,192,371194,1,0,0:0:0:0:
64,192,371283,1,0,0:0:0:0:
448,192,371283,1,2,0:0:0:0:
320,192,371283,1,0,0:0:0:0:
320,192,371372,1,0,0:0:0:0:
192,192,371372,1,0,0:0:0:0:
64,192,371462,1,0,0:0:0:0:
448,192,371462,1,2,0:0:0:0:
192,192,371462,1,0,0:0:0:0:
320,192,371551,1,0,0:0:0:0:
64,192,371551,1,0,0:0:0:0:
192,192,371640,1,0,0:0:0:0:
448,192,371640,1,2,0:0:0:0:
320,192,371640,1,0,0:0:0:0:
192,192,371819,1,0,0:0:0:0:
64,192,371819,1,0,0:0:0:0:
448,192,371908,1,0,0:0:0:0:
320,192,371908,1,0,0:0:0:0:
192,192,371997,1,0,0:0:0:0:
64,192,371997,1,0,0:0:0:0:
192,192,372087,1,0,0:0:0:0:
320,192,372087,1,0,0:0:0:0:
64,192,372176,1,0,0:0:0:0:
448,192,372176,1,0,0:0:0:0:
320,192,372265,1,0,0:0:0:0:
448,192,372355,1,0,0:0:0:0:
192,192,372355,1,0,0:0:0:0:
64,192,372444,1,0,0:0:0:0:
320,192,372444,1,0,0:0:0:0:
192,192,372533,1,4,0:0:0:0:
448,192,372533,1,2,0:0:0:0:
320,192,372533,1,4,0:0:0:0:
64,192,372533,1,4,0:0:0:0:
192,192,372712,1,4,0:0:0:0:
64,192,372712,1,4,0:0:0:0:
448,192,372712,1,2,0:0:0:0:
320,192,372712,1,4,0:0:0:0:
64,192,372890,1,0,0:0:0:0:
192,192,372890,1,0,0:0:0:0:
448,192,372980,1,0,0:0:0:0:
320,192,372980,1,0,0:0:0:0:
192,192,373069,1,0,0:0:0:0:
448,192,373069,1,0,0:0:0:0:
320,192,373158,1,0,0:0:0:0:
64,192,373158,1,0,0:0:0:0:
64,192,373247,1,0,0:0:0:0:
192,192,373247,1,0,0:0:0:0:
448,192,373337,1,0,0:0:0:0:
320,192,373337,1,0,0:0:0:0:
192,192,373426,1,4,0:0:0:0:
448,192,373426,1,2,0:0:0:0:
64,192,373426,1,4,0:0:0:0:
192,192,373515,1,0,0:0:0:0:
448,192,373605,1,2,0:0:0:0:
320,192,373605,1,4,0:0:0:0:
64,192,373605,1,4,0:0:0:0:
320,192,373783,1,2,0:0:0:0:
64,192,373783,1,4,0:0:0:0:
192,192,373783,1,4,0:0:0:0:
320,192,373962,1,0,0:0:0:0:
448,192,373962,1,0,0:0:0:0:
64,192,374051,1,0,0:0:0:0:
192,192,374051,1,0,0:0:0:0:
64,192,374140,1,0,0:0:0:0:
320,192,374140,1,0,0:0:0:0:
192,192,374230,1,0,0:0:0:0:
448,192,374230,1,0,0:0:0:0:
448,192,374319,1,0,0:0:0:0:
320,192,374319,1,0,0:0:0:0:
192,192,374408,1,0,0:0:0:0:
64,192,374408,1,0,0:0:0:0:
64,192,374497,1,4,0:0:0:0:
448,192,374497,1,2,0:0:0:0:
320,192,374497,1,4,0:0:0:0:
320,192,374587,1,0,0:0:0:0:
192,192,374676,1,4,0:0:0:0:
448,192,374676,1,2,0:0:0:0:
64,192,374676,1,4,0:0:0:0:
64,192,374855,1,4,0:0:0:0:
320,192,374855,1,4,0:0:0:0:
448,192,374855,1,2,0:0:0:0:
192,192,374855,1,4,0:0:0:0:
64,192,375033,1,0,0:0:0:0:
192,192,375033,1,0,0:0:0:0:
320,192,375122,1,0,0:0:0:0:
448,192,375122,1,0,0:0:0:0:
448,192,375212,1,0,0:0:0:0:
192,192,375212,1,0,0:0:0:0:
64,192,375301,1,0,0:0:0:0:
320,192,375301,1,0,0:0:0:0:
192,192,375390,1,0,0:0:0:0:
64,192,375390,1,0,0:0:0:0:
448,192,375390,1,0,0:0:0:0:
192,192,375480,1,0,0:0:0:0:
64,192,375569,1,4,0:0:0:0:
448,192,375569,1,2,0:0:0:0:
320,192,375569,1,4,0:0:0:0:
320,192,375658,1,0,0:0:0:0:
64,192,375747,1,4,0:0:0:0:
448,192,375747,1,2,0:0:0:0:
192,192,375747,1,4,0:0:0:0:
320,192,375837,1,0,0:0:0:0:
448,192,375926,1,2,0:0:0:0:
320,192,375926,1,4,0:0:0:0:
192,192,375926,1,4,0:0:0:0:
64,192,375926,1,4,0:0:0:0:
320,192,376105,1,0,0:0:0:0:
448,192,376105,1,0,0:0:0:0:
64,192,376194,1,0,0:0:0:0:
192,192,376194,1,0,0:0:0:0:
64,192,376283,1,0,0:0:0:0:
448,192,376283,1,0,0:0:0:0:
192,192,376372,1,0,0:0:0:0:
320,192,376372,1,0,0:0:0:0:
64,192,376462,1,0,0:0:0:0:
448,192,376462,1,0,0:0:0:0:
320,192,376551,1,0,0:0:0:0:
192,192,376640,1,0,0:0:0:0:
448,192,376640,1,0,0:0:0:0:
320,192,376730,1,0,0:0:0:0:
64,192,376730,1,0,0:0:0:0:
320,192,376819,1,4,0:0:0:0:
448,192,376819,1,2,0:0:0:0:
192,192,376819,1,4,0:0:0:0:
64,192,376819,1,4,0:0:0:0:
448,192,376997,1,2,0:0:0:0:
320,192,376997,1,4,0:0:0:0:
192,192,376997,1,4,0:0:0:0:
64,192,376997,1,4,0:0:0:0:
448,192,377176,1,0,0:0:0:0:
320,192,377176,1,0,0:0:0:0:
192,192,377265,1,0,0:0:0:0:
64,192,377265,1,0,0:0:0:0:
64,192,377355,1,0,0:0:0:0:
448,192,377355,1,0,0:0:0:0:
320,192,377444,1,0,0:0:0:0:
192,192,377444,1,0,0:0:0:0:
64,192,377533,1,0,0:0:0:0:
192,192,377533,1,0,0:0:0:0:
448,192,377622,1,0,0:0:0:0:
320,192,377622,1,0,0:0:0:0:
64,192,377712,1,4,0:0:0:0:
448,192,377712,1,2,0:0:0:0:
192,192,377712,1,4,0:0:0:0:
192,192,377801,1,0,0:0:0:0:
320,192,377801,1,0,0:0:0:0:
448,192,377890,1,2,0:0:0:0:
64,192,377890,1,4,0:0:0:0:
320,192,377890,1,4,0:0:0:0:
192,192,378069,1,4,0:0:0:0:
64,192,378069,1,4,0:0:0:0:
448,192,378069,1,2,0:0:0:0:
320,192,378247,1,0,0:0:0:0:
192,192,378337,1,0,0:0:0:0:
64,192,378426,1,4,0:0:0:0:
320,192,378426,1,4,0:0:0:0:
448,192,378426,1,2,0:0:0:0:
192,192,378515,1,0,0:0:0:0:
64,192,378605,1,4,0:0:0:0:
320,192,378605,1,4,0:0:0:0:
448,192,378605,1,2,0:0:0:0:
320,192,378783,1,0,0:0:0:0:
64,192,378783,1,0,0:0:0:0:
64,192,378962,1,4,0:0:0:0:
192,192,378962,1,4,0:0:0:0:
320,192,378962,1,4,0:0:0:0:
448,192,378962,1,2,0:0:0:0:
448,192,379140,1,2,0:0:0:0:
320,192,379140,1,4,0:0:0:0:
192,192,379140,1,4,0:0:0:0:
64,192,379140,1,4,0:0:0:0:
64,192,379319,1,0,0:0:0:0:
192,192,379409,1,0,0:0:0:0:
320,192,379499,1,0,0:0:0:0:
448,192,379589,1,0,0:0:0:0:
64,192,379678,1,0,0:0:0:0:
192,192,379678,1,0,0:0:0:0:
320,192,379768,1,0,0:0:0:0:
448,192,379858,1,2,0:0:0:0:
64,192,379858,1,0,0:0:0:0:
192,192,379948,1,0,0:0:0:0:
320,192,380038,1,2,0:0:0:0:
448,192,380038,1,0,0:0:0:0:
64,192,380128,1,0,0:0:0:0:
192,192,380217,1,2,0:0:0:0:
448,192,380217,1,0,0:0:0:0:
320,192,380306,1,0,0:0:0:0:
192,192,380395,1,0,0:0:0:0:
64,192,380395,1,0,0:0:0:0:
448,192,380484,1,0,0:0:0:0:
320,192,380574,1,0,0:0:0:0:
192,192,380663,1,0,0:0:0:0:
64,192,380752,1,0,0:0:0:0:
192,192,380842,1,0,0:0:0:0:
320,192,380931,1,0,0:0:0:0:
448,192,381020,1,2,0:0:0:0:
448,192,381109,1,2,0:0:0:0:
64,192,381288,1,2,0:0:0:0:
320,192,381288,1,0,0:0:0:0:
192,192,381470,1,0,0:0:0:0:
448,192,381653,1,0,0:0:0:0:
192,192,381836,1,0,0:0:0:0:
64,192,382019,1,0,0:0:0:0:
320,192,382111,1,2,0:0:0:0:
320,192,382202,1,2,0:0:0:0:
192,192,382202,1,0,0:0:0:0:
64,192,382385,1,0,0:0:0:0:
192,192,382385,1,0,0:0:0:0:
448,192,382385,1,2,0:0:0:0:
320,192,382566,1,0,0:0:0:0:
448,192,382748,1,0,0:0:0:0:
320,192,382930,1,0,0:0:0:0:
192,192,383124,1,0,0:0:0:0:
64,192,383318,1,0,0:0:0:0:
192,192,383512,1,0,0:0:0:0:
320,192,383706,1,0,0:0:0:0:
448,192,383900,1,0,0:0:0:0:
320,192,384095,1,0,0:0:0:0:
192,192,384291,1,0,0:0:0:0:
64,192,384487,1,0,0:0:0:0:
64,192,384683,1,0,0:0:0:0:
192,192,384889,1,0,0:0:0:0:
320,192,385095,1,0,0:0:0:0:
448,192,385301,1,0,0:0:0:0:
320,192,385518,1,0,0:0:0:0:
192,192,385735,1,0,0:0:0:0:
64,192,385953,1,0,0:0:0:0:
448,192,385953,1,0,0:0:0:0:
320,192,386116,1,0,0:0:0:0:
448,192,386279,1,0,0:0:0:0:
192,192,386279,1,4,0:0:0:0:
64,192,386279,1,0,0:0:0:0:
64,192,386651,1,0,0:0:0:0:
320,192,386651,1,4,0:0:0:0:
448,192,386651,1,0,0:0:0:0:
64,192,387024,1,0,0:0:0:0:
192,192,387024,1,4,0:0:0:0:
320,192,387397,1,4,0:0:0:0:
448,192,387397,1,0,0:0:0:0:
64,192,387769,1,0,0:0:0:0:
192,192,387769,1,4,0:0:0:0:
320,192,387893,1,4,0:0:0:0:
448,192,387893,1,0,0:0:0:0:
64,192,388018,1,0,0:0:0:0:
192,192,388018,1,4,0:0:0:0:
320,192,388142,1,4,0:0:0:0:
448,192,388142,1,0,0:0:0:0:
64,192,388514,1,0,0:0:0:0:
192,192,388514,1,4,0:0:0:0:
448,192,388514,1,0,0:0:0:0:
64,192,388821,1,0,0:0:0:0:
320,192,388821,1,4,0:0:0:0:
448,192,388821,1,0,0:0:0:0:
192,192,389129,1,0,0:0:0:0:
320,192,389129,1,4,0:0:0:0:
448,192,389129,1,0,0:0:0:0:
64,192,389437,1,0,0:0:0:0:
192,192,389437,1,4,0:0:0:0:
448,192,389437,1,0,0:0:0:0:
320,192,389744,1,4,0:0:0:0:
448,192,389744,1,0,0:0:0:0:
192,192,389847,1,4,0:0:0:0:
64,192,389847,1,0,0:0:0:0:
320,192,389949,1,4,0:0:0:0:
448,192,389949,1,0,0:0:0:0:
64,192,390052,1,0,0:0:0:0:
192,192,390052,1,4,0:0:0:0:
448,192,390052,1,2,0:0:0:0:
448,192,390359,1,2,0:0:0:0:
64,192,390359,1,0,0:0:0:0:
320,192,390359,1,4,0:0:0:0:
192,192,390644,1,0,0:0:0:0:
320,192,390644,1,4,0:0:0:0:
448,192,390644,1,2,0:0:0:0:
64,192,390930,1,0,0:0:0:0:
192,192,390930,1,4,0:0:0:0:
320,192,390930,1,2,0:0:0:0:
64,192,391216,1,0,0:0:0:0:
192,192,391216,1,4,0:0:0:0:
448,192,391216,1,2,0:0:0:0:
320,192,391501,1,4,0:0:0:0:
448,192,391501,1,2,0:0:0:0:
64,192,391597,1,0,0:0:0:0:
192,192,391597,1,4,0:0:0:0:
448,192,391692,1,0,0:0:0:0:
64,192,391787,1,0,0:0:0:0:
192,192,391787,1,0,0:0:0:0:
320,192,391787,1,2,0:0:0:0:
448,192,391930,1,2,0:0:0:0:
448,192,392078,1,2,0:0:0:0:
192,192,392078,1,0,0:0:0:0:
64,192,392078,1,0,0:0:0:0:
320,192,392270,1,0,0:0:0:0:
448,192,392334,1,2,0:0:0:0:
448,192,392462,1,2,0:0:0:0:
64,192,392462,1,0,0:0:0:0:
448,192,392654,1,2,0:0:0:0:
192,192,392654,1,0,0:0:0:0:
448,192,392847,1,2,0:0:0:0:
64,192,392847,1,0,0:0:0:0:
320,192,393039,1,2,0:0:0:0:
192,192,393039,1,0,0:0:0:0:
448,192,393231,1,2,0:0:0:0:
64,192,393231,1,0,0:0:0:0:
320,192,393424,1,2,0:0:0:0:
64,192,393424,1,0,0:0:0:0:
192,192,393424,1,0,0:0:0:0:
448,192,393616,1,2,0:0:0:0:
192,192,393616,1,0,0:0:0:0:
192,192,394001,1,0,0:0:0:0:
448,192,394001,1,2,0:0:0:0:
64,192,394193,1,0,0:0:0:0:
320,192,394193,1,2,0:0:0:0:
64,192,394385,1,0,0:0:0:0:
448,192,394385,1,2,0:0:0:0:
192,192,394385,1,0,0:0:0:0:
320,192,394578,1,0,0:0:0:0:
448,192,394578,1,0,0:0:0:0:
192,192,394674,1,0,0:0:0:0:
64,192,394770,1,0,0:0:0:0:
448,192,394770,1,0,0:0:0:0:
320,192,394866,1,0,0:0:0:0:
192,192,394962,1,0,0:0:0:0:
64,192,394962,1,0,0:0:0:0:
448,192,395154,1,0,0:0:0:0:
320,192,395154,1,0,0:0:0:0:
64,192,395347,1,0,0:0:0:0:
192,192,395347,1,0,0:0:0:0:
64,192,395539,1,0,0:0:0:0:
320,192,395539,1,0,0:0:0:0:
64,192,395731,1,0,0:0:0:0:
448,192,395731,1,0,0:0:0:0:
64,192,395924,1,0,0:0:0:0:
448,192,395924,1,0,0:0:0:0:
192,192,396116,1,0,0:0:0:0:
320,192,396212,1,0,0:0:0:0:
448,192,396308,1,0,0:0:0:0:
64,192,396693,1,0,0:0:0:0:
192,192,396693,1,0,0:0:0:0:
320,192,396693,1,2,0:0:0:0:
320,192,396949,1,2,0:0:0:0:
64,192,397078,1,0,0:0:0:0:
320,192,397078,1,2,0:0:0:0:
320,192,397270,1,2,0:0:0:0:
448,192,397270,1,0,0:0:0:0:
320,192,397462,1,2,0:0:0:0:
64,192,397462,1,0,0:0:0:0:
192,192,397654,1,0,0:0:0:0:
448,192,397654,1,2,0:0:0:0:
64,192,397847,1,0,0:0:0:0:
320,192,397847,1,2,0:0:0:0:
192,192,398039,1,0,0:0:0:0:
320,192,398231,1,2,0:0:0:0:
448,192,398231,1,0,0:0:0:0:
192,192,398616,1,0,0:0:0:0:
320,192,398616,1,2,0:0:0:0:
64,192,398808,1,0,0:0:0:0:
320,192,399001,1,0,0:0:0:0:
448,192,399001,1,2,0:0:0:0:
64,192,399193,1,0,0:0:0:0:
192,192,399193,1,0,0:0:0:0:
320,192,399289,1,0,0:0:0:0:
64,192,399385,1,0,0:0:0:0:
448,192,399385,1,0,0:0:0:0:
192,192,399481,1,0,0:0:0:0:
320,192,399578,1,0,0:0:0:0:
448,192,399578,1,0,0:0:0:0:
64,192,399770,1,0,0:0:0:0:
192,192,399770,1,0,0:0:0:0:
320,192,399962,1,0,0:0:0:0:
448,192,399962,1,0,0:0:0:0:
192,192,400154,1,0,0:0:0:0:
448,192,400154,1,0,0:0:0:0:
64,192,400347,1,0,0:0:0:0:
448,192,400347,1,0,0:0:0:0:
64,192,400539,1,0,0:0:0:0:
448,192,400539,1,0,0:0:0:0:
320,192,400731,1,0,0:0:0:0:
64,192,400924,1,0,0:0:0:0:
448,192,400924,1,0,0:0:0:0:
320,192,401212,1,2,0:0:0:0:
64,192,401315,1,0,0:0:0:0:
192,192,401315,1,2,0:0:0:0:
448,192,401315,1,0,0:0:0:0:
192,192,401592,1,2,0:0:0:0:
192,192,401731,1,2,0:0:0:0:
448,192,401731,1,0,0:0:0:0:
192,192,401940,1,2,0:0:0:0:
64,192,401940,1,0,0:0:0:0:
192,192,402148,1,2,0:0:0:0:
448,192,402148,1,0,0:0:0:0:
64,192,402356,1,0,0:0:0:0:
320,192,402356,1,2,0:0:0:0:
192,192,402565,1,2,0:0:0:0:
448,192,402565,1,0,0:0:0:0:
64,192,402773,1,0,0:0:0:0:
320,192,402773,1,2,0:0:0:0:
448,192,402981,1,0,0:0:0:0:
192,192,403190,1,0,0:0:0:0:
64,192,403398,1,2,0:0:0:0:
320,192,403398,1,0,0:0:0:0:
192,192,403606,1,2,0:0:0:0:
448,192,403606,1,0,0:0:0:0:
64,192,403815,1,2,0:0:0:0:
448,192,403815,1,0,0:0:0:0:
192,192,404023,1,0,0:0:0:0:
320,192,404127,1,0,0:0:0:0:
64,192,404231,1,0,0:0:0:0:
448,192,404231,1,2,0:0:0:0:
192,192,404335,1,0,0:0:0:0:
320,192,404440,1,0,0:0:0:0:
448,192,404648,1,2,0:0:0:0:
192,192,404648,1,0,0:0:0:0:
64,192,404882,1,0,0:0:0:0:
320,192,404882,1,2,0:0:0:0:
64,192,405116,1,0,0:0:0:0:
192,192,405116,1,0,0:0:0:0:
448,192,405116,1,2,0:0:0:0:
320,192,405361,1,0,0:0:0:0:
448,192,405607,1,2,0:0:0:0:
64,192,405607,1,0,0:0:0:0:
192,192,405898,1,0,0:0:0:0:
320,192,406189,1,2,0:0:0:0:
192,192,406189,1,0,0:0:0:0:
448,192,406489,1,0,0:0:0:0:
64,192,406789,1,4,0:0:0:0:
192,192,406789,1,4,0:0:0:0:
320,192,406789,1,2,0:0:0:0:
448,192,406789,1,4,0:0:0:0:
192,192,407418,1,4,0:0:0:0:
64,192,407418,1,0,0:0:0:0:
320,192,407486,1,0,0:0:0:0:
448,192,407555,1,0,0:0:0:0:
64,192,407624,1,0,0:0:0:0:
192,192,407693,1,0,0:0:0:0:
320,192,407728,1,4,0:0:0:0:
448,192,407762,1,0,0:0:0:0:
192,192,407831,1,0,0:0:0:0:
320,192,407900,1,0,0:0:0:0:
64,192,407969,1,0,0:0:0:0:
192,192,408038,1,0,0:0:0:0:
320,192,408090,1,0,0:0:0:0:
448,192,408142,1,0,0:0:0:0:
320,192,408193,1,0,0:0:0:0:
192,192,408245,1,0,0:0:0:0:
448,192,408314,1,0,0:0:0:0:
320,192,408383,1,0,0:0:0:0:
64,192,408452,1,0,0:0:0:0:
448,192,408521,1,0,0:0:0:0:
192,192,408590,1,0,0:0:0:0:
64,192,408659,1,0,0:0:0:0:
320,192,408728,1,0,0:0:0:0:
192,192,408797,1,0,0:0:0:0:
448,192,408866,1,4,0:0:0:0:
64,192,408866,1,0,0:0:0:0:
192,192,408969,1,0,0:0:0:0:
320,192,409073,1,0,0:0:0:0:
64,192,409176,1,0,0:0:0:0:
320,192,409280,1,0,0:0:0:0:
192,192,409452,1,0,0:0:0:0:
320,192,409486,1,0,0:0:0:0:
64,192,409486,1,0,0:0:0:0:
448,192,409521,1,0,0:0:0:0:
192,192,409590,1,0,0:0:0:0:
320,192,409658,1,0,0:0:0:0:
448,192,409727,1,0,0:0:0:0:
64,192,409796,1,0,0:0:0:0:
320,192,409865,1,0,0:0:0:0:
448,192,409934,1,0,0:0:0:0:
64,192,410003,1,0,0:0:0:0:
192,192,410003,1,0,0:0:0:0:
448,192,410072,1,0,0:0:0:0:
64,192,410141,1,0,0:0:0:0:
192,192,410210,1,0,0:0:0:0:
448,192,410262,1,0,0:0:0:0:
64,192,410314,1,0,0:0:0:0:
320,192,410365,1,0,0:0:0:0:
448,192,410417,1,0,0:0:0:0:
192,192,410486,1,0,0:0:0:0:
320,192,410555,1,0,0:0:0:0:
448,192,410624,1,0,0:0:0:0:
320,192,410693,1,0,0:0:0:0:
192,192,410762,1,0,0:0:0:0:
64,192,410831,1,0,0:0:0:0:
448,192,410900,1,0,0:0:0:0:
320,192,410969,1,0,0:0:0:0:
192,192,411038,1,0,0:0:0:0:
64,192,411141,1,0,0:0:0:0:
448,192,411245,1,0,0:0:0:0:
64,192,411373,1,4,0:0:0:0:
320,192,411373,1,0,0:0:0:0:
192,192,411463,1,0,0:0:0:0:
320,192,411554,1,0,0:0:0:0:
448,192,411736,1,0,0:0:0:0:
64,192,411873,1,0,0:0:0:0:
192,192,411983,1,0,0:0:0:0:
320,192,412090,1,0,0:0:0:0:
448,192,412090,1,2,0:0:0:0:
192,192,412197,1,0,0:0:0:0:
320,192,412304,1,0,0:0:0:0:
448,192,412304,1,2,0:0:0:0:
192,192,412411,1,0,0:0:0:0:
320,192,412518,1,0,0:0:0:0:
448,192,412518,1,2,0:0:0:0:
192,192,412625,1,0,0:0:0:0:
320,192,412745,1,0,0:0:0:0:
448,192,412745,1,2,0:0:0:0:
192,192,412865,1,0,0:0:0:0:
64,192,413030,1,4,0:0:0:0:
320,192,413030,1,0,0:0:0:0:
448,192,413030,1,2,0:0:0:0:
64,192,413170,1,4,0:0:0:0:
448,192,413170,1,2,0:0:0:0:
320,192,413170,1,0,0:0:0:0:
448,192,413310,1,2,0:0:0:0:
320,192,413310,1,0,0:0:0:0:
64,192,413310,1,4,0:0:0:0:
64,192,413450,1,4,0:0:0:0:
320,192,413450,1,0,0:0:0:0:
448,192,413450,1,2,0:0:0:0:
448,192,413590,1,2,0:0:0:0:
320,192,413590,1,0,0:0:0:0:
64,192,413590,1,4,0:0:0:0:
64,192,413730,1,4,0:0:0:0:
320,192,413730,1,0,0:0:0:0:
448,192,413730,1,2,0:0:0:0:
64,192,413871,1,4,0:0:0:0:
320,192,413871,1,0,0:0:0:0:
448,192,413871,1,2,0:0:0:0:
64,192,413979,1,4,0:0:0:0:
320,192,413979,1,0,0:0:0:0:
448,192,413979,1,2,0:0:0:0:
64,192,414104,1,4,0:0:0:0:
448,192,414104,1,2,0:0:0:0:
320,192,414104,1,0,0:0:0:0:
448,192,414190,1,2,0:0:0:0:
320,192,414190,1,0,0:0:0:0:
64,192,414190,1,4,0:0:0:0:
448,192,414299,1,2,0:0:0:0:
320,192,414299,1,0,0:0:0:0:
64,192,414299,1,4,0:0:0:0:
64,192,414397,1,4,0:0:0:0:
320,192,414397,1,0,0:0:0:0:
448,192,414397,1,2,0:0:0:0:
448,192,414495,1,2,0:0:0:0:
320,192,414495,1,0,0:0:0:0:
64,192,414495,1,4,0:0:0:0:
64,192,414604,1,4,0:0:0:0:
320,192,414604,1,0,0:0:0:0:
448,192,414604,1,2,0:0:0:0:
64,192,414744,1,4,0:0:0:0:
320,192,414744,1,0,0:0:0:0:
448,192,414744,1,2,0:0:0:0:
448,192,414931,1,2,0:0:0:0:
320,192,414931,1,0,0:0:0:0:
64,192,414931,1,4,0:0:0:0:
64,192,415124,1,4,0:0:0:0:
448,192,415124,1,4,0:0:0:0:
320,192,415124,1,2,0:0:0:0:
64,192,415224,1,0,0:0:0:0:
448,192,415224,1,0,0:0:0:0:
192,192,415324,1,0,0:0:0:0:
320,192,415324,1,0,0:0:0:0:
192,192,415424,1,0,0:0:0:0:
320,192,415424,1,0,0:0:0:0:
64,192,415524,1,0,0:0:0:0:
448,192,415524,1,0,0:0:0:0:
64,192,415624,1,0,0:0:0:0:
448,192,415624,1,0,0:0:0:0:
192,192,415724,1,0,0:0:0:0:
320,192,415724,1,0,0:0:0:0:
192,192,415824,1,0,0:0:0:0:
320,192,415824,1,0,0:0:0:0:
64,192,415924,1,0,0:0:0:0:
448,192,415924,1,0,0:0:0:0:
64,192,416024,1,0,0:0:0:0:
448,192,416024,1,0,0:0:0:0:
64,192,416124,1,4,0:0:0:0:
192,192,416124,1,2,0:0:0:0:
320,192,416124,1,4,0:0:0:0:
448,192,416124,1,4,0:0:0:0:
448,192,416324,1,4,0:0:0:0:
192,192,416324,1,2,0:0:0:0:
64,192,416324,1,4,0:0:0:0:
320,192,416324,1,4,0:0:0:0:
64,192,416524,1,0,0:0:0:0:
320,192,416524,1,0,0:0:0:0:
64,192,416624,1,0,0:0:0:0:
320,192,416624,1,0,0:0:0:0:
192,192,416724,1,0,0:0:0:0:
448,192,416724,1,0,0:0:0:0:
192,192,416824,1,0,0:0:0:0:
448,192,416824,1,0,0:0:0:0:
64,192,416924,1,0,0:0:0:0:
320,192,416924,1,0,0:0:0:0:
320,192,417024,1,0,0:0:0:0:
192,192,417024,1,0,0:0:0:0:
192,192,417124,1,2,0:0:0:0:
448,192,417124,1,4,0:0:0:0:
320,192,417224,1,0,0:0:0:0:
448,192,417224,1,0,0:0:0:0:
64,192,417324,1,4,0:0:0:0:
192,192,417324,1,2,0:0:0:0:
320,192,417324,1,4,0:0:0:0:
192,192,417524,1,2,0:0:0:0:
320,192,417524,1,4,0:0:0:0:
448,192,417524,1,4,0:0:0:0:
64,192,417724,1,0,0:0:0:0:
448,192,417724,1,0,0:0:0:0:
64,192,417824,1,0,0:0:0:0:
448,192,417824,1,0,0:0:0:0:
192,192,417924,1,0,0:0:0:0:
320,192,417924,1,0,0:0:0:0:
192,192,418024,1,0,0:0:0:0:
320,192,418024,1,0,0:0:0:0:
64,192,418124,1,0,0:0:0:0:
448,192,418124,1,0,0:0:0:0:
64,192,418224,1,0,0:0:0:0:
448,192,418224,1,0,0:0:0:0:
64,192,418324,1,4,0:0:0:0:
192,192,418324,1,4,0:0:0:0:
320,192,418324,1,2,0:0:0:0:
192,192,418424,1,0,0:0:0:0:
448,192,418424,1,0,0:0:0:0:
64,192,418524,1,4,0:0:0:0:
320,192,418524,1,2,0:0:0:0:
448,192,418524,1,4,0:0:0:0:
64,192,418724,1,4,0:0:0:0:
192,192,418724,1,2,0:0:0:0:
448,192,418724,1,4,0:0:0:0:
64,192,418924,1,0,0:0:0:0:
320,192,418924,1,0,0:0:0:0:
320,192,419024,1,0,0:0:0:0:
192,192,419124,1,0,0:0:0:0:
448,192,419124,1,0,0:0:0:0:
192,192,419224,1,0,0:0:0:0:
64,192,419324,1,0,0:0:0:0:
320,192,419324,1,0,0:0:0:0:
448,192,419524,1,2,0:0:0:0:
64,192,419524,1,4,0:0:0:0:
192,192,419524,1,4,0:0:0:0:
192,192,419624,1,0,0:0:0:0:
320,192,419624,1,0,0:0:0:0:
64,192,419724,1,4,0:0:0:0:
448,192,419724,1,2,0:0:0:0:
320,192,419724,1,4,0:0:0:0:
192,192,419824,1,0,0:0:0:0:
320,192,419824,1,0,0:0:0:0:
64,192,419924,1,4,0:0:0:0:
192,192,419924,1,4,0:0:0:0:
448,192,419924,1,2,0:0:0:0:
320,192,420024,1,0,0:0:0:0:
64,192,420124,1,0,0:0:0:0:
192,192,420124,1,0,0:0:0:0:
64,192,420224,1,0,0:0:0:0:
320,192,420224,1,0,0:0:0:0:
448,192,420324,1,0,0:0:0:0:
320,192,420324,1,0,0:0:0:0:
192,192,420424,1,0,0:0:0:0:
448,192,420424,1,0,0:0:0:0:
64,192,420524,1,0,0:0:0:0:
192,192,420524,1,0,0:0:0:0:
64,192,420624,1,0,0:0:0:0:
320,192,420624,1,0,0:0:0:0:
448,192,420724,1,0,0:0:0:0:
320,192,420724,1,0,0:0:0:0:
64,192,420824,1,0,0:0:0:0:
192,192,420824,1,0,0:0:0:0:
64,192,420924,1,4,0:0:0:0:
320,192,420924,1,4,0:0:0:0:
448,192,420924,1,2,0:0:0:0:
192,192,420924,1,4,0:0:0:0:
64,192,421124,1,4,0:0:0:0:
192,192,421124,1,4,0:0:0:0:
320,192,421124,1,4,0:0:0:0:
448,192,421124,1,2,0:0:0:0:
320,192,421224,1,0,0:0:0:0:
64,192,421324,1,0,0:0:0:0:
192,192,421324,1,0,0:0:0:0:
64,192,421424,1,0,0:0:0:0:
448,192,421424,1,0,0:0:0:0:
192,192,421524,1,0,0:0:0:0:
320,192,421524,1,0,0:0:0:0:
320,192,421624,1,0,0:0:0:0:
64,192,421724,1,0,0:0:0:0:
192,192,421724,1,0,0:0:0:0:
64,192,421824,1,0,0:0:0:0:
192,192,421924,1,2,0:0:0:0:
320,192,421924,1,4,0:0:0:0:
64,192,422124,1,4,0:0:0:0:
320,192,422124,1,2,0:0:0:0:
448,192,422124,1,4,0:0:0:0:
64,192,422324,1,4,0:0:0:0:
192,192,422324,1,2,0:0:0:0:
448,192,422324,1,4,0:0:0:0:
192,192,422424,1,0,0:0:0:0:
320,192,422524,1,0,0:0:0:0:
448,192,422524,1,0,0:0:0:0:
64,192,422624,1,0,0:0:0:0:
448,192,422624,1,0,0:0:0:0:
192,192,422724,1,0,0:0:0:0:
320,192,422724,1,0,0:0:0:0:
192,192,422824,1,0,0:0:0:0:
64,192,422824,1,0,0:0:0:0:
320,192,422924,1,0,0:0:0:0:
448,192,422924,1,0,0:0:0:0:
64,192,422924,1,0,0:0:0:0:
448,192,423024,1,0,0:0:0:0:
192,192,423124,1,2,0:0:0:0:
320,192,423124,1,4,0:0:0:0:
64,192,423324,1,4,0:0:0:0:
192,192,423324,1,2,0:0:0:0:
448,192,423324,1,4,0:0:0:0:
64,192,423524,1,4,0:0:0:0:
192,192,423524,1,2,0:0:0:0:
320,192,423524,1,4,0:0:0:0:
448,192,423524,1,4,0:0:0:0:
448,192,423624,1,0,0:0:0:0:
448,192,423724,1,0,0:0:0:0:
64,192,423724,1,0,0:0:0:0:
448,192,423824,1,0,0:0:0:0:
192,192,423824,1,0,0:0:0:0:
448,192,423924,1,0,0:0:0:0:
64,192,423924,1,0,0:0:0:0:
448,192,424024,1,0,0:0:0:0:
192,192,424024,1,0,0:0:0:0:
448,192,424124,1,0,0:0:0:0:
64,192,424124,1,0,0:0:0:0:
448,192,424224,1,0,0:0:0:0:
448,192,424324,1,0,0:0:0:0:
192,192,424324,1,0,0:0:0:0:
448,192,424424,1,0,0:0:0:0:
64,192,424524,1,0,0:0:0:0:
192,192,424524,1,2,0:0:0:0:
448,192,424624,1,0,0:0:0:0:
320,192,424624,1,2,0:0:0:0:
64,192,424724,1,4,0:0:0:0:
192,192,424724,1,4,0:0:0:0:
320,192,424724,1,4,0:0:0:0:
448,192,424724,1,2,0:0:0:0:
448,192,424924,1,0,0:0:0:0:
320,192,424924,1,0,0:0:0:0:
448,192,425024,1,0,0:0:0:0:
192,192,425024,1,0,0:0:0:0:
320,192,425124,1,0,0:0:0:0:
192,192,425124,1,0,0:0:0:0:
320,192,425224,1,0,0:0:0:0:
64,192,425224,1,0,0:0:0:0:
192,192,425324,1,0,0:0:0:0:
64,192,425324,1,0,0:0:0:0:
448,192,425524,1,0,0:0:0:0:
320,192,425524,1,0,0:0:0:0:
448,192,425724,1,2,0:0:0:0:
320,192,425724,1,4,0:0:0:0:
64,192,425724,1,4,0:0:0:0:
192,192,425724,1,4,0:0:0:0:
448,192,425924,1,2,0:0:0:0:
320,192,425924,1,4,0:0:0:0:
192,192,425924,1,4,0:0:0:0:
64,192,425924,1,4,0:0:0:0:
64,192,426124,1,0,0:0:0:0:
192,192,426124,1,0,0:0:0:0:
320,192,426224,1,0,0:0:0:0:
64,192,426224,1,0,0:0:0:0:
320,192,426324,1,0,0:0:0:0:
192,192,426324,1,0,0:0:0:0:
448,192,426424,1,0,0:0:0:0:
192,192,426424,1,0,0:0:0:0:
320,192,426524,1,0,0:0:0:0:
448,192,426524,1,0,0:0:0:0:
64,192,426724,1,2,0:0:0:0:
192,192,426724,1,4,0:0:0:0:
64,192,426924,1,2,0:0:0:0:
320,192,426924,1,4,0:0:0:0:
448,192,426924,1,4,0:0:0:0:
64,192,427124,1,2,0:0:0:0:
192,192,427124,1,4,0:0:0:0:
448,192,427124,1,4,0:0:0:0:
320,192,427124,1,4,0:0:0:0:
192,192,427324,1,0,0:0:0:0:
320,192,427424,1,0,0:0:0:0:
64,192,427524,1,4,0:0:0:0:
192,192,427524,1,4,0:0:0:0:
448,192,427524,1,2,0:0:0:0:
320,192,427624,1,0,0:0:0:0:
64,192,427724,1,4,0:0:0:0:
192,192,427724,1,4,0:0:0:0:
448,192,427724,1,2,0:0:0:0:
192,192,427924,1,0,0:0:0:0:
448,192,427924,1,0,0:0:0:0:
64,192,428124,1,4,0:0:0:0:
192,192,428124,1,4,0:0:0:0:
320,192,428124,1,4,0:0:0:0:
448,192,428124,1,2,0:0:0:0:
64,192,428324,1,4,0:0:0:0:
192,192,428324,1,4,0:0:0:0:
320,192,428324,1,4,0:0:0:0:
448,192,428324,1,2,0:0:0:0:
64,192,428524,1,0,0:0:0:0:
192,192,428624,1,0,0:0:0:0:
320,192,428724,1,0,0:0:0:0:
448,192,428824,1,0,0:0:0:0:
64,192,428924,1,0,0:0:0:0:
192,192,428924,1,0,0:0:0:0:
320,192,429024,1,0,0:0:0:0:
448,192,429124,1,0,0:0:0:0:
64,192,429124,1,2,0:0:0:0:
192,192,429224,1,0,0:0:0:0:
320,192,429324,1,0,0:0:0:0:
64,192,429324,1,2,0:0:0:0:
448,192,429324,1,0,0:0:0:0:
448,192,429524,1,0,0:0:0:0:
192,192,429524,1,0,0:0:0:0:
64,192,429524,1,2,0:0:0:0:
320,192,429624,1,0,0:0:0:0:
64,192,429724,1,0,0:0:0:0:
192,192,429724,1,0,0:0:0:0:
320,192,429824,1,0,0:0:0:0:
448,192,429824,1,0,0:0:0:0:
64,192,429924,1,0,0:0:0:0:
192,192,429974,1,0,0:0:0:0:
320,192,430024,1,0,0:0:0:0:
448,192,430024,1,0,0:0:0:0:
64,192,430124,1,0,0:0:0:0:
192,192,430124,1,0,0:0:0:0:
448,192,430224,1,0,0:0:0:0:
320,192,430274,1,0,0:0:0:0:
192,192,430324,1,0,0:0:0:0:
64,192,430424,1,0,0:0:0:0:
192,192,430524,1,0,0:0:0:0:
320,192,430624,1,0,0:0:0:0:
448,192,430724,1,0,0:0:0:0:
192,192,430818,1,0,0:0:0:0:
320,192,430912,1,0,0:0:0:0:
448,192,431007,1,0,0:0:0:0:
64,192,431091,1,0,0:0:0:0:
320,192,431185,1,0,0:0:0:0:
448,192,431279,1,0,0:0:0:0:
64,192,431374,1,0,0:0:0:0:
192,192,431468,1,0,0:0:0:0:
448,192,431562,1,0,0:0:0:0:
64,192,431657,1,0,0:0:0:0:
320,192,431751,1,0,0:0:0:0:
192,192,431845,1,0,0:0:0:0:
448,192,431940,1,0,0:0:0:0:
64,192,432034,1,0,0:0:0:0:
320,192,432128,1,0,0:0:0:0:
192,192,432223,1,0,0:0:0:0:
448,192,432317,1,0,0:0:0:0:
64,192,432411,1,0,0:0:0:0:
192,192,432506,1,0,0:0:0:0:
320,192,432600,1,0,0:0:0:0:
64,192,432600,1,0,0:0:0:0:
448,192,432694,1,0,0:0:0:0:
192,192,432694,1,0,0:0:0:0:
320,192,432789,1,0,0:0:0:0:
64,192,432789,1,0,0:0:0:0:
448,192,432883,1,0,0:0:0:0:
192,192,432883,1,0,0:0:0:0:
320,192,432977,1,0,0:0:0:0:
64,192,432977,1,0,0:0:0:0:
192,192,433072,1,0,0:0:0:0:
448,192,433072,1,0,0:0:0:0:
320,192,433166,1,0,0:0:0:0:
64,192,433166,1,0,0:0:0:0:
192,192,433260,1,0,0:0:0:0:
448,192,433260,1,0,0:0:0:0:
320,192,433355,1,0,0:0:0:0:
64,192,433355,1,0,0:0:0:0:
448,192,433449,1,0,0:0:0:0:
192,192,433449,1,0,0:0:0:0:
64,192,433543,1,0,0:0:0:0:
448,192,433638,1,0,0:0:0:0:
320,192,433638,1,0,0:0:0:0:
64,192,433732,1,0,0:0:0:0:
192,192,433732,1,0,0:0:0:0:
320,192,433826,1,0,0:0:0:0:
64,192,433921,1,0,0:0:0:0:
448,192,434015,1,0,0:0:0:0:
320,192,434015,1,0,0:0:0:0:
64,192,434109,1,0,0:0:0:0:
192,192,434109,1,0,0:0:0:0:
448,192,434196,1,0,0:0:0:0:
192,192,434284,1,0,0:0:0:0:
448,192,434372,1,0,0:0:0:0:
320,192,434372,1,0,0:0:0:0:
64,192,434459,1,0,0:0:0:0:
192,192,434459,1,0,0:0:0:0:
320,192,434547,1,0,0:0:0:0:
64,192,434635,1,0,0:0:0:0:
448,192,434723,1,0,0:0:0:0:
320,192,434723,1,0,0:0:0:0:
64,192,434810,1,0,0:0:0:0:
192,192,434810,1,0,0:0:0:0:
448,192,434898,1,0,0:0:0:0:
192,192,434986,1,0,0:0:0:0:
448,192,435073,1,0,0:0:0:0:
320,192,435073,1,0,0:0:0:0:
64,192,435161,1,0,0:0:0:0:
192,192,435161,1,0,0:0:0:0:
320,192,435249,1,0,0:0:0:0:
64,192,435337,1,0,0:0:0:0:
448,192,435424,1,0,0:0:0:0:
320,192,435424,1,0,0:0:0:0:
64,192,435512,1,0,0:0:0:0:
192,192,435512,1,0,0:0:0:0:
448,192,435600,1,0,0:0:0:0:
192,192,435687,1,0,0:0:0:0:
448,192,435775,1,0,0:0:0:0:
320,192,435775,1,0,0:0:0:0:
64,192,435863,1,0,0:0:0:0:
192,192,435863,1,0,0:0:0:0:
320,192,435951,1,0,0:0:0:0:
64,192,436038,1,0,0:0:0:0:
448,192,436126,1,0,0:0:0:0:
320,192,436126,1,0,0:0:0:0:
64,192,436214,1,0,0:0:0:0:
192,192,436214,1,0,0:0:0:0:
448,192,436301,1,0,0:0:0:0:
192,192,436389,1,0,0:0:0:0:
448,192,436477,1,0,0:0:0:0:
320,192,436477,1,0,0:0:0:0:
64,192,436565,1,0,0:0:0:0:
192,192,436565,1,0,0:0:0:0:
320,192,436652,1,0,0:0:0:0:
64,192,436740,1,0,0:0:0:0:
448,192,436828,1,0,0:0:0:0:
320,192,436828,1,0,0:0:0:0:
64,192,436916,1,0,0:0:0:0:
192,192,436916,1,0,0:0:0:0:
448,192,437003,1,0,0:0:0:0:
192,192,437091,1,0,0:0:0:0:
448,192,437179,1,0,0:0:0:0:
320,192,437179,1,0,0:0:0:0:
64,192,437266,1,0,0:0:0:0:
192,192,437266,1,0,0:0:0:0:
320,192,437354,1,0,0:0:0:0:
64,192,437442,1,0,0:0:0:0:
448,192,437530,1,0,0:0:0:0:
320,192,437530,1,0,0:0:0:0:
64,192,437617,1,0,0:0:0:0:
192,192,437617,1,0,0:0:0:0:
448,192,437705,1,0,0:0:0:0:
192,192,437793,1,0,0:0:0:0:
448,192,437880,1,0,0:0:0:0:
320,192,437880,1,0,0:0:0:0:
64,192,437968,1,0,0:0:0:0:
192,192,437968,1,0,0:0:0:0:
320,192,438056,1,0,0:0:0:0:
64,192,438144,1,0,0:0:0:0:
448,192,438231,1,0,0:0:0:0:
320,192,438231,1,0,0:0:0:0:
64,192,438319,1,0,0:0:0:0:
192,192,438319,1,0,0:0:0:0:
448,192,438407,1,0,0:0:0:0:
192,192,438494,1,0,0:0:0:0:
448,192,438582,1,0,0:0:0:0:
320,192,438582,1,0,0:0:0:0:
64,192,438670,1,0,0:0:0:0:
192,192,438670,1,0,0:0:0:0:
320,192,438758,1,0,0:0:0:0:
64,192,438845,1,0,0:0:0:0:
448,192,438933,1,0,0:0:0:0:
320,192,438933,1,0,0:0:0:0:
64,192,439021,1,0,0:0:0:0:
192,192,439021,1,0,0:0:0:0:
448,192,439109,1,0,0:0:0:0:
192,192,439196,1,0,0:0:0:0:
320,192,439284,1,0,0:0:0:0:
448,192,439284,1,0,0:0:0:0:
192,192,439372,1,0,0:0:0:0:
64,192,439372,1,0,0:0:0:0:
320,192,439459,1,0,0:0:0:0:
64,192,439547,1,0,0:0:0:0:
320,192,439635,1,0,0:0:0:0:
448,192,439635,1,0,0:0:0:0:
192,192,439786,1,0,0:0:0:0:
64,192,439786,1,0,0:0:0:0:
320,192,439967,1,0,0:0:0:0:
192,192,440144,1,0,0:0:0:0:
448,192,440144,1,0,0:0:0:0:
64,192,440308,1,0,0:0:0:0:
448,192,440308,1,0,0:0:0:0:
192,192,440440,1,0,0:0:0:0:
448,192,440440,1,0,0:0:0:0:
320,192,440604,1,0,0:0:0:0:
192,192,440604,1,0,0:0:0:0:
320,192,440867,1,0,0:0:0:0:
64,192,440867,1,0,0:0:0:0:
64,192,441130,1,0,0:0:0:0:
448,192,441130,1,0,0:0:0:0:
320,192,441295,1,0,0:0:0:0:
192,192,441295,1,0,0:0:0:0:
64,192,441485,1,0,0:0:0:0:
448,192,441485,1,0,0:0:0:0:
192,192,441485,1,0,0:0:0:0:
64,192,441748,1,2,0:0:0:0:
192,192,441748,1,0,0:0:0:0:
448,192,441835,1,0,0:0:0:0:
320,192,441923,1,0,0:0:0:0:
64,192,442011,1,2,0:0:0:0:
192,192,442011,1,0,0:0:0:0:
320,192,442099,1,0,0:0:0:0:
448,192,442186,1,0,0:0:0:0:
64,192,442274,1,2,0:0:0:0:
192,192,442274,1,0,0:0:0:0:
448,192,442362,1,0,0:0:0:0:
320,192,442449,1,0,0:0:0:0:
64,192,442537,1,2,0:0:0:0:
192,192,442537,1,0,0:0:0:0:
320,192,442625,1,0,0:0:0:0:
448,192,442713,1,0,0:0:0:0:
64,192,442800,1,2,0:0:0:0:
192,192,442800,1,0,0:0:0:0:
320,192,442888,1,0,0:0:0:0:
448,192,442888,1,0,0:0:0:0:
64,192,442976,1,0,0:0:0:0:
192,192,442976,1,0,0:0:0:0:
320,192,443063,1,0,0:0:0:0:
448,192,443063,1,2,0:0:0:0:
64,192,443327,1,2,0:0:0:0:
192,192,443327,1,0,0:0:0:0:
448,192,443414,1,0,0:0:0:0:
320,192,443502,1,0,0:0:0:0:
64,192,443590,1,2,0:0:0:0:
192,192,443590,1,0,0:0:0:0:
320,192,443677,1,0,0:0:0:0:
448,192,443765,1,0,0:0:0:0:
192,192,443853,1,0,0:0:0:0:
64,192,443853,1,2,0:0:0:0:
448,192,443941,1,0,0:0:0:0:
320,192,444028,1,0,0:0:0:0:
64,192,444116,1,2,0:0:0:0:
192,192,444116,1,0,0:0:0:0:
320,192,444204,1,0,0:0:0:0:
448,192,444292,1,0,0:0:0:0:
64,192,444379,1,2,0:0:0:0:
192,192,444379,1,0,0:0:0:0:
320,192,444467,1,0,0:0:0:0:
448,192,444467,1,0,0:0:0:0:
64,192,444555,1,0,0:0:0:0:
192,192,444555,1,0,0:0:0:0:
320,192,444642,1,0,0:0:0:0:
448,192,444642,1,2,0:0:0:0:
320,192,444906,1,0,0:0:0:0:
448,192,444906,1,2,0:0:0:0:
64,192,444993,1,0,0:0:0:0:
192,192,445081,1,0,0:0:0:0:
320,192,445169,1,0,0:0:0:0:
448,192,445169,1,2,0:0:0:0:
192,192,445256,1,0,0:0:0:0:
64,192,445344,1,0,0:0:0:0:
320,192,445432,1,0,0:0:0:0:
448,192,445432,1,2,0:0:0:0:
64,192,445520,1,0,0:0:0:0:
192,192,445607,1,0,0:0:0:0:
320,192,445695,1,0,0:0:0:0:
448,192,445695,1,2,0:0:0:0:
192,192,445783,1,0,0:0:0:0:
64,192,445870,1,0,0:0:0:0:
320,192,445958,1,0,0:0:0:0:
448,192,445958,1,2,0:0:0:0:
192,192,446046,1,0,0:0:0:0:
64,192,446046,1,0,0:0:0:0:
320,192,446134,1,0,0:0:0:0:
448,192,446134,1,0,0:0:0:0:
192,192,446221,1,0,0:0:0:0:
64,192,446221,1,2,0:0:0:0:
320,192,446485,1,0,0:0:0:0:
448,192,446485,1,2,0:0:0:0:
64,192,446572,1,0,0:0:0:0:
192,192,446660,1,0,0:0:0:0:
320,192,446748,1,0,0:0:0:0:
448,192,446748,1,2,0:0:0:0:
192,192,446835,1,0,0:0:0:0:
64,192,446923,1,0,0:0:0:0:
320,192,447011,1,0,0:0:0:0:
448,192,447011,1,2,0:0:0:0:
64,192,447099,1,0,0:0:0:0:
192,192,447186,1,0,0:0:0:0:
320,192,447274,1,0,0:0:0:0:
448,192,447274,1,2,0:0:0:0:
192,192,447362,1,0,0:0:0:0:
64,192,447449,1,0,0:0:0:0:
320,192,447537,1,0,0:0:0:0:
448,192,447537,1,2,0:0:0:0:
64,192,447625,1,0,0:0:0:0:
192,192,447625,1,0,0:0:0:0:
320,192,447713,1,0,0:0:0:0:
448,192,447713,1,0,0:0:0:0:
64,192,447800,1,2,0:0:0:0:
192,192,447800,1,0,0:0:0:0:
448,192,447800,1,0,0:0:0:0:
64,192,448063,1,2,0:0:0:0:
192,192,448063,1,0,0:0:0:0:
448,192,448151,1,0,0:0:0:0:
320,192,448239,1,0,0:0:0:0:
64,192,448327,1,2,0:0:0:0:
192,192,448327,1,0,0:0:0:0:
320,192,448414,1,0,0:0:0:0:
448,192,448502,1,0,0:0:0:0:
64,192,448590,1,2,0:0:0:0:
192,192,448590,1,0,0:0:0:0:
448,192,448677,1,0,0:0:0:0:
320,192,448765,1,0,0:0:0:0:
64,192,448853,1,2,0:0:0:0:
192,192,448853,1,0,0:0:0:0:
320,192,448941,1,0,0:0:0:0:
448,192,449028,1,0,0:0:0:0:
64,192,449116,1,2,0:0:0:0:
192,192,449116,1,0,0:0:0:0:
320,192,449204,1,0,0:0:0:0:
448,192,449204,1,0,0:0:0:0:
64,192,449292,1,0,0:0:0:0:
192,192,449292,1,0,0:0:0:0:
320,192,449379,1,0,0:0:0:0:
448,192,449379,1,2,0:0:0:0:
64,192,449642,1,2,0:0:0:0:
192,192,449642,1,0,0:0:0:0:
448,192,449730,1,0,0:0:0:0:
320,192,449818,1,0,0:0:0:0:
64,192,449906,1,2,0:0:0:0:
192,192,449906,1,0,0:0:0:0:
320,192,449993,1,0,0:0:0:0:
448,192,450081,1,0,0:0:0:0:
64,192,450169,1,2,0:0:0:0:
192,192,450169,1,0,0:0:0:0:
448,192,450256,1,0,0:0:0:0:
320,192,450344,1,0,0:0:0:0:
64,192,450432,1,2,0:0:0:0:
192,192,450432,1,0,0:0:0:0:
320,192,450520,1,0,0:0:0:0:
448,192,450607,1,0,0:0:0:0:
64,192,450695,1,2,0:0:0:0:
192,192,450695,1,0,0:0:0:0:
320,192,450783,1,0,0:0:0:0:
448,192,450783,1,0,0:0:0:0:
64,192,450870,1,0,0:0:0:0:
192,192,450870,1,0,0:0:0:0:
320,192,450958,1,0,0:0:0:0:
448,192,450958,1,2,0:0:0:0:
320,192,451221,1,0,0:0:0:0:
448,192,451221,1,2,0:0:0:0:
64,192,451309,1,0,0:0:0:0:
192,192,451397,1,0,0:0:0:0:
320,192,451485,1,0,0:0:0:0:
448,192,451485,1,2,0:0:0:0:
192,192,451572,1,0,0:0:0:0:
64,192,451660,1,0,0:0:0:0:
320,192,451748,1,0,0:0:0:0:
448,192,451748,1,2,0:0:0:0:
64,192,451835,1,0,0:0:0:0:
192,192,451923,1,0,0:0:0:0:
320,192,452011,1,0,0:0:0:0:
448,192,452011,1,2,0:0:0:0:
192,192,452099,1,0,0:0:0:0:
64,192,452186,1,0,0:0:0:0:
448,192,452274,1,2,0:0:0:0:
320,192,452274,1,0,0:0:0:0:
64,192,452362,1,0,0:0:0:0:
192,192,452362,1,0,0:0:0:0:
320,192,452449,1,0,0:0:0:0:
448,192,452449,1,0,0:0:0:0:
64,192,452537,1,2,0:0:0:0:
192,192,452537,1,0,0:0:0:0:
320,192,452800,1,0,0:0:0:0:
448,192,452800,1,2,0:0:0:0:
64,192,452888,1,0,0:0:0:0:
192,192,452976,1,0,0:0:0:0:
320,192,453063,1,0,0:0:0:0:
448,192,453063,1,2,0:0:0:0:
192,192,453151,1,0,0:0:0:0:
64,192,453239,1,0,0:0:0:0:
320,192,453327,1,0,0:0:0:0:
448,192,453327,1,2,0:0:0:0:
64,192,453414,1,0,0:0:0:0:
192,192,453502,1,0,0:0:0:0:
320,192,453590,1,0,0:0:0:0:
448,192,453590,1,2,0:0:0:0:
192,192,453677,1,0,0:0:0:0:
64,192,453765,1,0,0:0:0:0:
320,192,453853,1,0,0:0:0:0:
448,192,453853,1,2,0:0:0:0:
64,192,453941,1,0,0:0:0:0:
192,192,453941,1,0,0:0:0:0:
320,192,454028,1,0,0:0:0:0:
448,192,454028,1,0,0:0:0:0:
64,192,454116,1,2,0:0:0:0:
192,192,454116,1,0,0:0:0:0:
448,192,454116,1,0,0:0:0:0:
64,192,454379,1,2,0:0:0:0:
192,192,454379,1,0,0:0:0:0:
320,192,454467,1,0,0:0:0:0:
448,192,454555,1,0,0:0:0:0:
64,192,454642,1,2,0:0:0:0:
320,192,454642,1,0,0:0:0:0:
192,192,454730,1,0,0:0:0:0:
448,192,454818,1,0,0:0:0:0:
192,192,454906,1,2,0:0:0:0:
320,192,454906,1,0,0:0:0:0:
448,192,454993,1,0,0:0:0:0:
64,192,455081,1,0,0:0:0:0:
448,192,455169,1,0,0:0:0:0:
320,192,455169,1,2,0:0:0:0:
192,192,455256,1,0,0:0:0:0:
64,192,455344,1,0,0:0:0:0:
448,192,455432,1,2,0:0:0:0:
320,192,455432,1,0,0:0:0:0:
192,192,455520,1,0,0:0:0:0:
64,192,455520,1,0,0:0:0:0:
448,192,455607,1,0,0:0:0:0:
320,192,455607,1,0,0:0:0:0:
192,192,455695,1,2,0:0:0:0:
64,192,455695,1,0,0:0:0:0:
64,192,455958,1,0,0:0:0:0:
320,192,455958,1,2,0:0:0:0:
192,192,456046,1,0,0:0:0:0:
448,192,456134,1,0,0:0:0:0:
64,192,456221,1,0,0:0:0:0:
192,192,456221,1,2,0:0:0:0:
320,192,456309,1,0,0:0:0:0:
448,192,456397,1,0,0:0:0:0:
320,192,456485,1,2,0:0:0:0:
64,192,456485,1,0,0:0:0:0:
192,192,456572,1,0,0:0:0:0:
64,192,456660,1,0,0:0:0:0:
320,192,456748,1,2,0:0:0:0:
448,192,456748,1,0,0:0:0:0:
192,192,456835,1,0,0:0:0:0:
64,192,456923,1,0,0:0:0:0:
320,192,457011,1,2,0:0:0:0:
448,192,457011,1,0,0:0:0:0:
192,192,457099,1,0,0:0:0:0:
64,192,457099,1,0,0:0:0:0:
320,192,457186,1,0,0:0:0:0:
448,192,457186,1,0,0:0:0:0:
64,192,457274,1,0,0:0:0:0:
192,192,457274,1,2,0:0:0:0:
64,192,457537,1,0,0:0:0:0:
320,192,457537,1,2,0:0:0:0:
192,192,457625,1,0,0:0:0:0:
448,192,457713,1,0,0:0:0:0:
64,192,457800,1,0,0:0:0:0:
192,192,457800,1,2,0:0:0:0:
320,192,457888,1,0,0:0:0:0:
448,192,457976,1,0,0:0:0:0:
64,192,458063,1,0,0:0:0:0:
320,192,458063,1,2,0:0:0:0:
192,192,458151,1,0,0:0:0:0:
64,192,458239,1,0,0:0:0:0:
320,192,458327,1,2,0:0:0:0:
448,192,458327,1,0,0:0:0:0:
192,192,458414,1,0,0:0:0:0:
64,192,458502,1,0,0:0:0:0:
320,192,458590,1,2,0:0:0:0:
448,192,458590,1,0,0:0:0:0:
64,192,458677,1,0,0:0:0:0:
192,192,458677,1,0,0:0:0:0:
320,192,458765,1,0,0:0:0:0:
448,192,458765,1,0,0:0:0:0:
64,192,458853,1,0,0:0:0:0:
192,192,458853,1,2,0:0:0:0:
64,192,459116,1,0,0:0:0:0:
320,192,459116,1,2,0:0:0:0:
192,192,459204,1,0,0:0:0:0:
448,192,459292,1,0,0:0:0:0:
64,192,459379,1,0,0:0:0:0:
192,192,459379,1,2,0:0:0:0:
320,192,459467,1,0,0:0:0:0:
448,192,459555,1,0,0:0:0:0:
64,192,459642,1,0,0:0:0:0:
320,192,459642,1,2,0:0:0:0:
192,192,459730,1,0,0:0:0:0:
64,192,459818,1,0,0:0:0:0:
320,192,459906,1,2,0:0:0:0:
448,192,459906,1,4,0:0:0:0:
192,192,459993,1,0,0:0:0:0:
320,192,460081,1,0,0:0:0:0:
64,192,460169,1,4,0:0:0:0:
192,192,460169,1,2,0:0:0:0:
448,192,460169,1,4,0:0:0:0:
320,192,460256,1,0,0:0:0:0:
64,192,460344,1,0,0:0:0:0:
64,192,460432,1,4,0:0:0:0:
192,192,460432,1,4,0:0:0:0:
448,192,460432,1,4,0:0:0:0:
320,192,460432,1,2,0:0:0:0:
192,192,460695,1,0,0:0:0:0:
448,192,460695,1,2,0:0:0:0:
64,192,460783,1,0,0:0:0:0:
320,192,460783,1,0,0:0:0:0:
192,192,460870,1,0,0:0:0:0:
448,192,460870,1,0,0:0:0:0:
64,192,460958,1,0,0:0:0:0:
320,192,460958,1,2,0:0:0:0:
192,192,461046,1,0,0:0:0:0:
320,192,461134,1,0,0:0:0:0:
64,192,461221,1,0,0:0:0:0:
448,192,461221,1,2,0:0:0:0:
192,192,461309,1,0,0:0:0:0:
320,192,461309,1,0,0:0:0:0:
64,192,461397,1,0,0:0:0:0:
448,192,461397,1,0,0:0:0:0:
192,192,461485,1,0,0:0:0:0:
320,192,461485,1,2,0:0:0:0:
64,192,461572,1,0,0:0:0:0:
320,192,461660,1,0,0:0:0:0:
64,192,461748,1,0,0:0:0:0:
192,192,461748,1,2,0:0:0:0:
448,192,461835,1,0,0:0:0:0:
320,192,461923,1,0,0:0:0:0:
64,192,462011,1,4,0:0:0:0:
192,192,462011,1,4,0:0:0:0:
448,192,462011,1,2,0:0:0:0:
64,192,462274,1,0,0:0:0:0:
448,192,462274,1,2,0:0:0:0:
192,192,462362,1,0,0:0:0:0:
320,192,462362,1,0,0:0:0:0:
64,192,462449,1,0,0:0:0:0:
448,192,462449,1,0,0:0:0:0:
192,192,462537,1,0,0:0:0:0:
320,192,462537,1,2,0:0:0:0:
64,192,462625,1,0,0:0:0:0:
320,192,462713,1,0,0:0:0:0:
448,192,462800,1,2,0:0:0:0:
192,192,462800,1,0,0:0:0:0:
320,192,462888,1,0,0:0:0:0:
64,192,462888,1,0,0:0:0:0:
192,192,462976,1,0,0:0:0:0:
448,192,462976,1,0,0:0:0:0:
320,192,463063,1,2,0:0:0:0:
64,192,463063,1,0,0:0:0:0:
192,192,463151,1,0,0:0:0:0:
448,192,463239,1,0,0:0:0:0:
64,192,463327,1,0,0:0:0:0:
192,192,463327,1,2,0:0:0:0:
320,192,463414,1,0,0:0:0:0:
448,192,463414,1,0,0:0:0:0:
64,192,463502,1,0,0:0:0:0:
192,192,463502,1,0,0:0:0:0:
64,192,463590,1,4,0:0:0:0:
192,192,463590,1,4,0:0:0:0:
320,192,463590,1,2,0:0:0:0:
448,192,463590,1,4,0:0:0:0:
64,192,463853,1,0,0:0:0:0:
320,192,463853,1,2,0:0:0:0:
192,192,463941,1,0,0:0:0:0:
448,192,463941,1,0,0:0:0:0:
64,192,464028,1,0,0:0:0:0:
320,192,464028,1,0,0:0:0:0:
192,192,464116,1,2,0:0:0:0:
448,192,464116,1,0,0:0:0:0:
320,192,464204,1,0,0:0:0:0:
192,192,464292,1,0,0:0:0:0:
64,192,464379,1,0,0:0:0:0:
448,192,464379,1,2,0:0:0:0:
192,192,464467,1,0,0:0:0:0:
320,192,464467,1,0,0:0:0:0:
64,192,464555,1,0,0:0:0:0:
448,192,464555,1,0,0:0:0:0:
192,192,464642,1,0,0:0:0:0:
320,192,464642,1,2,0:0:0:0:
448,192,464730,1,0,0:0:0:0:
192,192,464818,1,0,0:0:0:0:
320,192,464906,1,0,0:0:0:0:
448,192,464906,1,2,0:0:0:0:
64,192,464996,1,0,0:0:0:0:
192,192,465087,1,0,0:0:0:0:
320,192,465178,1,2,0:0:0:0:
448,192,465178,1,0,0:0:0:0:
64,192,465178,1,4,0:0:0:0:
192,192,465476,1,0,0:0:0:0:
320,192,465476,1,2,0:0:0:0:
64,192,465571,1,0,0:0:0:0:
448,192,465571,1,0,0:0:0:0:
192,192,465666,1,0,0:0:0:0:
320,192,465666,1,0,0:0:0:0:
448,192,465761,1,2,0:0:0:0:
64,192,465761,1,0,0:0:0:0:
192,192,465856,1,0,0:0:0:0:
320,192,465952,1,0,0:0:0:0:
64,192,466048,1,0,0:0:0:0:
448,192,466048,1,2,0:0:0:0:
320,192,466148,1,0,0:0:0:0:
192,192,466249,1,0,0:0:0:0:
64,192,466349,1,0,0:0:0:0:
448,192,466349,1,2,0:0:0:0:
192,192,466450,1,0,0:0:0:0:
320,192,466550,1,0,0:0:0:0:
64,192,466651,1,0,0:0:0:0:
192,192,466651,1,2,0:0:0:0:
320,192,466751,1,0,0:0:0:0:
448,192,466751,1,0,0:0:0:0:
64,192,466852,1,0,0:0:0:0:
192,192,466852,1,0,0:0:0:0:
64,192,466952,1,2,0:0:0:0:
448,192,466952,1,0,0:0:0:0:
64,192,467276,1,0,0:0:0:0:
192,192,467384,1,0,0:0:0:0:
320,192,467492,1,0,0:0:0:0:
448,192,467600,1,2,0:0:0:0:
64,192,467600,1,0,0:0:0:0:
320,192,467708,1,0,0:0:0:0:
192,192,467816,1,0,0:0:0:0:
64,192,467924,1,0,0:0:0:0:
448,192,467924,1,2,0:0:0:0:
192,192,468035,1,0,0:0:0:0:
320,192,468146,1,0,0:0:0:0:
64,192,468257,1,0,0:0:0:0:
448,192,468257,1,2,0:0:0:0:
320,192,468368,1,0,0:0:0:0:
192,192,468479,1,0,0:0:0:0:
64,192,468590,1,0,0:0:0:0:
448,192,468590,1,2,0:0:0:0:
192,192,468704,1,0,0:0:0:0:
320,192,468818,1,0,0:0:0:0:
64,192,468932,1,0,0:0:0:0:
192,192,468932,1,0,0:0:0:0:
448,192,468932,1,2,0:0:0:0:
320,192,469195,1,0,0:0:0:0:
448,192,469458,1,0,0:0:0:0:
192,192,469546,1,0,0:0:0:0:
448,192,469633,1,0,0:0:0:0:
64,192,469721,1,2,0:0:0:0:
320,192,469721,1,0,0:0:0:0:
192,192,469984,1,0,0:0:0:0:
320,192,470247,1,0,0:0:0:0:
192,192,470335,1,0,0:0:0:0:
320,192,470423,1,0,0:0:0:0:
64,192,470510,1,0,0:0:0:0:
448,192,470510,1,2,0:0:0:0:
192,192,470510,1,0,0:0:0:0:
192,192,470774,1,0,0:0:0:0:
448,192,470774,1,0,0:0:0:0:
320,192,471037,1,0,0:0:0:0:
64,192,471124,1,0,0:0:0:0:
320,192,471212,1,0,0:0:0:0:
64,192,471300,1,0,0:0:0:0:
192,192,471300,1,0,0:0:0:0:
448,192,471300,1,2,0:0:0:0:
192,192,471563,1,0,0:0:0:0:
448,192,471563,1,2,0:0:0:0:
320,192,471826,1,0,0:0:0:0:
64,192,471914,1,0,0:0:0:0:
320,192,472002,1,0,0:0:0:0:
64,192,472089,1,0,0:0:0:0:
192,192,472089,1,0,0:0:0:0:
448,192,472089,1,2,0:0:0:0:
192,192,472353,1,0,0:0:0:0:
448,192,472353,1,2,0:0:0:0:
192,192,472616,1,0,0:0:0:0:
64,192,472616,1,2,0:0:0:0:
320,192,472703,1,0,0:0:0:0:
64,192,472791,1,0,0:0:0:0:
448,192,472879,1,0,0:0:0:0:
320,192,472879,1,2,0:0:0:0:
192,192,472967,1,0,0:0:0:0:
320,192,473054,1,0,0:0:0:0:
448,192,473142,1,2,0:0:0:0:
64,192,473142,1,0,0:0:0:0:
192,192,473230,1,0,0:0:0:0:
448,192,473317,1,0,0:0:0:0:
192,192,473405,1,2,0:0:0:0:
64,192,473405,1,0,0:0:0:0:
320,192,473493,1,0,0:0:0:0:
64,192,473581,1,0,0:0:0:0:
448,192,473668,1,0,0:0:0:0:
320,192,473668,1,2,0:0:0:0:
192,192,473756,1,0,0:0:0:0:
320,192,473844,1,0,0:0:0:0:
64,192,473932,1,0,0:0:0:0:
448,192,473932,1,2,0:0:0:0:
192,192,474019,1,0,0:0:0:0:
448,192,474107,1,0,0:0:0:0:
64,192,474195,1,0,0:0:0:0:
192,192,474195,1,2,0:0:0:0:
320,192,474282,1,0,0:0:0:0:
64,192,474370,1,0,0:0:0:0:
448,192,474458,1,0,0:0:0:0:
320,192,474458,1,2,0:0:0:0:
192,192,474546,1,0,0:0:0:0:
320,192,474633,1,0,0:0:0:0:
64,192,474721,1,2,0:0:0:0:
448,192,474721,1,0,0:0:0:0:
192,192,474809,1,0,0:0:0:0:
448,192,474896,1,0,0:0:0:0:
64,192,474984,1,0,0:0:0:0:
192,192,474984,1,2,0:0:0:0:
320,192,475072,1,0,0:0:0:0:
192,192,475160,1,0,0:0:0:0:
448,192,475160,1,0,0:0:0:0:
320,192,475247,1,2,0:0:0:0:
64,192,475247,1,0,0:0:0:0:
448,192,475510,1,2,0:0:0:0:
192,192,475510,1,0,0:0:0:0:
64,192,475774,1,0,0:0:0:0:
320,192,475774,1,2,0:0:0:0:
448,192,475861,1,0,0:0:0:0:
320,192,475949,1,0,0:0:0:0:
64,192,476037,1,0,0:0:0:0:
448,192,476037,1,2,0:0:0:0:
192,192,476124,1,0,0:0:0:0:
320,192,476212,1,0,0:0:0:0:
448,192,476300,1,2,0:0:0:0:
64,192,476300,1,0,0:0:0:0:
192,192,476388,1,0,0:0:0:0:
448,192,476475,1,0,0:0:0:0:
64,192,476563,1,0,0:0:0:0:
192,192,476563,1,2,0:0:0:0:
320,192,476651,1,0,0:0:0:0:
64,192,476739,1,0,0:0:0:0:
320,192,476826,1,2,0:0:0:0:
448,192,476826,1,0,0:0:0:0:
192,192,476914,1,0,0:0:0:0:
320,192,477002,1,0,0:0:0:0:
448,192,477089,1,2,0:0:0:0:
64,192,477089,1,0,0:0:0:0:
192,192,477177,1,0,0:0:0:0:
448,192,477265,1,0,0:0:0:0:
64,192,477353,1,0,0:0:0:0:
192,192,477353,1,2,0:0:0:0:
320,192,477440,1,0,0:0:0:0:
64,192,477528,1,0,0:0:0:0:
448,192,477616,1,0,0:0:0:0:
320,192,477616,1,2,0:0:0:0:
192,192,477703,1,0,0:0:0:0:
320,192,477791,1,0,0:0:0:0:
448,192,477879,1,2,0:0:0:0:
64,192,477879,1,0,0:0:0:0:
320,192,477967,1,0,0:0:0:0:
192,192,478054,1,0,0:0:0:0:
448,192,478142,1,2,0:0:0:0:
64,192,478142,1,0,0:0:0:0:
192,192,478230,1,0,0:0:0:0:
320,192,478317,1,0,0:0:0:0:
64,192,478405,1,0,0:0:0:0:
448,192,478405,1,2,0:0:0:0:
192,192,478668,1,0,0:0:0:0:
448,192,478668,1,2,0:0:0:0:
64,192,478932,1,0,0:0:0:0:
192,192,478932,1,2,0:0:0:0:
320,192,479019,1,0,0:0:0:0:
64,192,479107,1,0,0:0:0:0:
320,192,479195,1,2,0:0:0:0:
448,192,479195,1,0,0:0:0:0:
192,192,479282,1,0,0:0:0:0:
320,192,479370,1,0,0:0:0:0:
64,192,479458,1,2,0:0:0:0:
448,192,479458,1,0,0:0:0:0:
192,192,479546,1,0,0:0:0:0:
448,192,479633,1,0,0:0:0:0:
64,192,479721,1,0,0:0:0:0:
192,192,479721,1,2,0:0:0:0:
320,192,479809,1,0,0:0:0:0:
64,192,479896,1,0,0:0:0:0:
320,192,479984,1,2,0:0:0:0:
448,192,479984,1,0,0:0:0:0:
192,192,480072,1,0,0:0:0:0:
320,192,480160,1,0,0:0:0:0:
64,192,480247,1,0,0:0:0:0:
448,192,480247,1,2,0:0:0:0:
192,192,480335,1,0,0:0:0:0:
448,192,480423,1,0,0:0:0:0:
64,192,480510,1,0,0:0:0:0:
192,192,480510,1,2,0:0:0:0:
320,192,480598,1,0,0:0:0:0:
64,192,480686,1,0,0:0:0:0:
320,192,480774,1,2,0:0:0:0:
448,192,480774,1,0,0:0:0:0:
192,192,480861,1,0,0:0:0:0:
448,192,480949,1,0,0:0:0:0:
64,192,481037,1,0,0:0:0:0:
192,192,481037,1,2,0:0:0:0:
320,192,481124,1,0,0:0:0:0:
64,192,481212,1,0,0:0:0:0:
320,192,481300,1,2,0:0:0:0:
448,192,481300,1,0,0:0:0:0:
192,192,481388,1,0,0:0:0:0:
448,192,481475,1,0,0:0:0:0:
64,192,481563,1,0,0:0:0:0:
192,192,481563,1,0,0:0:0:0:
320,192,481563,1,2,0:0:0:0:
192,192,481826,1,0,0:0:0:0:
448,192,481826,1,2,0:0:0:0:
64,192,482089,1,0,0:0:0:0:
320,192,482089,1,2,0:0:0:0:
448,192,482177,1,0,0:0:0:0:
320,192,482265,1,0,0:0:0:0:
64,192,482353,1,0,0:0:0:0:
448,192,482353,1,2,0:0:0:0:
192,192,482440,1,0,0:0:0:0:
320,192,482528,1,0,0:0:0:0:
64,192,482616,1,0,0:0:0:0:
448,192,482616,1,2,0:0:0:0:
192,192,482703,1,0,0:0:0:0:
448,192,482791,1,0,0:0:0:0:
64,192,482879,1,0,0:0:0:0:
192,192,482879,1,2,0:0:0:0:
320,192,482967,1,0,0:0:0:0:
64,192,483054,1,0,0:0:0:0:
320,192,483142,1,2,0:0:0:0:
448,192,483142,1,0,0:0:0:0:
192,192,483230,1,0,0:0:0:0:
320,192,483317,1,0,0:0:0:0:
64,192,483405,1,0,0:0:0:0:
448,192,483405,1,2,0:0:0:0:
192,192,483493,1,0,0:0:0:0:
448,192,483581,1,0,0:0:0:0:
64,192,483668,1,0,0:0:0:0:
192,192,483668,1,2,0:0:0:0:
320,192,483756,1,0,0:0:0:0:
64,192,483844,1,0,0:0:0:0:
320,192,483932,1,2,0:0:0:0:
448,192,483932,1,0,0:0:0:0:
192,192,484019,1,0,0:0:0:0:
320,192,484107,1,0,0:0:0:0:
64,192,484195,1,0,0:0:0:0:
448,192,484195,1,2,0:0:0:0:
320,192,484282,1,0,0:0:0:0:
192,192,484370,1,0,0:0:0:0:
64,192,484458,1,0,0:0:0:0:
448,192,484458,1,2,0:0:0:0:
192,192,484546,1,0,0:0:0:0:
320,192,484633,1,0,0:0:0:0:
64,192,484721,1,0,0:0:0:0:
448,192,484721,1,2,0:0:0:0:
192,192,484853,1,0,0:0:0:0:
320,192,484984,1,0,0:0:0:0:
64,192,484984,1,0,0:0:0:0:
448,192,485072,1,0,0:0:0:0:
192,192,485116,1,0,0:0:0:0:
320,192,485160,1,0,0:0:0:0:
448,192,485247,1,0,0:0:0:0:
64,192,485247,1,2,0:0:0:0:
320,192,485379,1,0,0:0:0:0:
192,192,485510,1,0,0:0:0:0:
64,192,485510,1,0,0:0:0:0:
64,192,485774,1,0,0:0:0:0:
320,192,485774,1,2,0:0:0:0:
448,192,486037,1,0,0:0:0:0:
64,192,486300,1,0,0:0:0:0:
448,192,486300,1,2,0:0:0:0:
192,192,486432,1,0,0:0:0:0:
64,192,486563,1,0,0:0:0:0:
320,192,486563,1,0,0:0:0:0:
448,192,486651,1,0,0:0:0:0:
192,192,486695,1,0,0:0:0:0:
320,192,486739,1,0,0:0:0:0:
64,192,486826,1,0,0:0:0:0:
448,192,486826,1,2,0:0:0:0:
320,192,486958,1,0,0:0:0:0:
448,192,487089,1,0,0:0:0:0:
192,192,487089,1,0,0:0:0:0:
64,192,487353,1,0,0:0:0:0:
320,192,487353,1,2,0:0:0:0:
448,192,487616,1,0,0:0:0:0:
64,192,487879,1,0,0:0:0:0:
448,192,487879,1,2,0:0:0:0:
192,192,488010,1,0,0:0:0:0:
64,192,488142,1,0,0:0:0:0:
320,192,488142,1,0,0:0:0:0:
448,192,488230,1,0,0:0:0:0:
192,192,488274,1,0,0:0:0:0:
320,192,488317,1,0,0:0:0:0:
64,192,488405,1,2,0:0:0:0:
448,192,488405,1,0,0:0:0:0:
320,192,488537,1,0,0:0:0:0:
64,192,488668,1,0,0:0:0:0:
192,192,488668,1,0,0:0:0:0:
64,192,488932,1,0,0:0:0:0:
320,192,488932,1,2,0:0:0:0:
448,192,489195,1,0,0:0:0:0:
64,192,489458,1,0,0:0:0:0:
448,192,489458,1,2,0:0:0:0:
192,192,489589,1,0,0:0:0:0:
64,192,489721,1,0,0:0:0:0:
320,192,489721,1,0,0:0:0:0:
448,192,489809,1,0,0:0:0:0:
192,192,489853,1,0,0:0:0:0:
320,192,489896,1,0,0:0:0:0:
64,192,489984,1,0,0:0:0:0:
448,192,489984,1,2,0:0:0:0:
320,192,490116,1,0,0:0:0:0:
192,192,490247,1,0,0:0:0:0:
448,192,490247,1,0,0:0:0:0:
64,192,490510,1,0,0:0:0:0:
320,192,490510,1,2,0:0:0:0:
448,192,490774,1,0,0:0:0:0:
64,192,491037,1,0,0:0:0:0:
448,192,491037,1,2,0:0:0:0:
192,192,491168,1,0,0:0:0:0:
64,192,491300,1,0,0:0:0:0:
320,192,491300,1,0,0:0:0:0:
448,192,491388,1,0,0:0:0:0:
192,192,491432,1,0,0:0:0:0:
320,192,491475,1,0,0:0:0:0:
64,192,491563,1,0,0:0:0:0:
448,192,491563,1,2,0:0:0:0:
320,192,491695,1,0,0:0:0:0:
64,192,491826,1,0,0:0:0:0:
192,192,491826,1,0,0:0:0:0:
64,192,492089,1,0,0:0:0:0:
320,192,492089,1,2,0:0:0:0:
448,192,492353,1,0,0:0:0:0:
64,192,492616,1,0,0:0:0:0:
448,192,492616,1,2,0:0:0:0:
192,192,492747,1,0,0:0:0:0:
64,192,492879,1,0,0:0:0:0:
320,192,492879,1,0,0:0:0:0:
448,192,492967,1,0,0:0:0:0:
192,192,493010,1,0,0:0:0:0:
320,192,493054,1,0,0:0:0:0:
64,192,493142,1,0,0:0:0:0:
448,192,493142,1,2,0:0:0:0:
320,192,493274,1,0,0:0:0:0:
192,192,493405,1,0,0:0:0:0:
448,192,493405,1,0,0:0:0:0:
64,192,493668,1,0,0:0:0:0:
320,192,493668,1,2,0:0:0:0:
448,192,493932,1,0,0:0:0:0:
64,192,494195,1,0,0:0:0:0:
448,192,494195,1,2,0:0:0:0:
192,192,494342,1,0,0:0:0:0:
320,192,494489,1,0,0:0:0:0:
448,192,494636,1,0,0:0:0:0:
64,192,494783,1,0,0:0:0:0:
192,192,494783,1,0,0:0:0:0:
320,192,494930,1,0,0:0:0:0:
448,192,495077,1,0,0:0:0:0:
64,192,495077,1,0,0:0:0:0:
192,192,495415,1,0,0:0:0:0:
320,192,495415,1,2,0:0:0:0:
64,192,496087,1,0,0:0:0:0:
448,192,496087,1,2,0:0:0:0:
192,192,496279,1,0,0:0:0:0:
320,192,496471,1,0,0:0:0:0:
448,192,496663,1,0,0:0:0:0:
192,192,496856,1,0,0:0:0:0:
64,192,496856,1,0,0:0:0:0:
192,192,497056,1,0,0:0:0:0:
320,192,497056,1,0,0:0:0:0:
448,192,497256,1,0,0:0:0:0:
320,192,497722,1,2,0:0:0:0:
192,192,497722,1,0,0:0:0:0:
320,192,498508,1,0,0:0:0:0:
64,192,498561,1,0,0:0:0:0:
448,192,498561,1,2,0:0:0:0:
192,192,498735,1,0,0:0:0:0:
320,192,498909,1,0,0:0:0:0:
448,192,499084,1,0,0:0:0:0:
64,192,499258,1,0,0:0:0:0:
320,192,499433,1,0,0:0:0:0:
448,192,499578,1,0,0:0:0:0:
192,192,499578,1,2,0:0:0:0:
320,192,500654,1,0,0:0:0:0:
64,192,500654,1,2,0:0:0:0:
192,192,500770,1,0,0:0:0:0:
448,192,500886,1,0,0:0:0:0:
192,192,501002,1,0,0:0:0:0:
320,192,501351,1,0,0:0:0:0:
448,192,501700,1,2,0:0:0:0:
192,192,501700,1,0,0:0:0:0:
64,192,502398,1,0,0:0:0:0:
320,192,502747,1,2,0:0:0:0:
192,192,502747,1,0,0:0:0:0:
64,192,502921,1,0,0:0:0:0:
192,192,503095,1,0,0:0:0:0:
448,192,503270,1,2,0:0:0:0:
64,192,503444,1,0,0:0:0:0:
320,192,503619,1,0,0:0:0:0:
448,192,503793,1,0,0:0:0:0:
64,192,504811,1,0,0:0:0:0:
320,192,504840,1,2,0:0:0:0:
192,192,505014,1,0,0:0:0:0:
64,192,505188,1,0,0:0:0:0:
448,192,505188,1,2,0:0:0:0:
320,192,505537,1,0,0:0:0:0:
448,192,505886,1,2,0:0:0:0:
192,192,505886,1,0,0:0:0:0:
64,192,506584,1,0,0:0:0:0:
320,192,506933,1,2,0:0:0:0:
192,192,506933,1,0,0:0:0:0:
448,192,507107,1,0,0:0:0:0:
320,192,507281,1,0,0:0:0:0:
64,192,507456,1,0,0:0:0:0:
192,192,507630,1,0,0:0:0:0:
320,192,507805,1,0,0:0:0:0:
448,192,507979,1,0,0:0:0:0:
320,192,509026,1,2,0:0:0:0:
64,192,509026,1,0,0:0:0:0:
448,192,509200,1,0,0:0:0:0:
320,192,509374,1,0,0:0:0:0:
192,192,509374,1,0,0:0:0:0:
64,192,509549,1,0,0:0:0:0:
320,192,509723,1,0,0:0:0:0:
448,192,510072,1,2,0:0:0:0:
64,192,510072,1,0,0:0:0:0:
192,192,510421,1,0,0:0:0:0:
320,192,510770,1,0,0:0:0:0:
448,192,510944,1,0,0:0:0:0:
320,192,511119,1,2,0:0:0:0:
192,192,511119,1,0,0:0:0:0:
192,192,511991,1,0,0:0:0:0:
192,192,512165,1,2,0:0:0:0:
448,192,512165,1,0,0:0:0:0:
192,192,512688,1,0,0:0:0:0:
320,192,513037,1,0,0:0:0:0:
64,192,513212,1,0,0:0:0:0:
448,192,513212,1,2,0:0:0:0:
320,192,513735,1,0,0:0:0:0:
192,192,514258,1,0,0:0:0:0:
448,192,514258,1,2,0:0:0:0:
320,192,514956,1,0,0:0:0:0:
192,192,515130,1,0,0:0:0:0:
320,192,515305,1,2,0:0:0:0:
448,192,515305,1,4,0:0:0:0:
64,192,515305,1,0,0:0:0:0:
192,192,515479,1,0,0:0:0:0:
320,192,515654,1,0,0:0:0:0:
448,192,515828,1,0,0:0:0:0:
64,192,516090,1,0,0:0:0:0:
192,192,516438,1,0,0:0:0:0:
320,192,516700,1,0,0:0:0:0:
448,192,517049,1,0,0:0:0:0:
192,192,517398,1,4,0:0:0:0:
320,192,517398,1,2,0:0:0:0:
448,192,517398,1,4,0:0:0:0:
64,192,517398,1,4,0:0:0:0:
192,192,517747,1,0,0:0:0:0:
320,192,518095,1,0,0:0:0:0:
64,192,518444,1,0,0:0:0:0:
192,192,518444,1,2,0:0:0:0:
448,192,518444,1,4,0:0:0:0:
192,192,519142,1,0,0:0:0:0:
64,192,519491,1,0,0:0:0:0:
448,192,519491,1,2,0:0:0:0:
320,192,519665,1,0,0:0:0:0:
192,192,519840,1,0,0:0:0:0:
64,192,520014,1,0,0:0:0:0:
320,192,520276,1,0,0:0:0:0:
64,192,520537,1,0,0:0:0:0:
448,192,520537,1,2,0:0:0:0:
192,192,521555,1,0,0:0:0:0:
448,192,521584,1,2,0:0:0:0:
64,192,521933,1,0,0:0:0:0:
320,192,522281,1,0,0:0:0:0:
64,192,522565,1,0,0:0:0:0:
192,192,522601,1,0,0:0:0:0:
320,192,522630,1,0,0:0:0:0:
448,192,522652,1,2,0:0:0:0:
64,192,523328,1,0,0:0:0:0:
192,192,523648,1,0,0:0:0:0:
320,192,523677,1,0,0:0:0:0:
64,192,523851,1,0,0:0:0:0:
192,192,524026,1,0,0:0:0:0:
320,192,524229,1,0,0:0:0:0:
192,192,524520,1,0,0:0:0:0:
64,192,524811,1,0,0:0:0:0:
448,192,524811,1,2,0:0:0:0:
320,192,525770,1,2,0:0:0:0:
64,192,525770,1,0,0:0:0:0:
192,192,526119,1,0,0:0:0:0:
320,192,526467,1,0,0:0:0:0:
448,192,526816,1,2,0:0:0:0:
64,192,526816,1,4,0:0:0:0:
192,192,526816,1,4,0:0:0:0:
320,192,526816,1,4,0:0:0:0:
64,192,527514,1,0,0:0:0:0:
448,192,527514,1,2,0:0:0:0:
320,192,527514,1,4,0:0:0:0:
192,192,527863,1,0,0:0:0:0:
448,192,527863,1,2,0:0:0:0:
192,192,528909,1,0,0:0:0:0:
320,192,528909,1,2,0:0:0:0:
320,192,529956,1,2,0:0:0:0:
64,192,529956,1,0,0:0:0:0:
448,192,530654,1,0,0:0:0:0:
192,192,531621,1,0,0:0:0:0:
320,192,531621,1,2,0:0:0:0:
64,192,532049,1,0,0:0:0:0:
192,192,532478,1,0,0:0:0:0:
320,192,532830,1,0,0:0:0:0:
448,192,533183,1,0,0:0:0:0:
64,192,533704,1,0,0:0:0:0:
192,192,534310,1,0,0:0:0:0:
320,192,535102,1,0,0:0:0:0:
448,192,535543,1,0,0:0:0:0:
