osu file format v14

[General]
AudioFilename: Mizu hachisu.mp3
AudioLeadIn: 2000
PreviewTime: 413786
Countdown: 0
SampleSet: Normal
StackLeniency: 0.7
Mode: 1
LetterboxInBreaks: 0
WidescreenStoryboard: 0

[Editor]
Bookmarks: 18128,67593,79593,114093,157884,178924,216986,275468,318255,350349,392102,415134,441512,470526,500676
DistanceSpacing: 0.5
BeatDivisor: 4
GridSize: 32
TimelineZoom: 2.527999

[Metadata]
Title:Suiren
TitleUnicode:水蓮
Artist:sakuzyo
ArtistUnicode:削除
Creator:Sayaka-
Version:Oni
Source:
Tags:ad:piano piano mingmichael dialgadu77
BeatmapID:297453
BeatmapSetID:115006

[Difficulty]
HPDrainRate:3.5
CircleSize:5
OverallDifficulty:5
ApproachRate:5
SliderMultiplier:1.8
SliderTickRate:1

[Events]
//Background and Video events
0,0,"Image0001.JPG",0,80
//Break Periods
2,343730,349130
//Storyboard Layer 0 (Background)
//Storyboard Layer 1 (Fail)
//Storyboard Layer 2 (Pass)
//Storyboard Layer 3 (Foreground)
//Storyboard Sound Samples

[TimingPoints]
80,563.380281690141,4,1,0,50,1,0
80,-100,4,1,0,50,0,0
18108,554.272517321016,4,1,0,50,1,0
20325,554.272517321016,4,1,0,50,1,8
20335,566.037735849057,4,1,0,50,1,0
22593,566.037735849057,4,1,0,50,1,0
25989,545.454545454546,4,1,0,50,1,8
25989,-103.773591758633,4,1,0,50,0,8
27079,545.454545454546,4,1,0,50,1,8
27107,558.139534883721,4,1,0,50,1,0
29339,558.139534883721,4,1,0,50,1,8
29353,560.747663551402,4,1,0,50,1,0
31595,566.037735849057,4,1,0,50,1,0
32727,555.555555555556,4,1,0,50,1,0
33838,560.747663551402,4,1,0,50,1,0
35520,588.235294117647,4,1,0,50,1,8
35520,-100,4,1,0,50,0,8
36108,550.45871559633,4,1,0,50,1,0
40511,550.45871559633,4,1,0,50,1,8
40602,560.747663551402,4,1,0,50,1,0
46209,550.45871559633,4,1,0,50,1,8
47309,555.555555555556,4,1,0,50,1,0
49484,550.45871559633,4,1,0,50,1,8
49600,555.555555555556,4,1,0,50,1,0
50711,560.747663551402,4,1,0,50,1,8
51831,568.720379146919,4,1,0,50,1,0
54105,560.747663551402,4,1,0,50,1,0
65319,568.720379146919,4,1,0,50,1,0
67593,250,3,1,0,50,1,0
67593,-151.515151515152,3,1,0,50,0,0
114093,260.869565217391,3,1,0,50,1,0
114093,-151.515151515152,3,1,0,50,0,0
115658,272.727272727273,3,1,0,50,1,0
115658,-151.515151515152,3,1,0,50,0,0
117294,285.714285714286,3,1,0,50,1,0
117294,-151.515151515152,3,1,0,50,0,0
120722,300,3,1,0,50,1,0
120722,-151.515151515152,3,1,0,50,0,0
121622,333.333333333333,3,1,0,50,1,0
121622,-151.515151515152,3,1,0,50,0,0
123622,357.142857142857,3,1,0,50,1,0
123622,-151.515151515152,3,1,0,50,0,0
124693,530.973451327434,4,1,0,50,1,0
133188,526.315789473684,4,1,0,50,1,0
138451,535.714285714286,4,1,0,50,1,8
139522,528.63436123348,4,1,0,50,1,0
147980,530.973451327434,4,1,0,50,1,0
157006,502.092050209205,4,1,0,50,1,8
157884,217.391304347826,3,1,0,50,1,0
157884,-151.515151515152,3,1,0,50,0,0
176797,217.391304347826,3,1,0,50,1,8
176848,256.410256410256,3,1,0,50,1,0
176848,-151.515151515152,3,1,0,50,0,0
177617,217.983651226158,3,1,0,50,1,0
177617,-178.571428571429,3,1,0,50,0,0
178706,-151.515151515152,3,1,0,50,0,0
193311,215.827338129496,3,1,0,50,1,0
193311,-151.515151515152,3,1,0,50,0,0
195900,217.391304347826,3,1,0,50,1,0
195900,-151.515151515152,3,1,0,50,0,0
216117,217.391304347826,4,1,0,50,1,8
216117,-151.515151515152,4,1,0,50,0,8
216986,217.391304347826,3,1,0,50,1,0
216986,-151.515151515152,3,1,0,50,0,0
239159,217.391304347826,7,1,0,50,1,0
239159,-151.515151515152,7,1,0,50,0,0
240681,217.391304347826,5,1,0,50,1,0
240681,-151.515151515152,5,1,0,50,0,0
241767,217.391304347826,7,1,0,50,1,0
241767,-151.515151515152,7,1,0,50,0,0
243289,217.391304347826,5,1,0,50,1,0
243289,-151.515151515152,5,1,0,50,0,0
244375,217.391304347826,3,1,0,50,1,0
244375,-151.515151515152,3,1,0,50,0,0
245680,217.391304347826,3,1,0,50,1,0
245680,-151.515151515152,3,1,0,50,0,0
246984,217.391304347826,3,1,0,50,1,8
247093,217.391304347826,3,1,0,50,1,0
247093,-151.515151515152,3,1,0,50,0,0
248397,217.391304347826,3,1,0,50,1,8
248506,217.391304347826,3,1,0,50,1,0
248506,-151.515151515152,3,1,0,50,0,0
251549,217.391304347826,3,1,0,50,1,0
254157,-170.107863695291,3,1,0,50,0,0
254592,369.79969183359,6,1,0,50,1,0
256810,307.692307692308,3,1,0,50,1,0
257117,311.203319502075,3,1,0,50,1,8
258049,307.692307692308,3,1,0,50,1,8
258664,292.682926829268,3,1,0,50,1,0
258956,285.714285714286,3,1,0,50,1,8
259527,279.06976744186,3,1,0,50,1,8
259806,289.156626506024,3,1,0,50,1,8
260384,289.156626506024,3,1,0,50,1,0
260673,282.352941176471,3,1,0,50,1,8
261520,289.156626506024,3,1,0,50,1,8
262098,300,3,1,0,50,1,0
262698,288.115246098439,3,1,0,50,1,8
262698,-106.382978723404,3,1,0,50,0,0
267019,300,3,1,0,50,1,0
271969,289.156626506024,3,1,0,50,1,8
274571,292.682926829268,3,1,0,50,1,8
275449,292.682926829268,3,1,0,50,1,8
275468,555.555555555556,4,1,0,30,1,0
275468,-66.6666666666667,4,1,0,40,0,0
294356,545.454545454546,3,1,0,40,1,0
294356,-68.4931506849315,3,1,0,40,0,0
317265,500,3,1,0,50,1,0
317265,-74.0740740740741,3,1,0,50,0,0
318255,245.901639344262,3,1,0,50,1,0
318255,-131.578947368421,3,1,0,50,0,0
341861,260.869565217391,3,1,0,50,1,0
341861,-123.456790123457,3,1,0,50,0,0
342643,272.727272727273,3,1,0,50,1,0
342915,300,3,1,0,50,1,8
343215,315.789473684211,3,1,0,50,1,8
343530,166.204986149584,4,1,0,50,1,0
347518,222.222222222222,4,1,0,50,1,0
347740,222.222222222222,4,1,0,50,1,0
347740,-92.5925925925926,4,1,0,50,0,0
347962,222.222222222222,4,1,0,50,1,0
347962,-86.2068965517241,4,1,0,50,0,0
348184,179.10447761194,4,1,0,50,1,0
348363,179.10447761194,4,1,0,50,1,0
348363,-98.5294188646199,4,1,0,50,0,0
348542,173.913043478261,3,1,0,50,1,0
348715,160,3,1,0,50,1,0
348875,151.898734177215,3,1,0,50,1,0
349026,120,3,1,0,50,1,0
349146,137.931034482759,3,1,0,50,1,0
349283,118.811881188119,3,1,0,50,1,0
349401,129.032258064516,3,1,0,50,1,0
349530,137.931034482759,3,1,0,50,1,0
349667,187.5,3,1,0,50,1,0
349854,260.869565217391,3,1,0,50,1,0
349854,-77.9661075093368,3,1,0,50,0,0
350114,216.216216216216,3,1,0,50,1,0
350330,357.142857142857,3,1,0,50,1,0
365330,324.324324324324,3,1,0,50,1,0
365330,-110.119048602253,3,1,0,50,0,0
366302,352.941176470588,4,1,0,50,1,0
366302,-102.040816326531,4,1,0,50,0,0
367355,357.142857142857,3,1,0,50,1,0
379140,359.281437125748,3,1,0,50,1,0
380217,357.142857142857,3,1,0,50,1,0
381288,365.853658536585,3,1,0,50,1,0
382385,545.454545454546,3,1,0,50,1,0
382385,-68.4931506849315,3,1,0,50,0,0
382930,585.365853658537,3,1,0,50,1,8
382930,-62.5,3,1,0,50,0,0
383515,387.096774193548,3,1,0,50,1,0
384289,413.793103448276,3,1,0,50,1,8
384289,-93.5483886056192,3,1,0,50,0,8
384702,387.096774193548,3,1,0,50,1,0
384702,-110.714286505102,3,1,0,50,0,0
385089,428.571428571429,3,1,0,50,1,8
385517,444.444444444444,3,1,0,50,1,8
385517,-96.4285748724491,3,1,0,50,0,8
385961,666.666666666667,3,1,0,50,1,8
385961,-64.2857142857372,3,1,0,50,0,0
386294,363.636363636364,3,1,0,50,1,0
386294,-96.1538461538461,3,1,0,50,0,0
386657,369.230769230769,3,1,0,50,1,8
387764,375,3,1,0,50,1,8
388514,307.692307692308,6,1,0,50,1,0
388514,-116.279069767442,6,1,0,50,0,0
390359,285.714285714286,6,1,0,50,1,0
391501,292.682926829268,3,1,0,50,1,8
391793,285.714285714286,3,1,0,50,1,8
391793,-112.179496168229,3,1,0,50,0,8
392078,384.615384615385,3,1,0,50,1,0
392078,-83.3333333333333,3,1,0,50,0,0
401116,-106.849319166823,3,1,0,50,0,0
401308,384.615384615385,3,1,0,50,1,8
401322,410.958904109589,3,1,0,50,1,0
402143,421.052631578947,3,1,0,50,1,8
402564,425.531914893617,3,1,0,50,1,0
403415,408.163265306122,3,1,0,50,1,8
403415,-104.255327134451,3,1,0,50,0,8
403823,408.163265306122,3,1,0,50,1,0
403823,-104.255327134451,3,1,0,50,0,8
404231,428.571428571429,3,1,0,50,1,8
404659,461.538461538462,3,1,0,50,1,8
405120,487.80487804878,3,1,0,50,1,0
405844,344.827586206897,3,1,0,50,1,8
405844,-145.000015225002,3,1,0,50,0,0
406533,512.820512820513,3,1,0,50,1,8
406789,512.820512820513,3,1,0,50,1,0
407045,449.438202247191,3,1,0,50,1,8
415124,399.666944213156,3,1,0,50,1,0
430910,375,3,1,0,50,1,8
430910,-105.960264900662,3,1,0,50,0,8
431003,352.941176470588,3,1,0,50,1,8
431003,-111.111111111111,3,1,0,50,0,8
431091,377.358490566038,3,1,0,50,1,8
431091,-103.092783505155,3,1,0,50,0,8
431185,-102.827763496144,3,1,0,50,0,8
431279,-102.564102564103,3,1,0,50,0,8
431374,-102.30179028133,3,1,0,50,0,8
431468,-102.30179028133,3,1,0,50,0,8
431562,-101.522842639594,3,1,0,50,0,8
431657,-101.522842639594,3,1,0,50,0,8
431751,-100.502512562814,3,1,0,50,0,8
431845,377.358490566038,3,1,0,50,1,0
441485,263.157894736842,3,1,0,50,1,0
441485,-133.333333333333,3,1,0,40,0,0
460169,-133.333333333333,3,1,0,45,0,0
460432,-133.333333333333,3,1,0,50,0,0
464906,285.714285714286,3,1,0,50,1,8
464906,-122.807019698369,3,1,0,50,0,0
465191,285.714285714286,3,1,0,50,1,0
465191,-122.807019698369,3,1,0,50,0,0
466048,301.507537688442,3,1,0,50,1,0
466952,324.324324324324,3,1,0,50,1,0
466952,-133.333333333333,3,1,0,40,0,0
467924,333.333333333333,3,1,0,40,1,0
467924,-129.729730290723,3,1,0,40,0,0
468590,342.857142857143,3,1,0,40,1,8
468590,-126.126132943755,3,1,0,40,0,0
468932,263.157894736842,3,1,0,40,1,0
468932,-164.324332851425,3,1,0,40,0,0
469655,-133.333333333333,3,1,0,40,0,0
494195,444.444444444444,4,1,0,40,1,0
494195,-78.9473688365651,4,1,0,40,0,0
495528,571.428571428571,4,1,0,40,1,8
496099,571.428571428571,4,1,0,40,1,0
496099,-80,4,1,0,40,0,0
497051,666.666666666667,4,1,0,40,1,8
497051,-68.5714285714286,4,1,0,40,0,8
497273,454.545454545455,4,1,0,40,1,8
497273,-100.571436847021,4,1,0,40,0,8
497727,424.028268551237,4,1,0,40,1,8
497727,-107.809528162975,4,1,0,40,0,0
498363,-120.425545341061,4,1,0,40,0,0
498575,510.63829787234,4,1,0,40,1,0
499596,533.333333333333,4,1,0,40,1,8
499596,-95.7446808511046,4,1,0,40,0,8
500662,522.875816993464,4,1,0,40,1,0
529943,522.875816993464,4,1,0,40,1,8
529957,697.674418604651,4,1,0,40,1,0
529957,-86.0000072240006,4,1,0,40,0,0
530654,967.741935483871,4,1,0,40,1,8
530654,-62.000000992,4,1,0,40,0,8
531621,857.142857142857,4,1,0,40,1,0
531621,-70.0000014,4,1,0,40,0,0
531835,-73.684213628809,4,1,0,40,0,0
532478,705.882352941176,4,1,0,40,1,8
532478,-94.4444470679013,4,1,0,40,0,8
532654,-100,4,1,0,40,0,8
533183,521.739130434783,4,1,0,40,1,8
533183,-143.750015273439,4,1,0,40,0,8
533704,606.060606060606,4,1,0,40,1,8
533704,-132.000010032001,4,1,0,40,0,8
534310,792.079207920792,4,1,0,40,1,8
534310,-111.111111111111,4,1,0,40,0,8
535102,882.352941176471,4,1,0,40,1,8
535102,-111.111111111111,4,1,0,40,0,8

[HitObjects]
256,192,80,5,12,0:0:0:0:
256,192,2333,1,8,0:0:0:0:
256,192,2709,1,8,0:0:0:0:
256,192,3084,1,0,0:0:0:0:
256,192,3460,1,8,0:0:0:0:
256,192,4211,1,0,0:0:0:0:
256,192,4587,1,8,0:0:0:0:
256,192,6840,1,8,0:0:0:0:
256,192,7216,1,8,0:0:0:0:
256,192,7591,1,8,0:0:0:0:
256,192,7967,1,0,0:0:0:0:
256,192,8718,1,0,0:0:0:0:
256,192,9094,1,8,0:0:0:0:
256,192,11347,1,8,0:0:0:0:
256,192,11723,1,8,0:0:0:0:
256,192,12098,1,0,0:0:0:0:
256,192,12474,1,0,0:0:0:0:
256,192,13225,1,0,0:0:0:0:
256,192,13601,1,8,0:0:0:0:
256,192,14727,1,0,0:0:0:0:
256,192,15854,1,0,0:0:0:0:
256,192,16981,1,0,0:0:0:0:
256,192,18108,1,12,0:0:0:0:
256,192,18477,1,0,0:0:0:0:
256,192,18662,1,0,0:0:0:0:
256,192,18847,1,0,0:0:0:0:
256,192,18939,1,0,0:0:0:0:
256,192,19308,1,0,0:0:0:0:
256,192,19586,1,8,0:0:0:0:
256,192,19955,1,8,0:0:0:0:
256,192,20335,1,12,0:0:0:0:
256,192,20712,1,8,0:0:0:0:
256,192,21089,1,8,0:0:0:0:
256,192,21467,1,0,0:0:0:0:
256,192,22221,1,0,0:0:0:0:
256,192,22593,1,8,0:0:0:0:
256,192,22781,1,0,0:0:0:0:
256,192,22970,1,0,0:0:0:0:
256,192,23159,1,0,0:0:0:0:
256,192,23347,1,0,0:0:0:0:
256,192,23442,1,8,0:0:0:0:
256,192,23725,1,0,0:0:0:0:
256,192,24786,1,0,0:0:0:0:
256,192,24857,1,8,0:0:0:0:
256,192,25234,1,8,0:0:0:0:
256,192,25611,1,0,0:0:0:0:
256,192,25847,1,0,0:0:0:0:
256,192,25918,1,0,0:0:0:0:
256,192,25989,1,8,0:0:0:0:
256,192,26716,1,0,0:0:0:0:
256,192,27107,1,0,0:0:0:0:
256,192,27293,1,0,0:0:0:0:
256,192,27479,1,0,0:0:0:0:
256,192,27665,1,0,0:0:0:0:
256,192,27990,1,0,0:0:0:0:
256,192,28316,1,12,0:0:0:0:
256,192,29353,1,8,0:0:0:0:
256,192,29726,1,8,0:0:0:0:
256,192,30100,1,0,0:0:0:0:
256,192,30474,1,8,0:0:0:0:
256,192,30848,1,8,0:0:0:0:
256,192,31035,1,0,0:0:0:0:
256,192,31222,1,8,0:0:0:0:
256,192,31315,1,0,0:0:0:0:
256,192,31409,1,0,0:0:0:0:
256,192,31502,1,0,0:0:0:0:
256,192,31595,1,8,0:0:0:0:
256,192,32727,1,12,0:0:0:0:
256,192,33838,1,12,0:0:0:0:
256,192,34398,1,0,0:0:0:0:
256,192,34959,1,8,0:0:0:0:
256,192,35520,1,8,0:0:0:0:
256,192,36108,1,4,0:0:0:0:
256,192,36658,1,0,0:0:0:0:
256,192,37208,1,12,0:0:0:0:
256,192,37575,1,8,0:0:0:0:
256,192,37862,1,8,0:0:0:0:
256,192,38137,1,8,0:0:0:0:
256,192,38413,1,8,0:0:0:0:
256,192,38619,1,8,0:0:0:0:
256,192,38814,1,8,0:0:0:0:
256,192,38997,1,8,0:0:0:0:
256,192,39181,1,8,0:0:0:0:
256,192,39364,1,8,0:0:0:0:
256,192,39548,1,8,0:0:0:0:
256,192,39731,1,0,0:0:0:0:
256,192,39915,1,0,0:0:0:0:
256,192,40098,1,8,0:0:0:0:
256,192,40282,1,0,0:0:0:0:
256,192,40465,1,0,0:0:0:0:
256,192,40602,1,0,0:0:0:0:
256,192,41162,1,8,0:0:0:0:
256,192,41723,1,12,0:0:0:0:
256,192,42097,1,8,0:0:0:0:
256,192,42377,1,0,0:0:0:0:
256,192,42658,1,8,0:0:0:0:
256,192,42938,1,0,0:0:0:0:
256,192,43125,1,8,0:0:0:0:
256,192,43312,1,0,0:0:0:0:
256,192,43499,1,8,0:0:0:0:
256,192,43639,1,0,0:0:0:0:
256,192,43779,1,8,0:0:0:0:
256,192,43919,1,0,0:0:0:0:
256,192,44059,1,8,0:0:0:0:
256,192,44200,1,0,0:0:0:0:
256,192,44340,1,8,0:0:0:0:
256,192,44480,1,0,0:0:0:0:
256,192,44620,1,8,0:0:0:0:
256,192,44714,1,0,0:0:0:0:
256,192,44807,1,8,0:0:0:0:
256,192,44901,1,0,0:0:0:0:
256,192,44994,1,8,0:0:0:0:
256,192,45087,1,0,0:0:0:0:
256,192,45648,1,0,0:0:0:0:
256,192,46209,1,12,0:0:0:0:
256,192,46575,1,8,0:0:0:0:
256,192,46862,1,8,0:0:0:0:
256,192,47137,1,8,0:0:0:0:
256,192,47447,1,8,0:0:0:0:
256,192,47633,1,8,0:0:0:0:
256,192,47818,1,8,0:0:0:0:
256,192,48003,1,8,0:0:0:0:
256,192,48188,1,8,0:0:0:0:
256,192,48373,1,8,0:0:0:0:
256,192,48559,1,8,0:0:0:0:
256,192,48744,1,0,0:0:0:0:
256,192,48929,1,0,0:0:0:0:
256,192,49114,1,8,0:0:0:0:
256,192,49299,1,0,0:0:0:0:
256,192,49484,1,0,0:0:0:0:
256,192,49600,1,0,0:0:0:0:
256,192,50155,1,0,0:0:0:0:
256,192,50710,1,12,0:0:0:0:
256,192,51084,1,8,0:0:0:0:
256,192,51365,1,0,0:0:0:0:
256,192,51645,1,8,0:0:0:0:
256,192,51925,1,0,0:0:0:0:
256,192,52115,1,8,0:0:0:0:
256,192,52304,1,0,0:0:0:0:
256,192,52494,1,8,0:0:0:0:
256,192,52636,1,0,0:0:0:0:
256,192,52778,1,8,0:0:0:0:
256,192,52921,1,0,0:0:0:0:
256,192,53063,1,8,0:0:0:0:
256,192,53205,1,0,0:0:0:0:
256,192,53347,1,8,0:0:0:0:
256,192,53489,1,0,0:0:0:0:
256,192,53631,1,8,0:0:0:0:
256,192,53726,1,0,0:0:0:0:
256,192,53821,1,8,0:0:0:0:
256,192,53916,1,0,0:0:0:0:
256,192,54011,1,8,0:0:0:0:
256,192,54105,1,0,0:0:0:0:
256,192,54665,1,12,0:0:0:0:
256,192,56347,1,0,0:0:0:0:
256,192,56908,1,12,0:0:0:0:
256,192,58590,1,0,0:0:0:0:
256,192,59151,1,12,0:0:0:0:
256,192,60833,1,0,0:0:0:0:
256,192,61394,1,12,0:0:0:0:
256,192,61955,1,8,0:0:0:0:
256,192,62516,1,8,0:0:0:0:
256,192,62843,12,0,64759,0:0:0:0:
256,192,67593,5,0,0:0:0:0:
256,192,67843,1,0,0:0:0:0:
256,192,67968,1,0,0:0:0:0:
256,192,68218,1,0,0:0:0:0:
256,192,68343,1,8,0:0:0:0:
256,192,68593,1,0,0:0:0:0:
256,192,68718,1,0,0:0:0:0:
256,192,68968,1,0,0:0:0:0:
256,192,69093,1,8,0:0:0:0:
256,192,69343,1,8,0:0:0:0:
256,192,69593,1,0,0:0:0:0:
256,192,69843,1,8,0:0:0:0:
256,192,70343,1,0,0:0:0:0:
256,192,70593,1,8,0:0:0:0:
256,192,70718,1,8,0:0:0:0:
256,192,70843,1,0,0:0:0:0:
256,192,70968,1,0,0:0:0:0:
256,192,71093,1,8,0:0:0:0:
256,192,71343,1,0,0:0:0:0:
256,192,71468,1,0,0:0:0:0:
256,192,71593,1,0,0:0:0:0:
256,192,71718,1,8,0:0:0:0:
256,192,71843,1,8,0:0:0:0:
256,192,72093,1,8,0:0:0:0:
256,192,72343,1,8,0:0:0:0:
256,192,72593,1,8,0:0:0:0:
256,192,72843,1,8,0:0:0:0:
256,192,72968,1,0,0:0:0:0:
256,192,73093,1,0,0:0:0:0:
256,192,73218,1,0,0:0:0:0:
256,192,73343,1,8,0:0:0:0:
256,192,73593,1,0,0:0:0:0:
256,192,73718,1,0,0:0:0:0:
256,192,73843,1,0,0:0:0:0:
256,192,73968,1,8,0:0:0:0:
256,192,74093,1,8,0:0:0:0:
256,192,74218,1,0,0:0:0:0:
256,192,74343,1,0,0:0:0:0:
256,192,74468,1,0,0:0:0:0:
256,192,74593,1,8,0:0:0:0:
256,192,74718,1,0,0:0:0:0:
256,192,74843,1,8,0:0:0:0:
256,192,74968,1,0,0:0:0:0:
256,192,75093,1,0,0:0:0:0:
256,192,75218,1,0,0:0:0:0:
256,192,75343,1,8,0:0:0:0:
256,192,75468,1,0,0:0:0:0:
256,192,75593,1,8,0:0:0:0:
256,192,75718,1,0,0:0:0:0:
256,192,75843,1,8,0:0:0:0:
256,192,76093,1,0,0:0:0:0:
256,192,76218,1,8,0:0:0:0:
256,192,76343,1,8,0:0:0:0:
256,192,76593,1,0,0:0:0:0:
256,192,76843,1,0,0:0:0:0:
256,192,76968,1,8,0:0:0:0:
256,192,77093,1,8,0:0:0:0:
256,192,77218,1,8,0:0:0:0:
256,192,77343,1,0,0:0:0:0:
256,192,77468,1,0,0:0:0:0:
256,192,77593,1,0,0:0:0:0:
256,192,77718,1,8,0:0:0:0:
256,192,77843,1,0,0:0:0:0:
256,192,77968,1,0,0:0:0:0:
256,192,78093,1,12,0:0:0:0:
256,192,78468,1,4,0:0:0:0:
256,192,78843,1,12,0:0:0:0:
256,192,79093,1,8,0:0:0:0:
256,192,79343,1,0,0:0:0:0:
256,192,79593,1,12,0:0:0:0:
256,192,79843,1,0,0:0:0:0:
256,192,79968,1,0,0:0:0:0:
256,192,80093,1,8,0:0:0:0:
256,192,80218,1,0,0:0:0:0:
256,192,80343,1,0,0:0:0:0:
256,192,80468,1,8,0:0:0:0:
256,192,80593,1,0,0:0:0:0:
256,192,80718,1,8,0:0:0:0:
256,192,80843,1,8,0:0:0:0:
256,192,80968,1,0,0:0:0:0:
256,192,81093,1,8,0:0:0:0:
256,192,81343,1,8,0:0:0:0:
256,192,81593,1,0,0:0:0:0:
256,192,81843,1,8,0:0:0:0:
256,192,82093,1,0,0:0:0:0:
256,192,82218,1,8,0:0:0:0:
256,192,82343,1,0,0:0:0:0:
256,192,82468,1,0,0:0:0:0:
256,192,82593,1,8,0:0:0:0:
256,192,82843,1,0,0:0:0:0:
256,192,82905,1,0,0:0:0:0:
256,192,82968,1,0,0:0:0:0:
256,192,83093,1,8,0:0:0:0:
256,192,83218,1,0,0:0:0:0:
256,192,83343,1,0,0:0:0:0:
256,192,83593,1,0,0:0:0:0:
256,192,83655,1,0,0:0:0:0:
256,192,83718,1,8,0:0:0:0:
256,192,83843,1,8,0:0:0:0:
256,192,83968,1,0,0:0:0:0:
256,192,84093,1,8,0:0:0:0:
256,192,84343,1,8,0:0:0:0:
256,192,84593,1,0,0:0:0:0:
256,192,84843,1,8,0:0:0:0:
256,192,84968,1,8,0:0:0:0:
256,192,85093,1,0,0:0:0:0:
256,192,85218,1,8,0:0:0:0:
256,192,85343,1,8,0:0:0:0:
256,192,85468,1,0,0:0:0:0:
256,192,85593,1,8,0:0:0:0:
256,192,85843,1,0,0:0:0:0:
256,192,85968,1,8,0:0:0:0:
256,192,86218,1,8,0:0:0:0:
256,192,86343,1,0,0:0:0:0:
256,192,86468,1,0,0:0:0:0:
256,192,86593,1,0,0:0:0:0:
256,192,86718,1,8,0:0:0:0:
256,192,86843,1,0,0:0:0:0:
256,192,86968,1,0,0:0:0:0:
256,192,87093,1,8,0:0:0:0:
256,192,87343,1,8,0:0:0:0:
256,192,87593,1,0,0:0:0:0:
256,192,87843,1,8,0:0:0:0:
256,192,87968,1,8,0:0:0:0:
256,192,88093,1,0,0:0:0:0:
256,192,88218,1,0,0:0:0:0:
256,192,88343,1,8,0:0:0:0:
256,192,88593,1,0,0:0:0:0:
256,192,88718,1,0,0:0:0:0:
256,192,88843,1,0,0:0:0:0:
256,192,88968,1,8,0:0:0:0:
256,192,89093,1,8,0:0:0:0:
256,192,89218,1,0,0:0:0:0:
256,192,89343,1,8,0:0:0:0:
256,192,89468,1,0,0:0:0:0:
256,192,89593,1,0,0:0:0:0:
256,192,89718,1,8,0:0:0:0:
256,192,89843,1,8,0:0:0:0:
256,192,89968,1,0,0:0:0:0:
256,192,90093,1,8,0:0:0:0:
256,192,90218,1,8,0:0:0:0:
256,192,90343,1,0,0:0:0:0:
256,192,90468,1,8,0:0:0:0:
256,192,90593,1,8,0:0:0:0:
256,192,90718,1,0,0:0:0:0:
256,192,90843,1,8,0:0:0:0:
256,192,90968,1,0,0:0:0:0:
256,192,91093,1,0,0:0:0:0:
256,192,91218,1,8,0:0:0:0:
256,192,91343,1,8,0:0:0:0:
256,192,91468,1,0,0:0:0:0:
256,192,91593,1,8,0:0:0:0:
256,192,91843,1,0,0:0:0:0:
256,192,91968,1,0,0:0:0:0:
256,192,92093,1,0,0:0:0:0:
256,192,92218,1,0,0:0:0:0:
256,192,92343,1,8,0:0:0:0:
256,192,92468,1,0,0:0:0:0:
256,192,92593,1,8,0:0:0:0:
256,192,92718,1,0,0:0:0:0:
256,192,92843,1,8,0:0:0:0:
256,192,92968,1,0,0:0:0:0:
256,192,93093,1,8,0:0:0:0:
256,192,93343,1,0,0:0:0:0:
256,192,93468,1,0,0:0:0:0:
256,192,93593,1,8,0:0:0:0:
256,192,93843,1,8,0:0:0:0:
256,192,93968,1,0,0:0:0:0:
256,192,94093,1,0,0:0:0:0:
256,192,94218,1,0,0:0:0:0:
256,192,94343,1,8,0:0:0:0:
256,192,94593,1,0,0:0:0:0:
256,192,94801,1,0,0:0:0:0:
256,192,94843,1,8,0:0:0:0:
256,192,95093,1,8,0:0:0:0:
256,192,95343,1,8,0:0:0:0:
256,192,95593,1,0,0:0:0:0:
256,192,95843,1,0,0:0:0:0:
256,192,96093,1,8,0:0:0:0:
256,192,96218,1,0,0:0:0:0:
256,192,96343,1,8,0:0:0:0:
256,192,96593,1,8,0:0:0:0:
256,192,96843,1,0,0:0:0:0:
256,192,96905,1,8,0:0:0:0:
256,192,96968,1,8,0:0:0:0:
256,192,97030,1,8,0:0:0:0:
256,192,97093,1,0,0:0:0:0:
256,192,97343,1,0,0:0:0:0:
256,192,97593,1,8,0:0:0:0:
256,192,97718,1,0,0:0:0:0:
256,192,97843,1,0,0:0:0:0:
256,192,97968,1,8,0:0:0:0:
256,192,98093,1,8,0:0:0:0:
256,192,98343,1,8,0:0:0:0:
256,192,98468,1,8,0:0:0:0:
256,192,98593,1,8,0:0:0:0:
256,192,98718,1,0,0:0:0:0:
256,192,98843,1,0,0:0:0:0:
256,192,99093,1,0,0:0:0:0:
256,192,99343,1,0,0:0:0:0:
256,192,99426,1,8,0:0:0:0:
256,192,99509,1,8,0:0:0:0:
256,192,99593,1,0,0:0:0:0:
256,192,99843,1,0,0:0:0:0:
256,192,100093,1,0,0:0:0:0:
256,192,100343,1,0,0:0:0:0:
256,192,100593,1,0,0:0:0:0:
256,192,100718,1,0,0:0:0:0:
256,192,100843,1,8,0:0:0:0:
256,192,100968,1,0,0:0:0:0:
256,192,101093,1,8,0:0:0:0:
256,192,101155,1,0,0:0:0:0:
256,192,101218,1,8,0:0:0:0:
256,192,101280,1,0,0:0:0:0:
256,192,101343,1,8,0:0:0:0:
256,192,101468,1,0,0:0:0:0:
256,192,101593,1,8,0:0:0:0:
256,192,101718,1,0,0:0:0:0:
256,192,101843,1,8,0:0:0:0:
256,192,101905,1,0,0:0:0:0:
256,192,101968,1,0,0:0:0:0:
256,192,102030,1,0,0:0:0:0:
256,192,102093,1,8,0:0:0:0:
256,192,102218,1,0,0:0:0:0:
256,192,102343,1,8,0:0:0:0:
256,192,102468,1,0,0:0:0:0:
256,192,102593,1,8,0:0:0:0:
256,192,102655,1,8,0:0:0:0:
256,192,102718,1,8,0:0:0:0:
256,192,102780,1,0,0:0:0:0:
256,192,102843,1,8,0:0:0:0:
256,192,103093,1,0,0:0:0:0:
256,192,103155,1,8,0:0:0:0:
256,192,103218,1,8,0:0:0:0:
256,192,103280,1,0,0:0:0:0:
256,192,103343,1,8,0:0:0:0:
256,192,103593,5,0,0:0:0:0:
256,192,103843,1,8,0:0:0:0:
256,192,104093,1,8,0:0:0:0:
256,192,104155,1,8,0:0:0:0:
256,192,104218,1,8,0:0:0:0:
256,192,104280,1,8,0:0:0:0:
256,192,104343,1,0,0:0:0:0:
256,192,104593,1,8,0:0:0:0:
256,192,104655,1,8,0:0:0:0:
256,192,104718,1,8,0:0:0:0:
256,192,104780,1,8,0:0:0:0:
256,192,104843,1,0,0:0:0:0:
256,192,104905,1,8,0:0:0:0:
256,192,104968,1,8,0:0:0:0:
256,192,105030,1,8,0:0:0:0:
256,192,105093,1,0,0:0:0:0:
256,192,105343,1,0,0:0:0:0:
256,192,105405,1,8,0:0:0:0:
256,192,105468,1,8,0:0:0:0:
256,192,105530,1,8,0:0:0:0:
256,192,105593,1,0,0:0:0:0:
256,192,105718,1,0,0:0:0:0:
256,192,105843,1,8,0:0:0:0:
256,192,105905,1,8,0:0:0:0:
256,192,105968,1,8,0:0:0:0:
256,192,106030,1,8,0:0:0:0:
256,192,106093,1,0,0:0:0:0:
256,192,106218,1,0,0:0:0:0:
256,192,106343,1,8,0:0:0:0:
256,192,106405,1,8,0:0:0:0:
256,192,106468,1,0,0:0:0:0:
256,192,106530,1,8,0:0:0:0:
256,192,106593,1,0,0:0:0:0:
256,192,106843,1,8,0:0:0:0:
256,192,107093,1,8,0:0:0:0:
256,192,107155,1,8,0:0:0:0:
256,192,107218,1,8,0:0:0:0:
256,192,107280,1,8,0:0:0:0:
256,192,107343,1,0,0:0:0:0:
256,192,107593,1,8,0:0:0:0:
256,192,107655,1,8,0:0:0:0:
256,192,107718,1,8,0:0:0:0:
256,192,107780,1,8,0:0:0:0:
256,192,107843,1,0,0:0:0:0:
256,192,107905,1,8,0:0:0:0:
256,192,107968,1,8,0:0:0:0:
256,192,108030,1,8,0:0:0:0:
256,192,108093,1,0,0:0:0:0:
256,192,108343,1,0,0:0:0:0:
256,192,108405,1,8,0:0:0:0:
256,192,108468,1,8,0:0:0:0:
256,192,108530,1,8,0:0:0:0:
256,192,108593,1,0,0:0:0:0:
256,192,108718,1,0,0:0:0:0:
256,192,108843,1,8,0:0:0:0:
256,192,108905,1,8,0:0:0:0:
256,192,108968,1,8,0:0:0:0:
256,192,109030,1,8,0:0:0:0:
256,192,109093,1,0,0:0:0:0:
256,192,109218,1,0,0:0:0:0:
256,192,109343,1,8,0:0:0:0:
256,192,109405,1,8,0:0:0:0:
256,192,109468,1,0,0:0:0:0:
256,192,109530,1,8,0:0:0:0:
256,192,109593,1,8,0:0:0:0:
256,192,109843,1,8,0:0:0:0:
256,192,109905,1,8,0:0:0:0:
256,192,109968,1,8,0:0:0:0:
256,192,110030,1,8,0:0:0:0:
256,192,110093,1,8,0:0:0:0:
256,192,110343,1,8,0:0:0:0:
256,192,110593,1,0,0:0:0:0:
256,192,110843,1,8,0:0:0:0:
256,192,111093,1,0,0:0:0:0:
256,192,111343,1,8,0:0:0:0:
256,192,111405,1,8,0:0:0:0:
256,192,111468,1,0,0:0:0:0:
256,192,111530,1,8,0:0:0:0:
256,192,111593,1,0,0:0:0:0:
256,192,111843,1,0,0:0:0:0:
256,192,112093,1,8,0:0:0:0:
256,192,112343,1,8,0:0:0:0:
256,192,112593,1,0,0:0:0:0:
256,192,112843,1,8,0:0:0:0:
256,192,112905,1,8,0:0:0:0:
256,192,112968,1,8,0:0:0:0:
256,192,113030,1,8,0:0:0:0:
256,192,113093,1,0,0:0:0:0:
256,192,113343,1,0,0:0:0:0:
256,192,113593,1,8,0:0:0:0:
256,192,113843,1,0,0:0:0:0:
256,192,114093,1,0,0:0:0:0:
256,192,114353,1,8,0:0:0:0:
256,192,114419,1,8,0:0:0:0:
256,192,114484,1,0,0:0:0:0:
256,192,114549,1,8,0:0:0:0:
256,192,114614,1,0,0:0:0:0:
256,192,114745,1,0,0:0:0:0:
256,192,114875,1,0,0:0:0:0:
256,192,115136,1,8,0:0:0:0:
256,192,115397,1,0,0:0:0:0:
256,192,115658,1,0,0:0:0:0:
256,192,115930,1,0,0:0:0:0:
256,192,116021,1,8,0:0:0:0:
256,192,116112,1,8,0:0:0:0:
256,192,116203,1,0,0:0:0:0:
256,192,116476,1,0,0:0:0:0:
256,192,116748,1,8,0:0:0:0:
256,192,117021,1,0,0:0:0:0:
256,192,117294,1,0,0:0:0:0:
256,192,117579,1,0,0:0:0:0:
256,192,117674,1,8,0:0:0:0:
256,192,117770,1,8,0:0:0:0:
256,192,117865,1,0,0:0:0:0:
256,192,118151,1,0,0:0:0:0:
256,192,118436,1,8,0:0:0:0:
256,192,118722,1,0,0:0:0:0:
256,192,119008,1,0,0:0:0:0:
256,192,119151,1,0,0:0:0:0:
256,192,119294,1,0,0:0:0:0:
256,192,119436,1,8,0:0:0:0:
256,192,119579,1,8,0:0:0:0:
256,192,119722,1,0,0:0:0:0:
256,192,119865,1,0,0:0:0:0:
256,192,120151,1,8,0:0:0:0:
256,192,120722,1,0,0:0:0:0:
256,192,120872,1,0,0:0:0:0:
256,192,121022,1,0,0:0:0:0:
256,192,121172,1,0,0:0:0:0:
256,192,121322,1,8,0:0:0:0:
256,192,121472,1,0,0:0:0:0:
256,192,121622,1,8,0:0:0:0:
256,192,121955,1,8,0:0:0:0:
256,192,122538,1,8,0:0:0:0:
256,192,122622,1,8,0:0:0:0:
256,192,122788,1,0,0:0:0:0:
256,192,122955,1,0,0:0:0:0:
256,192,123122,1,8,0:0:0:0:
256,192,123288,1,8,0:0:0:0:
256,192,123455,1,8,0:0:0:0:
256,192,123622,1,8,0:0:0:0:
256,192,124693,5,8,0:0:0:0:
256,192,124825,1,0,0:0:0:0:
256,192,124958,1,0,0:0:0:0:
256,192,125046,1,8,0:0:0:0:
256,192,125400,1,8,0:0:0:0:
256,192,125754,1,12,0:0:0:0:
256,192,126462,1,0,0:0:0:0:
256,192,126816,1,12,0:0:0:0:
256,192,126993,1,0,0:0:0:0:
256,192,127170,1,0,0:0:0:0:
256,192,127347,1,8,0:0:0:0:
256,192,127524,1,8,0:0:0:0:
256,192,127701,1,8,0:0:0:0:
256,192,127878,1,8,0:0:0:0:
256,192,128874,1,0,0:0:0:0:
256,192,128940,1,8,0:0:0:0:
256,192,129294,1,8,0:0:0:0:
256,192,129648,1,8,0:0:0:0:
256,192,130002,1,0,0:0:0:0:
256,192,130710,1,0,0:0:0:0:
256,192,131064,1,8,0:0:0:0:
256,192,131241,1,0,0:0:0:0:
256,192,131418,1,0,0:0:0:0:
256,192,131595,1,8,0:0:0:0:
256,192,131772,1,8,0:0:0:0:
256,192,131949,1,8,0:0:0:0:
256,192,132126,1,8,0:0:0:0:
256,192,133188,1,8,0:0:0:0:
256,192,133363,1,0,0:0:0:0:
256,192,133538,1,8,0:0:0:0:
256,192,133714,1,0,0:0:0:0:
256,192,133889,1,8,0:0:0:0:
256,192,134065,1,0,0:0:0:0:
256,192,134240,1,8,0:0:0:0:
256,192,134591,1,0,0:0:0:0:
256,192,134942,1,0,0:0:0:0:
256,192,135293,1,8,0:0:0:0:
256,192,136345,1,8,0:0:0:0:
256,192,136872,1,0,0:0:0:0:
256,192,137223,1,0,0:0:0:0:
256,192,137398,1,0,0:0:0:0:
256,192,137924,1,0,0:0:0:0:
256,192,138451,1,8,0:0:0:0:
256,192,139522,1,4,0:0:0:0:
256,192,139874,1,0,0:0:0:0:
256,192,140050,1,0,0:0:0:0:
256,192,140226,1,0,0:0:0:0:
256,192,140314,1,8,0:0:0:0:
256,192,140667,1,0,0:0:0:0:
256,192,140931,1,8,0:0:0:0:
256,192,141284,1,8,0:0:0:0:
256,192,141636,1,12,0:0:0:0:
256,192,141988,1,8,0:0:0:0:
256,192,142341,1,0,0:0:0:0:
256,192,142693,1,0,0:0:0:0:
256,192,143398,1,0,0:0:0:0:
256,192,143751,1,8,0:0:0:0:
256,192,143927,1,0,0:0:0:0:
256,192,144103,1,0,0:0:0:0:
256,192,144279,1,0,0:0:0:0:
256,192,144455,1,8,0:0:0:0:
256,192,144544,1,0,0:0:0:0:
256,192,144808,1,0,0:0:0:0:
256,192,145799,1,0,0:0:0:0:
256,192,145865,1,8,0:0:0:0:
256,192,146218,1,8,0:0:0:0:
256,192,146570,1,0,0:0:0:0:
256,192,146790,1,0,0:0:0:0:
256,192,146856,1,0,0:0:0:0:
256,192,146922,1,8,0:0:0:0:
256,192,147627,1,0,0:0:0:0:
256,192,147980,1,8,0:0:0:0:
256,192,148156,1,0,0:0:0:0:
256,192,148333,1,0,0:0:0:0:
256,192,148510,1,0,0:0:0:0:
256,192,148687,1,0,0:0:0:0:
256,192,148864,1,8,0:0:0:0:
256,192,149130,1,12,0:0:0:0:
256,192,150103,1,8,0:0:0:0:
256,192,150457,1,8,0:0:0:0:
256,192,150811,1,0,0:0:0:0:
256,192,151165,1,8,0:0:0:0:
256,192,151519,1,0,0:0:0:0:
256,192,151696,1,0,0:0:0:0:
256,192,151873,1,8,0:0:0:0:
256,192,151962,1,0,0:0:0:0:
256,192,152050,1,0,0:0:0:0:
256,192,152139,1,0,0:0:0:0:
256,192,152227,1,8,0:0:0:0:
256,192,153289,1,0,0:0:0:0:
256,192,154351,1,8,0:0:0:0:
256,192,155015,1,0,0:0:0:0:
256,192,155590,1,4,0:0:0:0:
256,192,157006,1,0,0:0:0:0:
256,192,157508,1,0,0:0:0:0:
256,192,157884,5,0,0:0:0:0:
256,192,157992,1,0,0:0:0:0:
256,192,158101,1,8,0:0:0:0:
256,192,158210,1,0,0:0:0:0:
256,192,158318,1,8,0:0:0:0:
256,192,158427,1,0,0:0:0:0:
256,192,158536,1,0,0:0:0:0:
256,192,158644,1,0,0:0:0:0:
256,192,158753,1,8,0:0:0:0:
256,192,158862,1,0,0:0:0:0:
256,192,158970,1,8,0:0:0:0:
256,192,159079,1,0,0:0:0:0:
256,192,159188,1,12,0:0:0:0:
256,192,159405,1,12,0:0:0:0:
256,192,159623,1,4,0:0:0:0:
256,192,159840,1,12,0:0:0:0:
256,192,160057,1,4,0:0:0:0:
256,192,160275,1,4,0:0:0:0:
256,192,160492,1,12,0:0:0:0:
256,192,160601,1,0,0:0:0:0:
256,192,160710,1,8,0:0:0:0:
256,192,160818,1,0,0:0:0:0:
256,192,160927,1,0,0:0:0:0:
256,192,161036,1,0,0:0:0:0:
256,192,161144,1,8,0:0:0:0:
256,192,161253,1,0,0:0:0:0:
256,192,161362,1,8,0:0:0:0:
256,192,161470,1,0,0:0:0:0:
256,192,161579,1,8,0:0:0:0:
256,192,161688,1,8,0:0:0:0:
256,192,161797,1,12,0:0:0:0:
256,192,162014,1,12,0:0:0:0:
256,192,162231,1,4,0:0:0:0:
256,192,162449,1,12,0:0:0:0:
256,192,162666,1,4,0:0:0:0:
256,192,162884,1,4,0:0:0:0:
256,192,163101,1,12,0:0:0:0:
256,192,163210,1,0,0:0:0:0:
256,192,163318,1,8,0:0:0:0:
256,192,163427,1,0,0:0:0:0:
256,192,163536,1,0,0:0:0:0:
256,192,163644,1,0,0:0:0:0:
256,192,163753,1,8,0:0:0:0:
256,192,163862,1,0,0:0:0:0:
256,192,163970,1,8,0:0:0:0:
256,192,164079,1,0,0:0:0:0:
256,192,164188,1,0,0:0:0:0:
256,192,164297,1,0,0:0:0:0:
256,192,164405,1,0,0:0:0:0:
256,192,164623,1,0,0:0:0:0:
256,192,164731,1,0,0:0:0:0:
256,192,164840,1,8,0:0:0:0:
256,192,164949,1,0,0:0:0:0:
256,192,165057,1,0,0:0:0:0:
256,192,165166,1,0,0:0:0:0:
256,192,165275,1,8,0:0:0:0:
256,192,165384,1,0,0:0:0:0:
256,192,165492,1,8,0:0:0:0:
256,192,165601,1,0,0:0:0:0:
256,192,165710,1,8,0:0:0:0:
256,192,165927,1,0,0:0:0:0:
256,192,166144,1,8,0:0:0:0:
256,192,166362,1,0,0:0:0:0:
256,192,166470,1,0,0:0:0:0:
256,192,166579,1,8,0:0:0:0:
256,192,166797,1,8,0:0:0:0:
256,192,166905,1,0,0:0:0:0:
256,192,167014,1,8,0:0:0:0:
256,192,167123,1,0,0:0:0:0:
256,192,167231,1,0,0:0:0:0:
256,192,167449,1,0,0:0:0:0:
256,192,167557,1,0,0:0:0:0:
256,192,167666,1,8,0:0:0:0:
256,192,167884,1,8,0:0:0:0:
256,192,168101,1,0,0:0:0:0:
256,192,168210,1,0,0:0:0:0:
256,192,168318,1,8,0:0:0:0:
256,192,168427,1,0,0:0:0:0:
256,192,168536,1,8,0:0:0:0:
256,192,168644,1,0,0:0:0:0:
256,192,168753,1,0,0:0:0:0:
256,192,168862,1,0,0:0:0:0:
256,192,168970,1,8,0:0:0:0:
256,192,169079,1,0,0:0:0:0:
256,192,169188,1,8,0:0:0:0:
256,192,169297,1,0,0:0:0:0:
256,192,169405,1,0,0:0:0:0:
256,192,169514,1,0,0:0:0:0:
256,192,169623,1,12,0:0:0:0:
256,192,169840,1,12,0:0:0:0:
256,192,170057,1,4,0:0:0:0:
256,192,170275,1,12,0:0:0:0:
256,192,170492,1,4,0:0:0:0:
256,192,170710,1,4,0:0:0:0:
256,192,170927,1,12,0:0:0:0:
256,192,171036,1,0,0:0:0:0:
256,192,171144,1,0,0:0:0:0:
256,192,171253,1,0,0:0:0:0:
256,192,171362,1,8,0:0:0:0:
256,192,171470,1,0,0:0:0:0:
256,192,171579,1,8,0:0:0:0:
256,192,171688,1,0,0:0:0:0:
256,192,171797,1,8,0:0:0:0:
256,192,171905,1,0,0:0:0:0:
256,192,172014,1,0,0:0:0:0:
256,192,172123,1,0,0:0:0:0:
256,192,172231,1,12,0:0:0:0:
256,192,172449,1,12,0:0:0:0:
256,192,172666,1,4,0:0:0:0:
256,192,172884,1,12,0:0:0:0:
256,192,173101,1,4,0:0:0:0:
256,192,173318,1,4,0:0:0:0:
256,192,173536,1,12,0:0:0:0:
256,192,173644,1,0,0:0:0:0:
256,192,173753,1,0,0:0:0:0:
256,192,173970,1,12,0:0:0:0:
256,192,174188,1,0,0:0:0:0:
256,192,174297,1,0,0:0:0:0:
256,192,174405,1,12,0:0:0:0:
256,192,174623,1,12,0:0:0:0:
256,192,174840,1,4,0:0:0:0:
256,192,175057,1,0,0:0:0:0:
256,192,175166,1,0,0:0:0:0:
256,192,175275,1,12,0:0:0:0:
256,192,175492,1,0,0:0:0:0:
256,192,175601,1,0,0:0:0:0:
256,192,175710,1,12,0:0:0:0:
256,192,175927,1,0,0:0:0:0:
256,192,176144,1,12,0:0:0:0:
256,192,176362,1,0,0:0:0:0:
256,192,176579,1,8,0:0:0:0:
256,192,176848,1,0,0:0:0:0:
256,192,176976,1,0,0:0:0:0:
256,192,177104,1,8,0:0:0:0:
256,192,177360,1,8,0:0:0:0:
256,192,177489,1,0,0:0:0:0:
256,192,177617,1,0,0:0:0:0:
256,192,177943,1,0,0:0:0:0:
256,192,178270,1,8,0:0:0:0:
256,192,178706,1,8,0:0:0:0:
256,192,178924,5,0,0:0:0:0:
256,192,179142,1,0,0:0:0:0:
256,192,179360,1,8,0:0:0:0:
256,192,179578,1,0,0:0:0:0:
256,192,179796,1,8,0:0:0:0:
256,192,180014,1,8,0:0:0:0:
256,192,180232,1,8,0:0:0:0:
256,192,180450,1,0,0:0:0:0:
256,192,180668,1,0,0:0:0:0:
256,192,180886,1,8,0:0:0:0:
256,192,181104,1,0,0:0:0:0:
256,192,181322,1,8,0:0:0:0:
256,192,181540,1,8,0:0:0:0:
256,192,181758,1,0,0:0:0:0:
256,192,181976,1,8,0:0:0:0:
256,192,182194,1,0,0:0:0:0:
256,192,182412,1,0,0:0:0:0:
256,192,182630,1,8,0:0:0:0:
256,192,182848,1,8,0:0:0:0:
256,192,183066,1,0,0:0:0:0:
256,192,183284,1,0,0:0:0:0:
256,192,183502,1,8,0:0:0:0:
256,192,183720,1,0,0:0:0:0:
256,192,183938,1,0,0:0:0:0:
256,192,184156,1,0,0:0:0:0:
256,192,184374,1,0,0:0:0:0:
256,192,184592,1,8,0:0:0:0:
256,192,184810,1,0,0:0:0:0:
256,192,185028,1,0,0:0:0:0:
256,192,185246,1,8,0:0:0:0:
256,192,185464,1,0,0:0:0:0:
256,192,185682,1,8,0:0:0:0:
256,192,185900,1,0,0:0:0:0:
256,192,186118,1,8,0:0:0:0:
256,192,186336,1,0,0:0:0:0:
256,192,186554,1,0,0:0:0:0:
256,192,186772,1,8,0:0:0:0:
256,192,186990,1,0,0:0:0:0:
256,192,187208,1,8,0:0:0:0:
256,192,187426,1,0,0:0:0:0:
256,192,187644,1,0,0:0:0:0:
256,192,187862,1,8,0:0:0:0:
256,192,188080,1,8,0:0:0:0:
256,192,188298,1,0,0:0:0:0:
256,192,188516,1,0,0:0:0:0:
256,192,188734,1,8,0:0:0:0:
256,192,188952,1,0,0:0:0:0:
256,192,189170,1,0,0:0:0:0:
256,192,189279,1,8,0:0:0:0:
256,192,189388,1,0,0:0:0:0:
256,192,189606,1,8,0:0:0:0:
256,192,189824,1,0,0:0:0:0:
256,192,189933,1,0,0:0:0:0:
256,192,190042,1,0,0:0:0:0:
256,192,190260,1,8,0:0:0:0:
256,192,190478,1,0,0:0:0:0:
256,192,190587,1,8,0:0:0:0:
256,192,190696,1,0,0:0:0:0:
256,192,190914,1,8,0:0:0:0:
256,192,191131,1,0,0:0:0:0:
256,192,191240,1,8,0:0:0:0:
256,192,191349,1,8,0:0:0:0:
256,192,191567,1,0,0:0:0:0:
256,192,191785,1,0,0:0:0:0:
256,192,191894,1,0,0:0:0:0:
256,192,192003,1,8,0:0:0:0:
256,192,192221,1,8,0:0:0:0:
256,192,192548,1,0,0:0:0:0:
256,192,192657,1,8,0:0:0:0:
256,192,192875,1,8,0:0:0:0:
256,192,193202,1,0,0:0:0:0:
256,192,193311,1,8,0:0:0:0:
256,192,193418,1,0,0:0:0:0:
256,192,193526,1,0,0:0:0:0:
256,192,193634,1,0,0:0:0:0:
256,192,193742,1,8,0:0:0:0:
256,192,193850,1,8,0:0:0:0:
256,192,193958,1,12,0:0:0:0:
256,192,194174,1,12,0:0:0:0:
256,192,194390,1,4,0:0:0:0:
256,192,194605,1,12,0:0:0:0:
256,192,194821,1,12,0:0:0:0:
256,192,195037,1,4,0:0:0:0:
256,192,195253,1,12,0:0:0:0:
256,192,195469,1,12,0:0:0:0:
256,192,195685,1,8,0:0:0:0:
256,192,195793,1,8,0:0:0:0:
256,192,195900,1,8,0:0:0:0:
256,192,196334,1,0,0:0:0:0:
256,192,196552,1,0,0:0:0:0:
256,192,196660,1,8,0:0:0:0:
256,192,196769,1,8,0:0:0:0:
256,192,196986,1,8,0:0:0:0:
256,192,197204,1,8,0:0:0:0:
256,192,197421,1,0,0:0:0:0:
256,192,197639,1,8,0:0:0:0:
256,192,197856,1,8,0:0:0:0:
256,192,198073,1,8,0:0:0:0:
256,192,198291,1,0,0:0:0:0:
256,192,198508,1,8,0:0:0:0:
256,192,198726,1,8,0:0:0:0:
256,192,198943,1,8,0:0:0:0:
256,192,199160,1,0,0:0:0:0:
256,192,199378,1,8,0:0:0:0:
256,192,199595,1,8,0:0:0:0:
256,192,199813,1,8,0:0:0:0:
256,192,200030,1,0,0:0:0:0:
256,192,200247,1,8,0:0:0:0:
256,192,200465,1,8,0:0:0:0:
256,192,200682,1,8,0:0:0:0:
256,192,200900,1,0,0:0:0:0:
256,192,201117,1,8,0:0:0:0:
256,192,201334,1,8,0:0:0:0:
256,192,201552,1,8,0:0:0:0:
256,192,201769,1,0,0:0:0:0:
256,192,201986,1,8,0:0:0:0:
256,192,202204,1,8,0:0:0:0:
256,192,202421,1,8,0:0:0:0:
256,192,202639,1,0,0:0:0:0:
256,192,202856,1,8,0:0:0:0:
256,192,203073,1,8,0:0:0:0:
256,192,203291,1,8,0:0:0:0:
256,192,203508,1,0,0:0:0:0:
256,192,203726,1,8,0:0:0:0:
256,192,203943,1,8,0:0:0:0:
256,192,204160,1,8,0:0:0:0:
256,192,204378,1,0,0:0:0:0:
256,192,204595,1,8,0:0:0:0:
256,192,204813,1,8,0:0:0:0:
256,192,205030,1,8,0:0:0:0:
256,192,205247,1,0,0:0:0:0:
256,192,205465,1,8,0:0:0:0:
256,192,205573,1,0,0:0:0:0:
256,192,205682,1,0,0:0:0:0:
256,192,205791,1,0,0:0:0:0:
256,192,205900,1,0,0:0:0:0:
256,192,206008,1,0,0:0:0:0:
256,192,206117,1,0,0:0:0:0:
256,192,206226,1,0,0:0:0:0:
256,192,206334,1,4,0:0:0:0:
256,192,206986,12,0,208726,0:0:0:0:
256,192,208943,5,4,0:0:0:0:
256,192,209595,12,0,211334,0:0:0:0:
256,192,211552,5,4,0:0:0:0:
256,192,212204,12,0,213943,0:0:0:0:
256,192,214160,12,0,216552,0:0:0:0:
256,192,216769,5,0,0:0:0:0:
256,192,216878,1,0,0:0:0:0:
256,192,216986,5,8,0:0:0:0:
256,192,217094,1,0,0:0:0:0:
256,192,217203,1,8,0:0:0:0:
256,192,217312,1,0,0:0:0:0:
256,192,217420,1,8,0:0:0:0:
256,192,217529,1,0,0:0:0:0:
256,192,217638,1,0,0:0:0:0:
256,192,217746,1,0,0:0:0:0:
256,192,217855,1,8,0:0:0:0:
256,192,217964,1,0,0:0:0:0:
256,192,218072,1,8,0:0:0:0:
256,192,218181,1,0,0:0:0:0:
256,192,218290,1,12,0:0:0:0:
256,192,218507,1,12,0:0:0:0:
256,192,218725,1,4,0:0:0:0:
256,192,218942,1,12,0:0:0:0:
256,192,219159,1,4,0:0:0:0:
256,192,219377,1,4,0:0:0:0:
256,192,219594,1,12,0:0:0:0:
256,192,219703,1,0,0:0:0:0:
256,192,219812,1,8,0:0:0:0:
256,192,219920,1,0,0:0:0:0:
256,192,220029,1,8,0:0:0:0:
256,192,220138,1,0,0:0:0:0:
256,192,220246,1,0,0:0:0:0:
256,192,220355,1,0,0:0:0:0:
256,192,220464,1,8,0:0:0:0:
256,192,220572,1,0,0:0:0:0:
256,192,220681,1,8,0:0:0:0:
256,192,220790,1,8,0:0:0:0:
256,192,220899,1,12,0:0:0:0:
256,192,221116,1,12,0:0:0:0:
256,192,221333,1,4,0:0:0:0:
256,192,221551,1,12,0:0:0:0:
256,192,221768,1,4,0:0:0:0:
256,192,221986,1,4,0:0:0:0:
256,192,222203,1,12,0:0:0:0:
256,192,222312,1,0,0:0:0:0:
256,192,222420,1,8,0:0:0:0:
256,192,222529,1,0,0:0:0:0:
256,192,222638,1,0,0:0:0:0:
256,192,222746,1,0,0:0:0:0:
256,192,222855,1,8,0:0:0:0:
256,192,222964,1,0,0:0:0:0:
256,192,223072,1,8,0:0:0:0:
256,192,223181,1,0,0:0:0:0:
256,192,223290,1,0,0:0:0:0:
256,192,223399,1,0,0:0:0:0:
256,192,223507,1,0,0:0:0:0:
256,192,223725,1,8,0:0:0:0:
256,192,223833,1,8,0:0:0:0:
256,192,223942,1,8,0:0:0:0:
256,192,224051,1,0,0:0:0:0:
256,192,224159,1,0,0:0:0:0:
256,192,224268,1,0,0:0:0:0:
256,192,224377,1,8,0:0:0:0:
256,192,224486,1,0,0:0:0:0:
256,192,224594,1,8,0:0:0:0:
256,192,224703,1,0,0:0:0:0:
256,192,224812,1,8,0:0:0:0:
256,192,225029,1,0,0:0:0:0:
256,192,225246,1,8,0:0:0:0:
256,192,225464,1,0,0:0:0:0:
256,192,225572,1,0,0:0:0:0:
256,192,225681,1,8,0:0:0:0:
256,192,225899,1,8,0:0:0:0:
256,192,226007,1,0,0:0:0:0:
256,192,226116,1,8,0:0:0:0:
256,192,226225,1,0,0:0:0:0:
256,192,226333,1,0,0:0:0:0:
256,192,226551,1,0,0:0:0:0:
256,192,226659,1,0,0:0:0:0:
256,192,226768,1,8,0:0:0:0:
256,192,226986,1,8,0:0:0:0:
256,192,227203,1,0,0:0:0:0:
256,192,227312,1,0,0:0:0:0:
256,192,227420,1,8,0:0:0:0:
256,192,227529,1,0,0:0:0:0:
256,192,227638,1,8,0:0:0:0:
256,192,227746,1,0,0:0:0:0:
256,192,227855,1,0,0:0:0:0:
256,192,227964,1,0,0:0:0:0:
256,192,228072,1,8,0:0:0:0:
256,192,228181,1,0,0:0:0:0:
256,192,228290,1,8,0:0:0:0:
256,192,228399,1,0,0:0:0:0:
256,192,228507,1,0,0:0:0:0:
256,192,228616,1,0,0:0:0:0:
256,192,228725,1,12,0:0:0:0:
256,192,228942,1,12,0:0:0:0:
256,192,229159,1,4,0:0:0:0:
256,192,229377,1,12,0:0:0:0:
256,192,229594,1,4,0:0:0:0:
256,192,229812,1,4,0:0:0:0:
256,192,230029,1,12,0:0:0:0:
256,192,230138,1,0,0:0:0:0:
256,192,230246,1,0,0:0:0:0:
256,192,230355,1,0,0:0:0:0:
256,192,230464,1,8,0:0:0:0:
256,192,230572,1,0,0:0:0:0:
256,192,230681,1,8,0:0:0:0:
256,192,230790,1,0,0:0:0:0:
256,192,230899,1,8,0:0:0:0:
256,192,231007,1,0,0:0:0:0:
256,192,231116,1,0,0:0:0:0:
256,192,231225,1,0,0:0:0:0:
256,192,231333,1,12,0:0:0:0:
256,192,231551,1,12,0:0:0:0:
256,192,231768,1,4,0:0:0:0:
256,192,231986,1,12,0:0:0:0:
256,192,232203,1,4,0:0:0:0:
256,192,232420,1,4,0:0:0:0:
256,192,232638,1,12,0:0:0:0:
256,192,232746,1,0,0:0:0:0:
256,192,232855,1,0,0:0:0:0:
256,192,233072,1,12,0:0:0:0:
256,192,233290,1,0,0:0:0:0:
256,192,233399,1,0,0:0:0:0:
256,192,233507,1,12,0:0:0:0:
256,192,233725,1,12,0:0:0:0:
256,192,233942,1,4,0:0:0:0:
256,192,234159,1,0,0:0:0:0:
256,192,234268,1,0,0:0:0:0:
256,192,234377,1,12,0:0:0:0:
256,192,234594,1,0,0:0:0:0:
256,192,234703,1,0,0:0:0:0:
256,192,234812,1,12,0:0:0:0:
256,192,235029,1,0,0:0:0:0:
256,192,235246,1,12,0:0:0:0:
256,192,235464,1,0,0:0:0:0:
256,192,235681,1,8,0:0:0:0:
256,192,235899,1,0,0:0:0:0:
256,192,236007,1,0,0:0:0:0:
256,192,236116,1,8,0:0:0:0:
256,192,236333,1,8,0:0:0:0:
256,192,236442,1,0,0:0:0:0:
256,192,236551,1,0,0:0:0:0:
256,192,236768,1,0,0:0:0:0:
256,192,236986,1,0,0:0:0:0:
256,192,237203,1,4,0:0:0:0:
256,192,237420,1,0,0:0:0:0:
256,192,237638,1,0,0:0:0:0:
256,192,237855,1,0,0:0:0:0:
256,192,237964,1,0,0:0:0:0:
256,192,238072,1,8,0:0:0:0:
256,192,238290,1,8,0:0:0:0:
256,192,238399,1,0,0:0:0:0:
256,192,238507,1,0,0:0:0:0:
256,192,238616,1,0,0:0:0:0:
256,192,238725,1,8,0:0:0:0:
256,192,238833,1,0,0:0:0:0:
256,192,238942,1,8,0:0:0:0:
256,192,239051,1,0,0:0:0:0:
256,192,239159,1,8,0:0:0:0:
256,192,239376,1,0,0:0:0:0:
256,192,239485,1,8,0:0:0:0:
256,192,239593,1,0,0:0:0:0:
256,192,239702,1,8,0:0:0:0:
256,192,239811,1,0,0:0:0:0:
256,192,239920,1,8,0:0:0:0:
256,192,240029,1,0,0:0:0:0:
256,192,240138,1,0,0:0:0:0:
256,192,240246,1,0,0:0:0:0:
256,192,240355,1,8,0:0:0:0:
256,192,240464,1,8,0:0:0:0:
256,192,240572,1,0,0:0:0:0:
256,192,240681,1,12,0:0:0:0:
256,192,240898,1,8,0:0:0:0:
256,192,241007,1,0,0:0:0:0:
256,192,241115,1,0,0:0:0:0:
256,192,241224,1,0,0:0:0:0:
256,192,241333,1,8,0:0:0:0:
256,192,241441,1,0,0:0:0:0:
256,192,241550,1,8,0:0:0:0:
256,192,241659,1,0,0:0:0:0:
256,192,241767,1,8,0:0:0:0:
256,192,241985,1,8,0:0:0:0:
256,192,242094,1,0,0:0:0:0:
256,192,242202,1,0,0:0:0:0:
256,192,242311,1,8,0:0:0:0:
256,192,242420,1,0,0:0:0:0:
256,192,242528,1,0,0:0:0:0:
256,192,242637,1,8,0:0:0:0:
256,192,242746,1,0,0:0:0:0:
256,192,242854,1,0,0:0:0:0:
256,192,242963,1,8,0:0:0:0:
256,192,243072,1,0,0:0:0:0:
256,192,243181,1,0,0:0:0:0:
256,192,243289,1,4,0:0:0:0:
256,192,243507,1,8,0:0:0:0:
256,192,243615,1,0,0:0:0:0:
256,192,243724,1,0,0:0:0:0:
256,192,243833,1,0,0:0:0:0:
256,192,243941,1,8,0:0:0:0:
256,192,244050,1,0,0:0:0:0:
256,192,244159,1,8,0:0:0:0:
256,192,244376,1,8,0:0:0:0:
256,192,244483,1,0,0:0:0:0:
256,192,244593,1,8,0:0:0:0:
256,192,244702,1,0,0:0:0:0:
256,192,244809,1,8,0:0:0:0:
256,192,244918,1,0,0:0:0:0:
256,192,245027,1,8,0:0:0:0:
256,192,245135,1,0,0:0:0:0:
256,192,245244,1,8,0:0:0:0:
256,192,245354,1,0,0:0:0:0:
256,192,245461,1,8,0:0:0:0:
256,192,245680,1,0,0:0:0:0:
256,192,245788,1,0,0:0:0:0:
256,192,245897,1,8,0:0:0:0:
256,192,246006,1,0,0:0:0:0:
256,192,246114,1,0,0:0:0:0:
256,192,246223,1,0,0:0:0:0:
256,192,246332,1,8,0:0:0:0:
256,192,246440,1,0,0:0:0:0:
256,192,246549,1,8,0:0:0:0:
256,192,246658,1,0,0:0:0:0:
256,192,246766,1,8,0:0:0:0:
256,192,247093,1,0,0:0:0:0:
256,192,247201,1,0,0:0:0:0:
256,192,247310,1,8,0:0:0:0:
256,192,247419,1,0,0:0:0:0:
256,192,247527,1,0,0:0:0:0:
256,192,247636,1,0,0:0:0:0:
256,192,247745,1,8,0:0:0:0:
256,192,247853,1,0,0:0:0:0:
256,192,247962,1,8,0:0:0:0:
256,192,248071,1,0,0:0:0:0:
256,192,248179,1,8,0:0:0:0:
256,192,248506,1,0,0:0:0:0:
256,192,248614,1,0,0:0:0:0:
256,192,248723,1,8,0:0:0:0:
256,192,248832,1,0,0:0:0:0:
256,192,248940,1,0,0:0:0:0:
256,192,249049,1,0,0:0:0:0:
256,192,249158,1,8,0:0:0:0:
256,192,249266,1,0,0:0:0:0:
256,192,249375,1,8,0:0:0:0:
256,192,249484,1,0,0:0:0:0:
256,192,249592,1,8,0:0:0:0:
256,192,249810,1,0,0:0:0:0:
256,192,250027,1,0,0:0:0:0:
256,192,250245,1,8,0:0:0:0:
256,192,250462,1,0,0:0:0:0:
256,192,250679,1,0,0:0:0:0:
256,192,250897,1,8,0:0:0:0:
256,192,251114,1,8,0:0:0:0:
256,192,251332,1,8,0:0:0:0:
256,192,251549,12,0,254157,0:0:0:0:
256,192,254375,5,8,0:0:0:0:
256,192,254483,1,0,0:0:0:0:
256,192,254592,1,4,0:0:0:0:
256,192,254961,1,12,0:0:0:0:
256,192,255331,1,0,0:0:0:0:
256,192,255701,1,8,0:0:0:0:
256,192,256071,1,8,0:0:0:0:
256,192,256194,1,0,0:0:0:0:
256,192,256317,1,0,0:0:0:0:
256,192,256440,1,8,0:0:0:0:
256,192,256810,1,4,0:0:0:0:
256,192,257117,1,12,0:0:0:0:
256,192,257428,1,4,0:0:0:0:
256,192,257739,1,12,0:0:0:0:
256,192,258049,1,8,0:0:0:0:
256,192,258151,1,0,0:0:0:0:
256,192,258254,1,0,0:0:0:0:
256,192,258356,1,8,0:0:0:0:
256,192,258664,1,4,0:0:0:0:
256,192,258956,1,12,0:0:0:0:
256,192,259241,1,4,0:0:0:0:
256,192,259527,1,12,0:0:0:0:
256,192,259806,1,8,0:0:0:0:
256,192,259902,1,0,0:0:0:0:
256,192,259998,1,0,0:0:0:0:
256,192,260095,1,8,0:0:0:0:
256,192,260384,1,4,0:0:0:0:
256,192,260673,1,12,0:0:0:0:
256,192,260955,1,4,0:0:0:0:
256,192,261237,1,12,0:0:0:0:
256,192,261520,1,8,0:0:0:0:
256,192,261616,1,0,0:0:0:0:
256,192,261712,1,0,0:0:0:0:
256,192,261809,1,8,0:0:0:0:
256,192,262098,1,12,0:0:0:0:
256,192,262398,1,0,0:0:0:0:
256,192,262698,12,0,266731,0:0:0:0:
256,192,267019,5,12,0:0:0:0:
256,192,267319,1,0,0:0:0:0:
256,192,267619,12,0,271519,0:0:0:0:
256,192,273703,5,8,0:0:0:0:
256,192,274863,1,0,0:0:0:0:
192,96,275468,5,12,0:0:0:0:
256,96,277620,1,0,0:0:0:0:
192,96,277690,1,8,0:0:0:0:
192,96,278060,1,0,0:0:0:0:
256,96,278430,1,0,0:0:0:0:
192,96,278801,1,0,0:0:0:0:
256,96,279542,1,0,0:0:0:0:
192,96,279912,1,4,0:0:0:0:
320,96,282065,1,0,0:0:0:0:
192,96,282134,1,8,0:0:0:0:
192,96,282505,1,0,0:0:0:0:
256,96,282875,1,8,0:0:0:0:
192,96,283245,1,0,0:0:0:0:
256,96,283986,1,0,0:0:0:0:
192,96,284356,1,4,0:0:0:0:
192,96,286579,1,8,0:0:0:0:
256,96,286949,1,8,0:0:0:0:
256,96,287319,1,0,0:0:0:0:
192,96,287690,1,0,0:0:0:0:
256,96,288430,1,0,0:0:0:0:
192,96,288801,1,4,0:0:0:0:
192,96,289912,1,4,0:0:0:0:
192,96,291023,1,4,0:0:0:0:
192,96,291579,1,8,0:0:0:0:
192,96,292134,1,0,0:0:0:0:
256,96,292505,1,8,0:0:0:0:
256,96,292875,1,4,0:0:0:0:
256,96,293616,1,0,0:0:0:0:
256,96,293986,1,8,0:0:0:0:
256,96,294171,1,0,0:0:0:0:
256,96,294356,1,0,0:0:0:0:
256,192,294446,1,8,0:0:0:0:
256,96,294537,1,0,0:0:0:0:
256,192,294628,1,0,0:0:0:0:
256,96,294719,1,8,0:0:0:0:
256,192,294810,1,0,0:0:0:0:
256,96,294901,1,0,0:0:0:0:
256,192,294992,1,8,0:0:0:0:
256,96,295083,1,0,0:0:0:0:
256,192,295174,1,8,0:0:0:0:
256,96,295265,1,0,0:0:0:0:
256,192,295356,1,8,0:0:0:0:
256,96,295446,1,0,0:0:0:0:
256,192,295537,1,8,0:0:0:0:
256,96,295628,1,0,0:0:0:0:
256,192,295719,1,8,0:0:0:0:
256,96,295810,1,0,0:0:0:0:
256,192,295901,1,8,0:0:0:0:
256,96,295992,1,8,0:0:0:0:
256,192,296083,1,0,0:0:0:0:
256,96,296174,1,8,0:0:0:0:
256,192,296265,1,0,0:0:0:0:
256,96,296356,1,8,0:0:0:0:
256,192,296447,1,0,0:0:0:0:
256,96,296538,1,8,0:0:0:0:
256,192,296629,1,8,0:0:0:0:
256,96,296720,1,0,0:0:0:0:
256,192,296811,1,0,0:0:0:0:
256,96,296902,1,8,0:0:0:0:
256,192,296993,1,0,0:0:0:0:
256,96,297083,1,8,0:0:0:0:
256,192,297174,1,0,0:0:0:0:
256,96,297265,1,8,0:0:0:0:
256,192,297356,1,8,0:0:0:0:
256,96,297447,1,0,0:0:0:0:
256,192,297538,1,0,0:0:0:0:
256,192,297629,1,8,0:0:0:0:
256,96,297811,1,0,0:0:0:0:
256,192,297902,1,8,0:0:0:0:
256,96,297993,1,0,0:0:0:0:
256,192,298083,1,8,0:0:0:0:
256,96,298174,1,8,0:0:0:0:
256,192,298265,1,0,0:0:0:0:
256,96,298356,1,8,0:0:0:0:
256,192,298447,1,0,0:0:0:0:
256,96,298538,1,8,0:0:0:0:
256,192,298629,1,0,0:0:0:0:
256,96,298720,1,8,0:0:0:0:
256,192,298811,1,8,0:0:0:0:
256,96,298902,1,0,0:0:0:0:
256,192,298993,1,8,0:0:0:0:
256,96,299083,1,0,0:0:0:0:
256,192,299174,1,8,0:0:0:0:
256,96,299265,1,0,0:0:0:0:
256,192,299356,1,8,0:0:0:0:
256,96,299447,1,0,0:0:0:0:
256,192,299538,1,0,0:0:0:0:
256,96,299629,1,8,0:0:0:0:
256,192,299720,1,8,0:0:0:0:
256,96,299811,1,0,0:0:0:0:
256,192,299902,1,8,0:0:0:0:
256,96,299993,1,0,0:0:0:0:
256,192,300083,1,8,0:0:0:0:
256,96,300174,1,0,0:0:0:0:
256,192,300265,1,0,0:0:0:0:
256,96,300356,1,8,0:0:0:0:
256,192,300447,1,0,0:0:0:0:
256,96,300538,1,8,0:0:0:0:
256,192,300629,1,8,0:0:0:0:
256,96,300720,1,0,0:0:0:0:
256,192,300811,1,0,0:0:0:0:
256,96,300902,1,8,0:0:0:0:
256,96,301083,1,0,0:0:0:0:
256,192,301174,1,0,0:0:0:0:
256,96,301265,1,8,0:0:0:0:
256,192,301356,1,0,0:0:0:0:
256,96,301447,1,8,0:0:0:0:
256,192,301538,1,8,0:0:0:0:
256,96,301629,1,0,0:0:0:0:
256,192,301720,1,0,0:0:0:0:
256,96,301811,1,8,0:0:0:0:
256,192,301902,1,0,0:0:0:0:
256,96,301993,1,8,0:0:0:0:
256,192,302083,1,0,0:0:0:0:
256,96,302174,1,8,0:0:0:0:
256,192,302265,1,8,0:0:0:0:
256,96,302356,1,0,0:0:0:0:
256,192,302447,1,0,0:0:0:0:
256,96,302538,1,8,0:0:0:0:
256,160,302629,1,0,0:0:0:0:
256,96,302720,1,8,0:0:0:0:
256,160,302811,1,0,0:0:0:0:
256,96,302902,1,8,0:0:0:0:
256,192,302993,1,8,0:0:0:0:
256,96,303083,1,0,0:0:0:0:
192,96,303356,1,4,0:0:0:0:
192,96,303629,1,4,0:0:0:0:
320,96,303902,1,4,0:0:0:0:
192,96,304174,1,12,0:0:0:0:
256,192,304446,12,0,305537,0:0:0:0:
192,96,305810,5,0,0:0:0:0:
256,192,306083,12,0,307174,0:0:0:0:
192,96,307446,5,8,0:0:0:0:
256,192,307719,12,0,308810,0:0:0:0:
192,96,309083,5,0,0:0:0:0:
256,192,309356,12,0,310447,0:0:0:0:
192,96,310719,5,8,0:0:0:0:
256,96,310902,1,8,0:0:0:0:
256,192,310993,1,8,0:0:0:0:
256,96,311083,1,0,0:0:0:0:
256,192,311174,1,0,0:0:0:0:
256,96,311265,1,8,0:0:0:0:
256,192,311356,1,8,0:0:0:0:
256,96,311447,1,0,0:0:0:0:
256,192,311538,1,8,0:0:0:0:
256,96,311629,1,8,0:0:0:0:
256,192,311720,1,0,0:0:0:0:
256,96,311811,1,8,0:0:0:0:
256,192,311902,1,8,0:0:0:0:
256,96,311993,1,0,0:0:0:0:
256,192,312083,1,8,0:0:0:0:
256,96,312174,1,0,0:0:0:0:
256,192,312265,1,0,0:0:0:0:
256,96,312356,1,8,0:0:0:0:
256,192,312447,1,0,0:0:0:0:
256,96,312538,1,0,0:0:0:0:
256,192,312629,1,8,0:0:0:0:
256,96,312720,1,0,0:0:0:0:
256,192,312811,1,0,0:0:0:0:
256,96,312902,1,8,0:0:0:0:
256,192,312993,1,0,0:0:0:0:
256,96,313083,1,0,0:0:0:0:
256,192,313174,1,8,0:0:0:0:
256,96,313265,1,0,0:0:0:0:
256,192,313356,1,0,0:0:0:0:
256,96,313447,1,8,0:0:0:0:
256,192,313538,1,0,0:0:0:0:
256,96,313629,1,0,0:0:0:0:
256,192,313720,1,8,0:0:0:0:
256,96,313811,1,0,0:0:0:0:
256,192,313902,1,0,0:0:0:0:
256,96,313993,1,0,0:0:0:0:
256,192,314083,1,0,0:0:0:0:
256,96,314174,1,0,0:0:0:0:
256,192,314265,1,8,0:0:0:0:
256,96,314356,1,8,0:0:0:0:
256,192,314447,1,8,0:0:0:0:
256,96,314538,1,8,0:0:0:0:
256,192,314629,1,8,0:0:0:0:
256,96,314720,1,0,0:0:0:0:
256,192,314811,1,0,0:0:0:0:
256,96,314902,1,0,0:0:0:0:
256,192,314993,1,8,0:0:0:0:
256,96,315083,1,8,0:0:0:0:
256,192,315174,1,8,0:0:0:0:
256,96,315265,1,0,0:0:0:0:
256,192,315356,1,0,0:0:0:0:
256,96,315447,1,0,0:0:0:0:
256,192,315538,1,8,0:0:0:0:
256,96,315629,1,8,0:0:0:0:
256,192,315720,1,8,0:0:0:0:
256,96,315811,1,0,0:0:0:0:
256,192,315902,1,0,0:0:0:0:
256,96,315993,1,8,0:0:0:0:
256,192,316083,1,0,0:0:0:0:
256,96,316174,1,0,0:0:0:0:
256,192,316265,1,8,0:0:0:0:
256,96,316356,1,0,0:0:0:0:
256,192,316447,1,0,0:0:0:0:
256,96,316538,1,8,0:0:0:0:
256,192,316629,1,0,0:0:0:0:
256,96,316720,1,0,0:0:0:0:
256,192,316811,1,8,0:0:0:0:
256,96,316902,1,0,0:0:0:0:
256,192,316993,1,0,0:0:0:0:
256,96,317083,1,8,0:0:0:0:
256,192,317174,1,0,0:0:0:0:
256,96,317265,1,8,0:0:0:0:
192,96,318255,1,12,0:0:0:0:
192,288,318500,1,8,0:0:0:0:
320,288,318562,1,8,0:0:0:0:
192,288,318623,1,8,0:0:0:0:
192,288,318746,1,8,0:0:0:0:
192,288,318869,1,0,0:0:0:0:
192,288,318992,1,8,0:0:0:0:
320,288,319054,1,8,0:0:0:0:
192,288,319115,1,8,0:0:0:0:
192,288,319238,1,0,0:0:0:0:
192,288,319361,1,8,0:0:0:0:
192,288,319484,1,0,0:0:0:0:
192,96,319730,1,4,0:0:0:0:
192,288,319976,1,8,0:0:0:0:
320,288,320037,1,8,0:0:0:0:
192,288,320099,1,0,0:0:0:0:
192,288,320222,1,0,0:0:0:0:
192,288,320345,1,8,0:0:0:0:
192,288,320468,1,0,0:0:0:0:
320,288,320529,1,0,0:0:0:0:
192,288,320591,1,8,0:0:0:0:
192,288,320714,1,0,0:0:0:0:
192,288,320836,1,0,0:0:0:0:
192,288,320959,1,8,0:0:0:0:
192,96,321205,1,4,0:0:0:0:
192,288,321451,1,8,0:0:0:0:
320,288,321513,1,8,0:0:0:0:
192,288,321574,1,0,0:0:0:0:
320,288,321636,1,0,0:0:0:0:
192,288,321697,1,0,0:0:0:0:
192,288,321820,1,0,0:0:0:0:
192,288,321943,1,8,0:0:0:0:
320,288,322005,1,8,0:0:0:0:
192,288,322066,1,0,0:0:0:0:
320,288,322127,1,0,0:0:0:0:
192,288,322189,1,0,0:0:0:0:
192,288,322312,1,0,0:0:0:0:
192,288,322435,1,8,0:0:0:0:
192,96,322681,1,4,0:0:0:0:
192,288,322927,1,8,0:0:0:0:
320,288,322988,1,8,0:0:0:0:
192,288,323050,1,0,0:0:0:0:
320,288,323111,1,0,0:0:0:0:
192,288,323173,1,8,0:0:0:0:
192,288,323295,1,0,0:0:0:0:
192,288,323418,1,8,0:0:0:0:
320,288,323480,1,8,0:0:0:0:
192,288,323541,1,0,0:0:0:0:
320,288,323603,1,0,0:0:0:0:
192,288,323664,1,8,0:0:0:0:
192,288,323787,1,0,0:0:0:0:
192,288,323910,1,8,0:0:0:0:
192,96,324156,1,12,0:0:0:0:
192,288,324402,1,8,0:0:0:0:
320,288,324464,1,8,0:0:0:0:
192,288,324525,1,8,0:0:0:0:
320,288,324586,1,8,0:0:0:0:
192,288,324648,1,0,0:0:0:0:
192,288,324771,1,0,0:0:0:0:
192,288,324894,1,8,0:0:0:0:
320,288,324955,1,8,0:0:0:0:
192,288,325017,1,8,0:0:0:0:
320,288,325078,1,8,0:0:0:0:
192,288,325140,1,0,0:0:0:0:
192,288,325263,1,0,0:0:0:0:
192,288,325386,1,8,0:0:0:0:
192,96,325632,1,12,0:0:0:0:
192,288,325877,1,0,0:0:0:0:
320,288,325939,1,0,0:0:0:0:
192,288,326000,1,0,0:0:0:0:
320,288,326062,1,0,0:0:0:0:
192,288,326123,1,8,0:0:0:0:
192,288,326246,1,0,0:0:0:0:
192,288,326369,1,0,0:0:0:0:
320,288,326431,1,0,0:0:0:0:
192,288,326492,1,0,0:0:0:0:
320,288,326554,1,0,0:0:0:0:
192,288,326615,1,8,0:0:0:0:
192,288,326738,1,0,0:0:0:0:
192,288,326861,1,8,0:0:0:0:
192,96,327107,1,12,0:0:0:0:
192,288,327353,1,8,0:0:0:0:
320,288,327414,1,8,0:0:0:0:
192,288,327476,1,0,0:0:0:0:
320,288,327537,1,0,0:0:0:0:
192,288,327599,1,8,0:0:0:0:
192,288,327722,1,0,0:0:0:0:
192,288,327845,1,8,0:0:0:0:
320,288,327906,1,8,0:0:0:0:
192,288,327968,1,0,0:0:0:0:
320,288,328029,1,0,0:0:0:0:
192,288,328091,1,8,0:0:0:0:
192,288,328214,1,0,0:0:0:0:
192,288,328336,1,8,0:0:0:0:
192,96,328582,1,12,0:0:0:0:
192,288,328828,1,8,0:0:0:0:
320,288,328890,1,8,0:0:0:0:
192,288,328951,1,0,0:0:0:0:
320,288,329013,1,0,0:0:0:0:
192,288,329074,1,8,0:0:0:0:
192,288,329197,1,0,0:0:0:0:
192,288,329320,1,8,0:0:0:0:
320,288,329382,1,8,0:0:0:0:
192,288,329443,1,0,0:0:0:0:
320,288,329505,1,0,0:0:0:0:
192,288,329566,1,8,0:0:0:0:
192,288,329689,1,0,0:0:0:0:
192,288,329812,1,8,0:0:0:0:
192,96,330058,1,12,0:0:0:0:
192,288,330304,1,0,0:0:0:0:
320,288,330365,1,0,0:0:0:0:
192,288,330427,1,8,0:0:0:0:
320,288,330488,1,8,0:0:0:0:
192,288,330550,1,0,0:0:0:0:
192,288,330673,1,0,0:0:0:0:
192,288,330795,1,8,0:0:0:0:
320,288,330857,1,8,0:0:0:0:
192,288,330918,1,0,0:0:0:0:
192,288,331041,1,8,0:0:0:0:
192,288,331164,1,0,0:0:0:0:
192,288,331287,1,8,0:0:0:0:
192,96,331533,1,4,0:0:0:0:
192,288,331779,1,8,0:0:0:0:
320,288,331841,1,8,0:0:0:0:
192,288,331902,1,0,0:0:0:0:
320,288,331964,1,0,0:0:0:0:
192,288,332025,1,8,0:0:0:0:
192,288,332148,1,0,0:0:0:0:
192,288,332271,1,8,0:0:0:0:
192,288,332394,1,0,0:0:0:0:
320,288,332455,1,0,0:0:0:0:
192,288,332517,1,8,0:0:0:0:
192,288,332640,1,0,0:0:0:0:
192,288,332763,1,8,0:0:0:0:
192,96,333009,1,4,0:0:0:0:
192,288,333255,1,8,0:0:0:0:
320,288,333316,1,8,0:0:0:0:
192,288,333377,1,0,0:0:0:0:
320,288,333439,1,0,0:0:0:0:
192,288,333500,1,8,0:0:0:0:
192,288,333623,1,0,0:0:0:0:
192,288,333746,1,8,0:0:0:0:
192,288,333869,1,0,0:0:0:0:
320,288,333931,1,0,0:0:0:0:
192,288,333992,1,8,0:0:0:0:
192,288,334115,1,0,0:0:0:0:
192,288,334238,1,8,0:0:0:0:
192,96,334484,1,4,0:0:0:0:
192,288,334730,1,8,0:0:0:0:
320,288,334791,1,8,0:0:0:0:
192,288,334853,1,8,0:0:0:0:
320,288,334914,1,8,0:0:0:0:
192,288,334976,1,0,0:0:0:0:
320,288,335037,1,0,0:0:0:0:
192,288,335099,1,0,0:0:0:0:
320,288,335160,1,0,0:0:0:0:
192,288,335222,1,8,0:0:0:0:
192,288,335345,1,0,0:0:0:0:
192,288,335468,1,8,0:0:0:0:
192,288,335591,1,0,0:0:0:0:
192,288,335714,1,8,0:0:0:0:
192,96,335959,1,12,0:0:0:0:
192,288,336205,1,8,0:0:0:0:
320,288,336267,1,8,0:0:0:0:
192,288,336328,1,0,0:0:0:0:
320,288,336390,1,0,0:0:0:0:
192,288,336451,1,8,0:0:0:0:
192,288,336574,1,0,0:0:0:0:
192,288,336697,1,8,0:0:0:0:
320,288,336759,1,8,0:0:0:0:
192,288,336820,1,0,0:0:0:0:
192,288,336943,1,8,0:0:0:0:
192,288,337066,1,0,0:0:0:0:
192,288,337189,1,8,0:0:0:0:
192,96,337435,1,12,0:0:0:0:
192,288,337681,1,0,0:0:0:0:
320,288,337742,1,0,0:0:0:0:
192,288,337804,1,0,0:0:0:0:
320,288,337865,1,0,0:0:0:0:
192,288,337927,1,8,0:0:0:0:
320,288,337988,1,8,0:0:0:0:
192,288,338050,1,0,0:0:0:0:
192,288,338173,1,8,0:0:0:0:
192,288,338295,1,0,0:0:0:0:
320,288,338357,1,0,0:0:0:0:
192,288,338418,1,8,0:0:0:0:
192,288,338541,1,0,0:0:0:0:
192,288,338664,1,8,0:0:0:0:
192,96,338910,1,12,0:0:0:0:
192,288,339156,1,8,0:0:0:0:
320,288,339218,1,8,0:0:0:0:
192,288,339279,1,0,0:0:0:0:
320,288,339341,1,0,0:0:0:0:
192,288,339402,1,8,0:0:0:0:
192,288,339525,1,0,0:0:0:0:
192,288,339648,1,8,0:0:0:0:
320,288,339709,1,8,0:0:0:0:
192,288,339771,1,0,0:0:0:0:
192,288,339894,1,8,0:0:0:0:
192,288,340017,1,0,0:0:0:0:
192,288,340140,1,8,0:0:0:0:
192,96,340386,1,12,0:0:0:0:
192,288,340632,1,8,0:0:0:0:
320,288,340693,1,8,0:0:0:0:
192,288,340755,1,0,0:0:0:0:
192,288,340877,1,8,0:0:0:0:
192,288,341000,1,0,0:0:0:0:
192,288,341123,1,8,0:0:0:0:
320,288,341185,1,8,0:0:0:0:
192,288,341246,1,8,0:0:0:0:
320,288,341308,1,8,0:0:0:0:
192,288,341369,1,0,0:0:0:0:
320,288,341431,1,0,0:0:0:0:
192,288,341492,1,0,0:0:0:0:
320,288,341554,1,8,0:0:0:0:
192,288,341615,1,8,0:0:0:0:
320,288,341677,1,8,0:0:0:0:
192,288,341738,1,0,0:0:0:0:
320,288,341800,1,0,0:0:0:0:
256,192,341861,12,0,343530,0:0:0:0:
192,96,350330,5,12,0:0:0:0:
192,96,350508,1,0,0:0:0:0:
320,96,350597,1,0,0:0:0:0:
192,96,350687,1,8,0:0:0:0:
320,96,350776,1,8,0:0:0:0:
192,96,350865,1,0,0:0:0:0:
192,96,351044,1,0,0:0:0:0:
192,96,351222,1,12,0:0:0:0:
192,96,351401,1,4,0:0:0:0:
192,96,351580,1,8,0:0:0:0:
320,96,351669,1,8,0:0:0:0:
192,96,351758,1,0,0:0:0:0:
320,96,351847,1,0,0:0:0:0:
192,96,351937,1,8,0:0:0:0:
192,96,352115,1,0,0:0:0:0:
320,96,352205,1,8,0:0:0:0:
192,96,352294,1,0,0:0:0:0:
192,96,352472,1,12,0:0:0:0:
192,96,352651,1,0,0:0:0:0:
320,96,352740,1,0,0:0:0:0:
192,96,352830,1,8,0:0:0:0:
320,96,352919,1,8,0:0:0:0:
192,96,353008,1,0,0:0:0:0:
320,96,353097,1,0,0:0:0:0:
192,96,353187,1,8,0:0:0:0:
320,96,353276,1,0,0:0:0:0:
192,96,353365,1,8,0:0:0:0:
192,96,353544,1,4,0:0:0:0:
192,96,353722,1,0,0:0:0:0:
320,96,353812,1,0,0:0:0:0:
192,96,353901,1,8,0:0:0:0:
320,96,353990,1,0,0:0:0:0:
192,96,354080,1,0,0:0:0:0:
320,96,354169,1,8,0:0:0:0:
192,96,354258,1,8,0:0:0:0:
320,96,354347,1,0,0:0:0:0:
192,96,354437,1,0,0:0:0:0:
320,96,354526,1,8,0:0:0:0:
192,96,354615,1,0,0:0:0:0:
192,96,354794,1,0,0:0:0:0:
320,96,354883,1,0,0:0:0:0:
192,96,354972,1,8,0:0:0:0:
320,96,355062,1,8,0:0:0:0:
192,96,355151,1,8,0:0:0:0:
320,96,355240,1,0,0:0:0:0:
192,96,355330,1,8,0:0:0:0:
192,96,355508,1,12,0:0:0:0:
192,96,355687,1,4,0:0:0:0:
192,96,355865,1,0,0:0:0:0:
320,96,355955,1,0,0:0:0:0:
192,96,356044,1,8,0:0:0:0:
320,96,356133,1,0,0:0:0:0:
192,96,356222,1,8,0:0:0:0:
320,96,356312,1,8,0:0:0:0:
192,96,356401,1,0,0:0:0:0:
320,96,356490,1,8,0:0:0:0:
192,96,356580,1,0,0:0:0:0:
192,96,356758,1,4,0:0:0:0:
192,96,356937,1,0,0:0:0:0:
320,96,357026,1,0,0:0:0:0:
192,96,357115,1,8,0:0:0:0:
320,96,357205,1,8,0:0:0:0:
192,96,357294,1,0,0:0:0:0:
320,96,357383,1,8,0:0:0:0:
192,96,357472,1,8,0:0:0:0:
320,96,357562,1,8,0:0:0:0:
192,96,357651,1,0,0:0:0:0:
192,96,357830,1,12,0:0:0:0:
192,96,358008,1,0,0:0:0:0:
320,96,358097,1,0,0:0:0:0:
192,96,358187,1,8,0:0:0:0:
320,96,358276,1,0,0:0:0:0:
192,96,358365,1,8,0:0:0:0:
320,96,358455,1,0,0:0:0:0:
192,96,358544,1,8,0:0:0:0:
320,96,358633,1,0,0:0:0:0:
192,96,358722,1,8,0:0:0:0:
320,96,358901,1,12,0:0:0:0:
192,96,359080,1,0,0:0:0:0:
320,96,359169,1,0,0:0:0:0:
192,96,359258,1,8,0:0:0:0:
320,96,359347,1,0,0:0:0:0:
192,96,359437,1,8,0:0:0:0:
320,96,359526,1,8,0:0:0:0:
192,96,359615,1,0,0:0:0:0:
192,96,359794,1,12,0:0:0:0:
192,96,359972,1,4,0:0:0:0:
192,96,360151,1,0,0:0:0:0:
320,96,360240,1,0,0:0:0:0:
192,96,360330,1,8,0:0:0:0:
320,96,360419,1,0,0:0:0:0:
192,96,360508,1,8,0:0:0:0:
320,96,360597,1,0,0:0:0:0:
192,96,360687,1,8,0:0:0:0:
320,96,360776,1,8,0:0:0:0:
192,96,360865,1,0,0:0:0:0:
192,96,361044,1,12,0:0:0:0:
192,96,361222,1,0,0:0:0:0:
320,96,361312,1,0,0:0:0:0:
192,96,361401,1,8,0:0:0:0:
320,96,361490,1,0,0:0:0:0:
192,96,361580,1,0,0:0:0:0:
320,96,361669,1,8,0:0:0:0:
192,96,361758,1,8,0:0:0:0:
192,96,361937,1,12,0:0:0:0:
192,96,362115,1,4,0:0:0:0:
192,96,362294,1,0,0:0:0:0:
320,96,362383,1,0,0:0:0:0:
192,96,362472,1,8,0:0:0:0:
320,96,362562,1,0,0:0:0:0:
192,96,362651,1,8,0:0:0:0:
320,96,362740,1,8,0:0:0:0:
192,96,362830,1,0,0:0:0:0:
320,96,362919,1,8,0:0:0:0:
192,96,363008,1,0,0:0:0:0:
320,96,363097,1,8,0:0:0:0:
192,96,363187,1,0,0:0:0:0:
192,96,363365,1,0,0:0:0:0:
320,96,363455,1,0,0:0:0:0:
192,96,363544,1,0,0:0:0:0:
320,96,363633,1,0,0:0:0:0:
192,96,363722,1,8,0:0:0:0:
320,96,363812,1,0,0:0:0:0:
192,96,363901,1,0,0:0:0:0:
320,96,363990,1,8,0:0:0:0:
192,96,364080,1,8,0:0:0:0:
192,96,364258,1,4,0:0:0:0:
192,96,364437,1,0,0:0:0:0:
320,96,364526,1,0,0:0:0:0:
192,96,364615,1,8,0:0:0:0:
320,96,364705,1,0,0:0:0:0:
192,96,364794,1,8,0:0:0:0:
320,96,364883,1,0,0:0:0:0:
192,96,364972,1,8,0:0:0:0:
320,96,365062,1,8,0:0:0:0:
192,96,365151,1,0,0:0:0:0:
192,96,365330,1,12,0:0:0:0:
192,96,365654,1,0,0:0:0:0:
192,96,365816,1,0,0:0:0:0:
192,96,365978,1,8,0:0:0:0:
192,96,366140,1,8,0:0:0:0:
192,96,366302,1,0,0:0:0:0:
320,96,366390,1,8,0:0:0:0:
192,96,366478,1,0,0:0:0:0:
320,96,366566,1,0,0:0:0:0:
192,96,366654,1,8,0:0:0:0:
320,96,366743,1,0,0:0:0:0:
192,96,366831,1,8,0:0:0:0:
192,96,367007,1,4,0:0:0:0:
192,96,367355,1,12,0:0:0:0:
192,96,367533,1,0,0:0:0:0:
320,96,367622,1,0,0:0:0:0:
192,96,367712,1,0,0:0:0:0:
320,96,367801,1,8,0:0:0:0:
192,96,367890,1,8,0:0:0:0:
320,96,367980,1,8,0:0:0:0:
192,96,368069,1,0,0:0:0:0:
192,96,368247,1,12,0:0:0:0:
192,96,368426,1,0,0:0:0:0:
192,96,368605,1,0,0:0:0:0:
320,96,368694,1,0,0:0:0:0:
192,96,368783,1,8,0:0:0:0:
320,96,368872,1,0,0:0:0:0:
192,96,368962,1,8,0:0:0:0:
320,96,369051,1,0,0:0:0:0:
192,96,369140,1,8,0:0:0:0:
320,96,369230,1,8,0:0:0:0:
192,96,369319,1,0,0:0:0:0:
192,96,369497,1,12,0:0:0:0:
192,96,369676,1,0,0:0:0:0:
320,96,369765,1,0,0:0:0:0:
192,96,369855,1,8,0:0:0:0:
320,96,369944,1,8,0:0:0:0:
192,96,370033,1,0,0:0:0:0:
320,96,370122,1,8,0:0:0:0:
192,96,370212,1,8,0:0:0:0:
320,96,370301,1,8,0:0:0:0:
192,96,370390,1,0,0:0:0:0:
320,96,370480,1,8,0:0:0:0:
192,96,370569,1,0,0:0:0:0:
192,96,370747,1,0,0:0:0:0:
320,96,370837,1,0,0:0:0:0:
192,96,370926,1,8,0:0:0:0:
320,96,371015,1,0,0:0:0:0:
192,96,371105,1,0,0:0:0:0:
320,96,371194,1,8,0:0:0:0:
192,96,371283,1,8,0:0:0:0:
320,96,371372,1,0,0:0:0:0:
192,96,371462,1,8,0:0:0:0:
320,96,371551,1,0,0:0:0:0:
192,96,371640,1,0,0:0:0:0:
192,96,371819,1,0,0:0:0:0:
320,96,371908,1,0,0:0:0:0:
192,96,371997,1,8,0:0:0:0:
320,96,372087,1,8,0:0:0:0:
192,96,372176,1,0,0:0:0:0:
320,96,372265,1,8,0:0:0:0:
192,96,372355,1,0,0:0:0:0:
192,96,372533,1,12,0:0:0:0:
192,96,372712,1,4,0:0:0:0:
192,96,372890,1,8,0:0:0:0:
320,96,372980,1,8,0:0:0:0:
192,96,373069,1,8,0:0:0:0:
320,96,373158,1,0,0:0:0:0:
192,96,373247,1,0,0:0:0:0:
320,96,373337,1,8,0:0:0:0:
192,96,373426,1,0,0:0:0:0:
320,96,373515,1,0,0:0:0:0:
192,96,373605,1,8,0:0:0:0:
320,96,373694,1,8,0:0:0:0:
192,96,373783,1,0,0:0:0:0:
192,96,373962,1,0,0:0:0:0:
320,96,374051,1,0,0:0:0:0:
192,96,374140,1,8,0:0:0:0:
320,96,374230,1,8,0:0:0:0:
192,96,374319,1,8,0:0:0:0:
320,96,374408,1,0,0:0:0:0:
192,96,374497,1,0,0:0:0:0:
320,96,374587,1,8,0:0:0:0:
192,96,374676,1,0,0:0:0:0:
192,96,374855,1,12,0:0:0:0:
192,96,375033,1,0,0:0:0:0:
320,96,375122,1,8,0:0:0:0:
192,96,375212,1,0,0:0:0:0:
320,96,375301,1,8,0:0:0:0:
192,96,375390,1,0,0:0:0:0:
320,96,375480,1,8,0:0:0:0:
192,96,375569,1,8,0:0:0:0:
320,96,375658,1,0,0:0:0:0:
192,96,375747,1,8,0:0:0:0:
192,96,375926,1,12,0:0:0:0:
192,96,376105,1,0,0:0:0:0:
320,96,376194,1,0,0:0:0:0:
192,96,376283,1,8,0:0:0:0:
320,96,376372,1,8,0:0:0:0:
192,96,376462,1,0,0:0:0:0:
320,96,376551,1,8,0:0:0:0:
192,96,376640,1,0,0:0:0:0:
192,96,376819,1,12,0:0:0:0:
192,96,376997,1,4,0:0:0:0:
192,96,377176,1,8,0:0:0:0:
320,96,377265,1,8,0:0:0:0:
192,96,377355,1,8,0:0:0:0:
320,96,377444,1,0,0:0:0:0:
192,96,377533,1,0,0:0:0:0:
320,96,377622,1,8,0:0:0:0:
192,96,377712,1,0,0:0:0:0:
320,96,377801,1,0,0:0:0:0:
192,96,377890,1,8,0:0:0:0:
192,96,378069,1,12,0:0:0:0:
192,96,378247,1,0,0:0:0:0:
320,96,378337,1,0,0:0:0:0:
192,96,378426,1,8,0:0:0:0:
320,96,378515,1,8,0:0:0:0:
192,96,378605,1,0,0:0:0:0:
320,96,378694,1,0,0:0:0:0:
192,96,378783,1,0,0:0:0:0:
192,96,378962,1,12,0:0:0:0:
192,96,379140,1,4,0:0:0:0:
192,96,379319,1,0,0:0:0:0:
320,96,379409,1,0,0:0:0:0:
192,96,379499,1,8,0:0:0:0:
320,96,379589,1,0,0:0:0:0:
192,96,379678,1,8,0:0:0:0:
320,96,379768,1,8,0:0:0:0:
192,96,379858,1,0,0:0:0:0:
192,96,380038,1,0,0:0:0:0:
320,96,380128,1,8,0:0:0:0:
192,96,380217,1,0,0:0:0:0:
192,96,380395,1,0,0:0:0:0:
320,96,380484,1,0,0:0:0:0:
192,96,380574,1,0,0:0:0:0:
320,96,380663,1,8,0:0:0:0:
192,96,380752,1,8,0:0:0:0:
320,96,380842,1,8,0:0:0:0:
192,96,380931,1,0,0:0:0:0:
320,96,381020,1,8,0:0:0:0:
192,96,381109,1,8,0:0:0:0:
192,96,381288,1,4,0:0:0:0:
192,96,381470,1,8,0:0:0:0:
320,96,381562,1,8,0:0:0:0:
192,96,381653,1,8,0:0:0:0:
320,96,381745,1,0,0:0:0:0:
192,96,381836,1,0,0:0:0:0:
320,96,381928,1,0,0:0:0:0:
192,96,382019,1,8,0:0:0:0:
320,96,382111,1,8,0:0:0:0:
192,96,382202,1,0,0:0:0:0:
320,96,382294,1,8,0:0:0:0:
192,96,382385,1,8,0:0:0:0:
192,96,382748,1,8,0:0:0:0:
192,96,382930,1,8,0:0:0:0:
192,96,383125,1,0,0:0:0:0:
192,96,383320,1,0,0:0:0:0:
192,96,383515,1,8,0:0:0:0:
192,96,383708,1,0,0:0:0:0:
192,96,383902,1,8,0:0:0:0:
192,96,384095,1,8,0:0:0:0:
192,96,384289,1,0,0:0:0:0:
192,96,384495,1,0,0:0:0:0:
192,96,384702,1,0,0:0:0:0:
192,96,384895,1,8,0:0:0:0:
192,96,385089,1,0,0:0:0:0:
192,96,385303,1,0,0:0:0:0:
192,96,385517,1,0,0:0:0:0:
192,96,385739,1,8,0:0:0:0:
192,96,385961,5,0,0:0:0:0:
192,96,386294,5,4,0:0:0:0:
192,96,386657,1,12,0:0:0:0:
192,96,387026,1,0,0:0:0:0:
192,96,387395,1,8,0:0:0:0:
192,96,387764,1,8,0:0:0:0:
192,96,388139,1,0,0:0:0:0:
192,96,388514,1,8,0:0:0:0:
192,96,388821,1,8,0:0:0:0:
192,96,389128,1,0,0:0:0:0:
192,96,389436,1,0,0:0:0:0:
192,96,389744,1,8,0:0:0:0:
192,96,390051,1,8,0:0:0:0:
192,96,390359,1,8,0:0:0:0:
192,96,390644,1,0,0:0:0:0:
192,96,390930,1,8,0:0:0:0:
192,96,391216,1,8,0:0:0:0:
192,96,391501,1,8,0:0:0:0:
192,96,391793,1,8,0:0:0:0:
192,96,391935,1,8,0:0:0:0:
192,96,392078,1,8,0:0:0:0:
192,96,392334,1,8,0:0:0:0:
192,96,392462,1,8,0:0:0:0:
192,96,392654,1,8,0:0:0:0:
192,96,392847,1,0,0:0:0:0:
192,96,393039,1,8,0:0:0:0:
192,96,393231,1,8,0:0:0:0:
192,96,393424,1,0,0:0:0:0:
192,96,393616,1,0,0:0:0:0:
192,96,394001,1,8,0:0:0:0:
192,96,394193,1,8,0:0:0:0:
192,96,394385,1,0,0:0:0:0:
192,96,394578,1,0,0:0:0:0:
320,96,394674,1,0,0:0:0:0:
192,96,394770,1,8,0:0:0:0:
320,96,394866,1,8,0:0:0:0:
192,96,394962,1,0,0:0:0:0:
320,96,395058,1,8,0:0:0:0:
192,96,395154,1,0,0:0:0:0:
192,96,395347,1,0,0:0:0:0:
192,96,395539,1,0,0:0:0:0:
192,96,395731,1,8,0:0:0:0:
192,96,395924,1,8,0:0:0:0:
192,96,396308,1,8,0:0:0:0:
192,96,396693,1,12,0:0:0:0:
320,96,396949,1,8,0:0:0:0:
192,96,397078,1,8,0:0:0:0:
256,96,397270,1,8,0:0:0:0:
192,96,397462,1,8,0:0:0:0:
192,96,397654,1,0,0:0:0:0:
192,96,397847,1,8,0:0:0:0:
192,96,398231,1,8,0:0:0:0:
192,96,398424,1,0,0:0:0:0:
192,96,398616,1,8,0:0:0:0:
192,96,399001,1,0,0:0:0:0:
192,96,399193,1,8,0:0:0:0:
320,96,399289,1,0,0:0:0:0:
192,96,399385,1,8,0:0:0:0:
320,96,399481,1,0,0:0:0:0:
192,96,399578,1,8,0:0:0:0:
320,96,399674,1,0,0:0:0:0:
192,96,399770,1,8,0:0:0:0:
320,96,399866,1,0,0:0:0:0:
192,96,399962,1,8,0:0:0:0:
320,96,400058,1,8,0:0:0:0:
192,96,400154,1,0,0:0:0:0:
192,96,400347,1,0,0:0:0:0:
192,96,400539,1,0,0:0:0:0:
192,96,400924,1,8,0:0:0:0:
320,96,401212,1,0,0:0:0:0:
192,96,401322,1,0,0:0:0:0:
192,96,401595,1,0,0:0:0:0:
192,96,401732,1,0,0:0:0:0:
192,96,401938,1,0,0:0:0:0:
192,96,402143,1,0,0:0:0:0:
192,96,402353,1,8,0:0:0:0:
192,96,402564,1,8,0:0:0:0:
192,96,402776,1,8,0:0:0:0:
192,96,402989,1,0,0:0:0:0:
192,96,403202,1,0,0:0:0:0:
192,96,403415,1,8,0:0:0:0:
192,96,403619,1,0,0:0:0:0:
192,96,403823,1,8,0:0:0:0:
192,96,404231,1,8,0:0:0:0:
192,96,404659,1,8,0:0:0:0:
192,96,404889,1,8,0:0:0:0:
192,96,405120,1,0,0:0:0:0:
192,96,405607,1,0,0:0:0:0:
192,96,406188,1,0,0:0:0:0:
192,96,406789,1,4,0:0:0:0:
256,192,407157,12,0,411426,0:0:0:0:
192,96,415124,5,12,0:0:0:0:
192,96,415323,1,0,0:0:0:0:
320,96,415423,1,0,0:0:0:0:
192,96,415523,1,8,0:0:0:0:
320,96,415623,1,8,0:0:0:0:
192,96,415723,1,0,0:0:0:0:
192,96,415923,1,0,0:0:0:0:
192,96,416123,1,12,0:0:0:0:
192,96,416323,1,4,0:0:0:0:
192,96,416522,1,8,0:0:0:0:
320,96,416622,1,8,0:0:0:0:
192,96,416722,1,0,0:0:0:0:
320,96,416822,1,8,0:0:0:0:
192,96,416922,1,0,0:0:0:0:
192,96,417122,1,0,0:0:0:0:
320,96,417222,1,8,0:0:0:0:
192,96,417322,1,0,0:0:0:0:
192,96,417522,1,12,0:0:0:0:
192,96,417721,1,0,0:0:0:0:
320,96,417821,1,0,0:0:0:0:
192,96,417921,1,8,0:0:0:0:
320,96,418021,1,8,0:0:0:0:
192,96,418121,1,0,0:0:0:0:
320,96,418221,1,0,0:0:0:0:
192,96,418321,1,8,0:0:0:0:
192,96,418521,1,4,0:0:0:0:
192,96,418721,1,4,0:0:0:0:
192,96,418920,1,0,0:0:0:0:
320,96,419020,1,0,0:0:0:0:
192,96,419120,1,8,0:0:0:0:
192,96,419320,1,0,0:0:0:0:
192,96,419520,1,8,0:0:0:0:
320,96,419620,1,8,0:0:0:0:
192,96,419720,1,0,0:0:0:0:
320,96,419820,1,8,0:0:0:0:
192,96,419920,1,0,0:0:0:0:
192,96,420119,1,0,0:0:0:0:
192,96,420319,1,0,0:0:0:0:
320,96,420419,1,0,0:0:0:0:
192,96,420519,1,8,0:0:0:0:
320,96,420619,1,8,0:0:0:0:
192,96,420719,1,8,0:0:0:0:
192,96,420919,1,12,0:0:0:0:
192,96,421119,1,4,0:0:0:0:
192,96,421318,1,8,0:0:0:0:
320,96,421418,1,8,0:0:0:0:
192,96,421518,1,0,0:0:0:0:
320,96,421618,1,0,0:0:0:0:
192,96,421718,1,8,0:0:0:0:
320,96,421818,1,0,0:0:0:0:
192,96,421918,1,0,0:0:0:0:
192,96,422118,1,4,0:0:0:0:
192,96,422318,1,12,0:0:0:0:
192,96,422517,1,0,0:0:0:0:
320,96,422617,1,0,0:0:0:0:
192,96,422717,1,8,0:0:0:0:
320,96,422817,1,0,0:0:0:0:
192,96,422917,1,8,0:0:0:0:
320,96,423017,1,8,0:0:0:0:
192,96,423117,1,0,0:0:0:0:
192,96,423317,1,4,0:0:0:0:
192,96,423517,1,12,0:0:0:0:
192,96,423716,1,8,0:0:0:0:
320,96,423816,1,8,0:0:0:0:
192,96,423916,1,8,0:0:0:0:
320,96,424016,1,8,0:0:0:0:
192,96,424116,1,8,0:0:0:0:
320,96,424216,1,8,0:0:0:0:
192,96,424316,1,8,0:0:0:0:
320,96,424416,1,0,0:0:0:0:
192,96,424516,1,0,0:0:0:0:
320,96,424616,1,0,0:0:0:0:
192,96,424716,1,8,0:0:0:0:
192,96,424915,1,0,0:0:0:0:
192,96,425115,1,0,0:0:0:0:
320,96,425215,1,8,0:0:0:0:
192,96,425315,1,0,0:0:0:0:
320,96,425415,1,8,0:0:0:0:
192,96,425515,1,0,0:0:0:0:
192,96,425715,1,12,0:0:0:0:
192,96,425915,1,4,0:0:0:0:
192,96,426114,1,0,0:0:0:0:
320,96,426214,1,0,0:0:0:0:
192,96,426314,1,8,0:0:0:0:
320,96,426414,1,8,0:0:0:0:
192,96,426514,1,0,0:0:0:0:
320,96,426614,1,8,0:0:0:0:
192,96,426714,1,0,0:0:0:0:
192,96,426914,1,0,0:0:0:0:
192,96,427114,1,8,0:0:0:0:
192,96,427313,1,0,0:0:0:0:
192,96,427513,1,8,0:0:0:0:
320,96,427613,1,0,0:0:0:0:
192,96,427713,1,8,0:0:0:0:
320,96,427813,1,8,0:0:0:0:
192,96,427913,1,0,0:0:0:0:
192,96,428113,1,12,0:0:0:0:
192,96,428313,1,4,0:0:0:0:
192,96,428512,1,0,0:0:0:0:
320,96,428612,1,0,0:0:0:0:
192,96,428712,1,0,0:0:0:0:
320,96,428812,1,8,0:0:0:0:
192,96,428912,1,8,0:0:0:0:
320,96,429012,1,0,0:0:0:0:
192,96,429112,1,8,0:0:0:0:
192,96,429312,1,0,0:0:0:0:
192,96,429512,1,8,0:0:0:0:
192,96,429711,1,0,0:0:0:0:
320,96,429811,1,0,0:0:0:0:
192,96,429911,1,0,0:0:0:0:
320,96,430011,1,0,0:0:0:0:
192,96,430111,1,8,0:0:0:0:
320,96,430211,1,8,0:0:0:0:
192,96,430311,1,8,0:0:0:0:
320,96,430411,1,8,0:0:0:0:
192,96,430511,1,0,0:0:0:0:
320,96,430611,1,0,0:0:0:0:
192,96,430711,1,8,0:0:0:0:
320,96,430810,1,0,0:0:0:0:
192,96,430910,1,0,0:0:0:0:
320,96,431003,1,8,0:0:0:0:
192,96,431091,1,8,0:0:0:0:
320,96,431185,1,8,0:0:0:0:
192,96,431279,1,0,0:0:0:0:
192,96,431374,1,0,0:0:0:0:
192,96,431468,1,8,0:0:0:0:
192,96,431562,1,8,0:0:0:0:
192,96,431657,1,8,0:0:0:0:
192,96,431751,1,8,0:0:0:0:
192,96,431845,1,8,0:0:0:0:
192,96,431940,1,8,0:0:0:0:
192,96,432034,1,8,0:0:0:0:
192,96,432128,1,8,0:0:0:0:
192,96,432223,1,8,0:0:0:0:
192,96,432317,1,8,0:0:0:0:
192,96,432411,1,8,0:0:0:0:
192,96,432506,1,8,0:0:0:0:
192,96,432600,1,8,0:0:0:0:
192,96,432694,1,8,0:0:0:0:
192,96,432789,1,8,0:0:0:0:
192,96,432883,1,8,0:0:0:0:
192,96,432977,1,8,0:0:0:0:
192,96,433072,1,8,0:0:0:0:
192,96,433166,1,8,0:0:0:0:
192,96,433260,1,8,0:0:0:0:
192,96,433355,1,8,0:0:0:0:
192,96,433449,1,8,0:0:0:0:
192,96,433543,1,8,0:0:0:0:
192,96,433638,1,8,0:0:0:0:
192,96,433732,1,8,0:0:0:0:
192,96,433826,1,8,0:0:0:0:
192,96,433921,1,0,0:0:0:0:
192,96,434015,1,8,0:0:0:0:
192,96,434109,1,0,0:0:0:0:
256,192,434297,12,0,437882,0:0:0:0:
192,96,441485,5,8,0:0:0:0:
192,96,441748,1,8,0:0:0:0:
256,192,441813,1,8,0:0:0:0:
320,96,441879,1,0,0:0:0:0:
256,192,441945,1,0,0:0:0:0:
192,96,442011,1,8,0:0:0:0:
192,96,442274,1,8,0:0:0:0:
192,96,442537,1,8,0:0:0:0:
320,96,442669,1,0,0:0:0:0:
192,96,442800,1,8,0:0:0:0:
192,96,443063,1,0,0:0:0:0:
192,96,443327,1,8,0:0:0:0:
256,192,443392,1,8,0:0:0:0:
320,96,443458,1,0,0:0:0:0:
256,192,443524,1,0,0:0:0:0:
192,96,443590,1,8,0:0:0:0:
192,96,443853,1,8,0:0:0:0:
320,96,443985,1,0,0:0:0:0:
192,96,444116,1,8,0:0:0:0:
320,96,444248,1,0,0:0:0:0:
192,96,444379,1,8,0:0:0:0:
192,96,444642,1,8,0:0:0:0:
192,96,444906,1,8,0:0:0:0:
256,192,444971,1,8,0:0:0:0:
320,96,445037,1,0,0:0:0:0:
256,192,445103,1,0,0:0:0:0:
192,96,445169,1,0,0:0:0:0:
192,96,445432,1,8,0:0:0:0:
320,96,445563,1,0,0:0:0:0:
192,96,445695,1,8,0:0:0:0:
192,96,445958,1,8,0:0:0:0:
192,96,446221,1,0,0:0:0:0:
192,96,446485,1,8,0:0:0:0:
256,192,446550,1,8,0:0:0:0:
320,96,446616,1,8,0:0:0:0:
256,192,446682,1,8,0:0:0:0:
192,96,446748,1,0,0:0:0:0:
192,96,447011,1,0,0:0:0:0:
320,96,447142,1,0,0:0:0:0:
192,96,447274,1,8,0:0:0:0:
256,192,447340,1,8,0:0:0:0:
320,96,447406,1,0,0:0:0:0:
256,192,447471,1,0,0:0:0:0:
192,96,447537,1,8,0:0:0:0:
192,96,447800,1,8,0:0:0:0:
192,96,448063,1,8,0:0:0:0:
256,192,448129,1,8,0:0:0:0:
320,96,448195,1,8,0:0:0:0:
256,192,448261,1,8,0:0:0:0:
192,96,448327,1,0,0:0:0:0:
320,96,448458,1,0,0:0:0:0:
192,96,448590,1,8,0:0:0:0:
256,192,448656,1,8,0:0:0:0:
320,96,448721,1,8,0:0:0:0:
256,192,448787,1,8,0:0:0:0:
192,96,448853,1,0,0:0:0:0:
320,96,448985,1,0,0:0:0:0:
192,96,449116,1,8,0:0:0:0:
192,96,449379,1,8,0:0:0:0:
192,96,449642,1,8,0:0:0:0:
256,192,449708,1,0,0:0:0:0:
320,96,449774,1,8,0:0:0:0:
256,192,449840,1,0,0:0:0:0:
192,96,449906,1,8,0:0:0:0:
320,96,450037,1,0,0:0:0:0:
192,96,450169,1,8,0:0:0:0:
256,192,450235,1,0,0:0:0:0:
320,96,450300,1,8,0:0:0:0:
256,192,450366,1,0,0:0:0:0:
192,96,450432,1,8,0:0:0:0:
320,96,450563,1,0,0:0:0:0:
192,96,450695,1,8,0:0:0:0:
192,96,450958,1,8,0:0:0:0:
192,96,451221,1,8,0:0:0:0:
256,192,451287,1,8,0:0:0:0:
320,96,451353,1,0,0:0:0:0:
256,192,451419,1,0,0:0:0:0:
192,96,451485,1,8,0:0:0:0:
320,96,451616,1,0,0:0:0:0:
192,96,451748,1,8,0:0:0:0:
256,192,451813,1,8,0:0:0:0:
320,96,451879,1,0,0:0:0:0:
256,192,451945,1,0,0:0:0:0:
192,96,452011,1,8,0:0:0:0:
320,96,452142,1,0,0:0:0:0:
192,96,452274,1,8,0:0:0:0:
192,96,452537,1,8,0:0:0:0:
192,96,452800,1,8,0:0:0:0:
256,192,452866,1,8,0:0:0:0:
320,96,452932,1,8,0:0:0:0:
256,192,452998,1,8,0:0:0:0:
192,96,453063,1,0,0:0:0:0:
320,96,453195,1,0,0:0:0:0:
192,96,453327,1,8,0:0:0:0:
256,192,453392,1,8,0:0:0:0:
320,96,453458,1,0,0:0:0:0:
256,192,453524,1,0,0:0:0:0:
192,96,453590,1,8,0:0:0:0:
320,96,453721,1,0,0:0:0:0:
192,96,453853,1,8,0:0:0:0:
192,96,454116,1,8,0:0:0:0:
192,96,454379,1,8,0:0:0:0:
256,192,454445,1,8,0:0:0:0:
320,96,454511,1,8,0:0:0:0:
256,192,454577,1,8,0:0:0:0:
192,96,454642,1,0,0:0:0:0:
256,192,454708,1,8,0:0:0:0:
320,96,454774,1,8,0:0:0:0:
256,192,454840,1,8,0:0:0:0:
192,96,454906,1,0,0:0:0:0:
256,192,454971,1,8,0:0:0:0:
320,96,455037,1,8,0:0:0:0:
256,192,455103,1,8,0:0:0:0:
192,96,455169,1,0,0:0:0:0:
256,192,455235,1,8,0:0:0:0:
320,96,455300,1,8,0:0:0:0:
256,192,455366,1,8,0:0:0:0:
192,96,455432,1,0,0:0:0:0:
256,192,455498,1,8,0:0:0:0:
320,96,455563,1,8,0:0:0:0:
256,192,455629,1,8,0:0:0:0:
192,96,455695,1,0,0:0:0:0:
192,96,455958,1,8,0:0:0:0:
256,192,456024,1,8,0:0:0:0:
320,96,456090,1,8,0:0:0:0:
256,192,456156,1,8,0:0:0:0:
192,96,456221,1,0,0:0:0:0:
256,192,456287,1,8,0:0:0:0:
320,96,456353,1,8,0:0:0:0:
256,192,456419,1,8,0:0:0:0:
192,96,456485,1,0,0:0:0:0:
256,192,456550,1,8,0:0:0:0:
320,96,456616,1,8,0:0:0:0:
256,192,456682,1,8,0:0:0:0:
192,96,456748,1,0,0:0:0:0:
256,192,456813,1,0,0:0:0:0:
320,96,456879,1,8,0:0:0:0:
256,192,456945,1,8,0:0:0:0:
192,96,457011,1,0,0:0:0:0:
256,192,457077,1,0,0:0:0:0:
320,96,457142,1,8,0:0:0:0:
256,192,457208,1,8,0:0:0:0:
192,96,457274,1,0,0:0:0:0:
192,96,457537,1,8,0:0:0:0:
256,192,457603,1,8,0:0:0:0:
320,96,457669,1,8,0:0:0:0:
256,192,457735,1,8,0:0:0:0:
192,96,457800,1,0,0:0:0:0:
256,192,457866,1,8,0:0:0:0:
320,96,457932,1,8,0:0:0:0:
256,192,457998,1,8,0:0:0:0:
192,96,458063,1,0,0:0:0:0:
256,192,458129,1,8,0:0:0:0:
320,96,458195,1,8,0:0:0:0:
256,192,458261,1,8,0:0:0:0:
192,96,458327,1,0,0:0:0:0:
256,192,458392,1,8,0:0:0:0:
320,96,458458,1,8,0:0:0:0:
256,192,458524,1,8,0:0:0:0:
192,96,458590,1,0,0:0:0:0:
256,192,458656,1,8,0:0:0:0:
320,96,458721,1,8,0:0:0:0:
256,192,458787,1,8,0:0:0:0:
192,96,458853,1,0,0:0:0:0:
192,96,459116,1,8,0:0:0:0:
256,192,459182,1,8,0:0:0:0:
320,96,459248,1,8,0:0:0:0:
256,192,459313,1,8,0:0:0:0:
192,96,459379,1,0,0:0:0:0:
256,192,459445,1,8,0:0:0:0:
320,96,459511,1,8,0:0:0:0:
256,192,459577,1,8,0:0:0:0:
192,96,459642,1,8,0:0:0:0:
256,192,459708,1,8,0:0:0:0:
320,96,459774,1,8,0:0:0:0:
256,192,459840,1,8,0:0:0:0:
192,96,459906,1,0,0:0:0:0:
256,192,459971,1,8,0:0:0:0:
320,96,460037,1,8,0:0:0:0:
256,192,460103,1,8,0:0:0:0:
192,96,460169,1,0,0:0:0:0:
256,192,460235,1,0,0:0:0:0:
320,96,460300,1,0,0:0:0:0:
256,192,460366,1,0,0:0:0:0:
192,96,460432,1,8,0:0:0:0:
192,96,460695,1,8,0:0:0:0:
256,192,460761,1,8,0:0:0:0:
320,96,460827,1,8,0:0:0:0:
256,192,460892,1,8,0:0:0:0:
192,96,460958,1,0,0:0:0:0:
256,192,461024,1,8,0:0:0:0:
320,96,461090,1,8,0:0:0:0:
256,192,461156,1,8,0:0:0:0:
192,96,461221,1,0,0:0:0:0:
256,192,461287,1,0,0:0:0:0:
320,96,461353,1,8,0:0:0:0:
256,192,461419,1,8,0:0:0:0:
192,96,461485,1,0,0:0:0:0:
256,192,461550,1,8,0:0:0:0:
320,96,461616,1,8,0:0:0:0:
256,192,461682,1,8,0:0:0:0:
192,96,461748,1,0,0:0:0:0:
256,192,461813,1,8,0:0:0:0:
320,96,461879,1,8,0:0:0:0:
256,192,461945,1,8,0:0:0:0:
192,96,462011,1,0,0:0:0:0:
192,96,462274,1,0,0:0:0:0:
256,192,462340,1,0,0:0:0:0:
320,96,462406,1,0,0:0:0:0:
256,192,462471,1,0,0:0:0:0:
192,96,462537,1,8,0:0:0:0:
256,192,462603,1,8,0:0:0:0:
320,96,462669,1,8,0:0:0:0:
256,192,462735,1,8,0:0:0:0:
192,96,462800,1,0,0:0:0:0:
256,192,462866,1,8,0:0:0:0:
320,96,462932,1,8,0:0:0:0:
256,192,462998,1,8,0:0:0:0:
192,96,463063,1,0,0:0:0:0:
256,192,463129,1,8,0:0:0:0:
320,96,463195,1,8,0:0:0:0:
256,192,463261,1,8,0:0:0:0:
192,96,463327,1,0,0:0:0:0:
256,192,463392,1,8,0:0:0:0:
320,96,463458,1,8,0:0:0:0:
256,192,463524,1,0,0:0:0:0:
192,96,463590,1,8,0:0:0:0:
192,96,463853,1,8,0:0:0:0:
256,192,463919,1,8,0:0:0:0:
320,96,463985,1,8,0:0:0:0:
256,192,464050,1,8,0:0:0:0:
192,96,464116,1,0,0:0:0:0:
256,192,464182,1,0,0:0:0:0:
320,96,464248,1,8,0:0:0:0:
256,192,464313,1,8,0:0:0:0:
192,96,464379,1,0,0:0:0:0:
256,192,464445,1,0,0:0:0:0:
320,96,464511,1,8,0:0:0:0:
256,192,464577,1,8,0:0:0:0:
192,96,464642,1,0,0:0:0:0:
256,192,464708,1,0,0:0:0:0:
320,96,464774,1,0,0:0:0:0:
256,192,464840,1,0,0:0:0:0:
192,96,464906,1,8,0:0:0:0:
256,192,464977,1,8,0:0:0:0:
320,96,465048,1,0,0:0:0:0:
256,192,465120,1,0,0:0:0:0:
192,96,465191,1,8,0:0:0:0:
256,192,465334,12,0,466801,0:0:0:0:
192,96,466952,5,12,0:0:0:0:
192,96,467276,1,8,0:0:0:0:
320,96,467357,1,8,0:0:0:0:
192,96,467438,1,8,0:0:0:0:
320,96,467519,1,8,0:0:0:0:
192,96,467600,1,0,0:0:0:0:
320,96,467681,1,0,0:0:0:0:
192,96,467762,1,8,0:0:0:0:
320,96,467843,1,8,0:0:0:0:
192,96,467924,1,0,0:0:0:0:
320,96,468007,1,0,0:0:0:0:
192,96,468090,1,8,0:0:0:0:
320,96,468174,1,8,0:0:0:0:
192,96,468257,1,0,0:0:0:0:
320,96,468340,1,8,0:0:0:0:
192,96,468424,1,0,0:0:0:0:
320,96,468507,1,8,0:0:0:0:
192,96,468590,1,0,0:0:0:0:
320,96,468675,1,8,0:0:0:0:
192,96,468761,1,0,0:0:0:0:
320,96,468847,1,8,0:0:0:0:
192,96,468932,1,0,0:0:0:0:
256,192,469063,12,0,469458,0:0:0:0:
192,96,469721,5,0,0:0:0:0:
192,96,469984,1,8,0:0:0:0:
192,96,470116,1,0,0:0:0:0:
192,96,470247,1,8,0:0:0:0:
192,96,470510,1,8,0:0:0:0:
192,96,470774,1,8,0:0:0:0:
192,96,470905,1,0,0:0:0:0:
192,96,471037,1,8,0:0:0:0:
320,96,471103,1,8,0:0:0:0:
192,96,471168,1,8,0:0:0:0:
192,96,471300,1,0,0:0:0:0:
192,96,471432,1,0,0:0:0:0:
192,96,471563,1,8,0:0:0:0:
320,96,471629,1,8,0:0:0:0:
192,96,471695,1,8,0:0:0:0:
192,96,471826,1,8,0:0:0:0:
192,96,471958,1,0,0:0:0:0:
320,96,472024,1,0,0:0:0:0:
192,96,472089,1,8,0:0:0:0:
192,96,472221,1,0,0:0:0:0:
192,96,472353,1,8,0:0:0:0:
192,96,472484,1,0,0:0:0:0:
192,96,472616,1,8,0:0:0:0:
320,96,472682,1,8,0:0:0:0:
192,96,472747,1,8,0:0:0:0:
192,96,472879,1,8,0:0:0:0:
192,96,473010,1,8,0:0:0:0:
320,96,473076,1,8,0:0:0:0:
320,96,473142,1,0,0:0:0:0:
320,96,473208,1,8,0:0:0:0:
192,96,473274,1,0,0:0:0:0:
320,96,473339,1,8,0:0:0:0:
192,96,473405,1,8,0:0:0:0:
320,96,473471,1,0,0:0:0:0:
192,96,473537,1,0,0:0:0:0:
320,96,473603,1,8,0:0:0:0:
192,96,473668,1,0,0:0:0:0:
192,96,473800,1,0,0:0:0:0:
192,96,473931,1,8,0:0:0:0:
192,96,474063,1,0,0:0:0:0:
320,96,474129,1,0,0:0:0:0:
192,96,474195,1,8,0:0:0:0:
192,96,474327,1,8,0:0:0:0:
192,96,474458,1,0,0:0:0:0:
192,96,474590,1,0,0:0:0:0:
192,96,474721,1,8,0:0:0:0:
320,96,474787,1,8,0:0:0:0:
192,96,474853,1,8,0:0:0:0:
192,96,474984,1,0,0:0:0:0:
192,96,475116,1,0,0:0:0:0:
192,96,475248,1,8,0:0:0:0:
192,96,475511,1,8,0:0:0:0:
192,96,475642,1,0,0:0:0:0:
192,96,475774,1,8,0:0:0:0:
320,96,475839,1,8,0:0:0:0:
192,96,475905,1,8,0:0:0:0:
192,96,476037,1,0,0:0:0:0:
192,96,476169,1,0,0:0:0:0:
192,96,476300,1,8,0:0:0:0:
320,96,476366,1,8,0:0:0:0:
192,96,476432,1,8,0:0:0:0:
192,96,476563,1,0,0:0:0:0:
192,96,476695,1,8,0:0:0:0:
320,96,476760,1,8,0:0:0:0:
192,96,476826,1,0,0:0:0:0:
192,96,476958,1,0,0:0:0:0:
192,96,477090,1,8,0:0:0:0:
320,96,477155,1,8,0:0:0:0:
192,96,477221,1,8,0:0:0:0:
192,96,477353,1,0,0:0:0:0:
192,96,477484,1,8,0:0:0:0:
320,96,477550,1,8,0:0:0:0:
192,96,477616,1,0,0:0:0:0:
192,96,477747,1,0,0:0:0:0:
320,96,477813,1,0,0:0:0:0:
192,96,477879,1,8,0:0:0:0:
320,96,477945,1,8,0:0:0:0:
192,96,478010,1,0,0:0:0:0:
192,96,478142,1,0,0:0:0:0:
192,96,478274,1,8,0:0:0:0:
192,96,478405,1,0,0:0:0:0:
192,96,478668,1,0,0:0:0:0:
192,96,478800,1,0,0:0:0:0:
320,96,478866,1,0,0:0:0:0:
192,96,478931,1,8,0:0:0:0:
192,96,479063,1,0,0:0:0:0:
192,96,479195,1,8,0:0:0:0:
192,96,479326,1,8,0:0:0:0:
192,96,479458,1,0,0:0:0:0:
320,96,479524,1,8,0:0:0:0:
192,96,479589,1,0,0:0:0:0:
320,96,479655,1,0,0:0:0:0:
192,96,479721,1,8,0:0:0:0:
320,96,479787,1,0,0:0:0:0:
192,96,479852,1,8,0:0:0:0:
320,96,479918,1,8,0:0:0:0:
192,96,479984,1,0,0:0:0:0:
192,96,480116,1,0,0:0:0:0:
192,96,480247,1,8,0:0:0:0:
192,96,480379,1,0,0:0:0:0:
192,96,480510,1,8,0:0:0:0:
320,96,480576,1,8,0:0:0:0:
192,96,480642,1,0,0:0:0:0:
192,96,480773,1,8,0:0:0:0:
320,96,480839,1,8,0:0:0:0:
192,96,480905,1,0,0:0:0:0:
192,96,481037,1,8,0:0:0:0:
192,96,481168,1,0,0:0:0:0:
320,96,481234,1,0,0:0:0:0:
192,96,481300,1,8,0:0:0:0:
192,96,481431,1,0,0:0:0:0:
192,96,481563,1,8,0:0:0:0:
192,96,481826,1,8,0:0:0:0:
192,96,481958,1,0,0:0:0:0:
192,96,482089,1,8,0:0:0:0:
320,96,482155,1,8,0:0:0:0:
192,96,482221,1,8,0:0:0:0:
192,96,482352,1,0,0:0:0:0:
192,96,482484,1,0,0:0:0:0:
192,96,482615,1,8,0:0:0:0:
320,96,482682,1,8,0:0:0:0:
192,96,482747,1,8,0:0:0:0:
192,96,482879,1,0,0:0:0:0:
192,96,483010,1,8,0:0:0:0:
320,96,483076,1,8,0:0:0:0:
192,96,483142,1,0,0:0:0:0:
192,96,483274,1,0,0:0:0:0:
320,96,483339,1,8,0:0:0:0:
192,96,483405,1,0,0:0:0:0:
192,96,483537,1,0,0:0:0:0:
192,96,483668,1,8,0:0:0:0:
192,96,483799,1,0,0:0:0:0:
192,96,483931,1,8,0:0:0:0:
320,96,483997,1,8,0:0:0:0:
192,96,484063,1,8,0:0:0:0:
192,96,484194,1,8,0:0:0:0:
192,96,484326,1,0,0:0:0:0:
192,96,484458,1,8,0:0:0:0:
320,96,484524,1,8,0:0:0:0:
192,96,484589,1,0,0:0:0:0:
320,96,484655,1,0,0:0:0:0:
192,96,484721,1,8,0:0:0:0:
192,96,484984,1,8,0:0:0:0:
320,96,485050,1,8,0:0:0:0:
192,96,485116,1,8,0:0:0:0:
320,96,485182,1,8,0:0:0:0:
192,96,485247,1,0,0:0:0:0:
192,96,485379,1,0,0:0:0:0:
192,96,485510,1,8,0:0:0:0:
192,96,485642,1,0,0:0:0:0:
320,96,485708,1,0,0:0:0:0:
192,96,485774,1,8,0:0:0:0:
192,96,485905,1,0,0:0:0:0:
192,96,486037,1,8,0:0:0:0:
192,96,486168,1,0,0:0:0:0:
192,96,486300,1,8,0:0:0:0:
320,96,486366,1,8,0:0:0:0:
192,96,486432,1,8,0:0:0:0:
192,96,486564,1,0,0:0:0:0:
192,96,486695,1,0,0:0:0:0:
320,96,486760,1,0,0:0:0:0:
192,96,486827,1,8,0:0:0:0:
192,96,486958,1,8,0:0:0:0:
320,96,487024,1,8,0:0:0:0:
192,96,487090,1,0,0:0:0:0:
192,96,487222,1,0,0:0:0:0:
192,96,487353,1,8,0:0:0:0:
192,96,487485,1,0,0:0:0:0:
192,96,487616,1,8,0:0:0:0:
320,96,487682,1,8,0:0:0:0:
192,96,487748,1,0,0:0:0:0:
192,96,487879,1,8,0:0:0:0:
192,96,488010,1,0,0:0:0:0:
192,96,488142,1,8,0:0:0:0:
320,96,488208,1,8,0:0:0:0:
192,96,488274,1,0,0:0:0:0:
320,96,488339,1,0,0:0:0:0:
192,96,488405,1,8,0:0:0:0:
192,96,488537,1,0,0:0:0:0:
320,96,488603,1,8,0:0:0:0:
192,96,488668,1,0,0:0:0:0:
192,96,488800,1,0,0:0:0:0:
192,96,488932,1,8,0:0:0:0:
192,96,489063,1,0,0:0:0:0:
192,96,489195,1,8,0:0:0:0:
320,96,489260,1,8,0:0:0:0:
192,96,489327,1,0,0:0:0:0:
192,96,489458,1,8,0:0:0:0:
192,96,489590,1,0,0:0:0:0:
192,96,489721,1,0,0:0:0:0:
320,96,489787,1,0,0:0:0:0:
192,96,489853,1,8,0:0:0:0:
192,96,489985,1,0,0:0:0:0:
192,96,490116,1,0,0:0:0:0:
320,96,490182,1,0,0:0:0:0:
192,96,490248,1,8,0:0:0:0:
320,96,490313,1,8,0:0:0:0:
192,96,490380,1,0,0:0:0:0:
192,96,490511,1,8,0:0:0:0:
192,96,490643,1,0,0:0:0:0:
192,96,490774,1,8,0:0:0:0:
192,96,490906,1,0,0:0:0:0:
192,96,491038,1,8,0:0:0:0:
320,96,491103,1,8,0:0:0:0:
192,96,491168,1,8,0:0:0:0:
192,96,491300,1,0,0:0:0:0:
192,96,491432,1,8,0:0:0:0:
320,96,491497,1,8,0:0:0:0:
192,96,491563,1,0,0:0:0:0:
192,96,491695,1,0,0:0:0:0:
192,96,491826,1,0,0:0:0:0:
320,96,491892,1,8,0:0:0:0:
192,96,491958,1,0,0:0:0:0:
192,96,492090,1,8,0:0:0:0:
192,96,492221,1,0,0:0:0:0:
192,96,492353,1,8,0:0:0:0:
320,96,492418,1,8,0:0:0:0:
192,96,492485,1,0,0:0:0:0:
192,96,492616,1,0,0:0:0:0:
192,96,492748,1,0,0:0:0:0:
320,96,492813,1,0,0:0:0:0:
192,96,492879,1,8,0:0:0:0:
320,96,492945,1,0,0:0:0:0:
192,96,493011,1,8,0:0:0:0:
192,96,493143,1,0,0:0:0:0:
192,96,493274,1,0,0:0:0:0:
320,96,493339,1,0,0:0:0:0:
192,96,493406,1,8,0:0:0:0:
192,96,493538,1,0,0:0:0:0:
192,96,493669,1,8,0:0:0:0:
320,96,493734,1,8,0:0:0:0:
192,96,493801,1,8,0:0:0:0:
192,96,493932,1,0,0:0:0:0:
192,96,494064,1,8,0:0:0:0:
320,96,494129,1,8,0:0:0:0:
192,96,494195,1,0,0:0:0:0:
256,96,494343,1,0,0:0:0:0:
256,96,494491,1,0,0:0:0:0:
256,96,494639,1,8,0:0:0:0:
256,96,494787,1,8,0:0:0:0:
256,192,494861,1,8,0:0:0:0:
256,96,494935,1,0,0:0:0:0:
256,96,495083,1,8,0:0:0:0:
192,96,495417,1,8,0:0:0:0:
192,96,496099,1,4,0:0:0:0:
256,96,496289,1,0,0:0:0:0:
256,96,496479,1,0,0:0:0:0:
256,96,496670,1,8,0:0:0:0:
256,96,496860,1,8,0:0:0:0:
256,96,497051,1,0,0:0:0:0:
256,96,497273,1,8,0:0:0:0:
192,96,497727,1,12,0:0:0:0:
256,192,498522,1,0,0:0:0:0:
192,96,498575,1,8,0:0:0:0:
256,96,498745,1,0,0:0:0:0:
256,96,498915,1,0,0:0:0:0:
256,96,499085,1,0,0:0:0:0:
256,96,499255,1,8,0:0:0:0:
256,96,499426,1,8,0:0:0:0:
256,96,499596,1,8,0:0:0:0:
192,96,500662,1,12,0:0:0:0:
256,96,501010,1,8,0:0:0:0:
256,96,501359,1,0,0:0:0:0:
256,96,501707,1,8,0:0:0:0:
256,96,502404,1,0,0:0:0:0:
256,96,502753,1,8,0:0:0:0:
256,96,502927,1,0,0:0:0:0:
256,96,503102,1,0,0:0:0:0:
256,96,503276,1,8,0:0:0:0:
256,96,503450,1,8,0:0:0:0:
256,96,503624,1,0,0:0:0:0:
256,96,503799,1,8,0:0:0:0:
256,192,504757,1,0,0:0:0:0:
192,96,504845,1,8,0:0:0:0:
256,96,505019,1,0,0:0:0:0:
256,96,505193,1,8,0:0:0:0:
256,96,505542,1,8,0:0:0:0:
256,96,505890,1,0,0:0:0:0:
256,96,506587,1,0,0:0:0:0:
256,96,506936,1,8,0:0:0:0:
256,96,507110,1,0,0:0:0:0:
256,96,507285,1,0,0:0:0:0:
256,96,507459,1,8,0:0:0:0:
256,96,507633,1,0,0:0:0:0:
256,96,507807,1,8,0:0:0:0:
256,96,507982,1,8,0:0:0:0:
192,96,509028,1,8,0:0:0:0:
256,96,509202,1,0,0:0:0:0:
256,96,509376,1,8,0:0:0:0:
256,96,509550,1,8,0:0:0:0:
256,96,509725,1,0,0:0:0:0:
256,96,509899,1,0,0:0:0:0:
256,96,510073,1,8,0:0:0:0:
256,96,510248,1,8,0:0:0:0:
256,96,510422,1,0,0:0:0:0:
256,96,510596,1,8,0:0:0:0:
256,96,510770,1,0,0:0:0:0:
256,96,510944,1,8,0:0:0:0:
256,192,511032,1,8,0:0:0:0:
256,96,511118,1,0,0:0:0:0:
256,96,511990,1,0,0:0:0:0:
256,96,512165,1,0,0:0:0:0:
256,96,512688,1,8,0:0:0:0:
256,96,513036,1,0,0:0:0:0:
256,96,513211,1,0,0:0:0:0:
256,96,513733,1,0,0:0:0:0:
256,96,514256,1,0,0:0:0:0:
256,96,514953,1,0,0:0:0:0:
256,96,515302,1,12,0:0:0:0:
256,96,515651,1,0,0:0:0:0:
256,96,515825,1,0,0:0:0:0:
320,96,516086,1,8,0:0:0:0:
256,192,516435,1,0,0:0:0:0:
256,96,516696,1,8,0:0:0:0:
256,96,517045,1,8,0:0:0:0:
256,96,517394,1,12,0:0:0:0:
256,96,517742,1,8,0:0:0:0:
256,96,518091,1,0,0:0:0:0:
256,96,518439,1,0,0:0:0:0:
256,96,519136,1,0,0:0:0:0:
256,96,519485,1,8,0:0:0:0:
256,96,519659,1,0,0:0:0:0:
256,96,519834,1,0,0:0:0:0:
256,96,520008,1,8,0:0:0:0:
256,96,520182,1,8,0:0:0:0:
256,96,520530,1,8,0:0:0:0:
256,96,521577,1,8,0:0:0:0:
256,96,521925,1,8,0:0:0:0:
256,96,522273,1,0,0:0:0:0:
320,96,522492,1,0,0:0:0:0:
320,96,522557,1,0,0:0:0:0:
256,96,522622,1,8,0:0:0:0:
256,96,523319,1,0,0:0:0:0:
256,96,523668,1,8,0:0:0:0:
256,96,523842,1,0,0:0:0:0:
256,96,524016,1,0,0:0:0:0:
256,96,524191,1,8,0:0:0:0:
256,96,524539,1,8,0:0:0:0:
256,192,524801,1,8,0:0:0:0:
256,96,525760,1,0,0:0:0:0:
256,96,526108,1,0,0:0:0:0:
256,96,526457,1,8,0:0:0:0:
256,96,526805,1,4,0:0:0:0:
256,96,527502,1,8,0:0:0:0:
192,96,527851,1,0,0:0:0:0:
192,96,528897,1,0,0:0:0:0:
192,96,529957,1,0,0:0:0:0:
192,96,530654,1,8,0:0:0:0:
192,96,531621,1,0,0:0:0:0:
192,96,532049,1,0,0:0:0:0:
192,96,532478,1,8,0:0:0:0:
192,96,532830,1,0,0:0:0:0:
192,96,533183,1,8,0:0:0:0:
192,96,533704,1,8,0:0:0:0:
192,96,534310,1,8,0:0:0:0:
192,96,535102,1,8,0:0:0:0:
