osu file format v14

[General]
AudioFilename: audio.mp3
AudioLeadIn: 0
PreviewTime: 109313
Countdown: 0
SampleSet: None
StackLeniency: 0.7
Mode: 0
LetterboxInBreaks: 0
WidescreenStoryboard: 0

[Editor]
DistanceSpacing: 1
BeatDivisor: 4
GridSize: 8
TimelineZoom: 1

[Metadata]
Title:Senkyou Ranbu
TitleUnicode:戦狂乱舞
Artist:sakuzyo
ArtistUnicode:削除
Creator:ktgster
Version:Normal
Source:
Tags:Nerova Riuz GX Irreversible oriental diverse system
BeatmapID:1063043
BeatmapSetID:460516

[Difficulty]
HPDrainRate:4
CircleSize:3
OverallDifficulty:4
ApproachRate:4
SliderMultiplier:1.2
SliderTickRate:1

[Events]
//Background and Video events
0,0,"BG.jpg",0,0
//Break Periods
2,57961,63552
2,139739,148885
//Storyboard Layer 0 (Background)
//Storyboard Layer 1 (Fail)
//Storyboard Layer 2 (Pass)
//Storyboard Layer 3 (Foreground)
//Storyboard Sound Samples

[TimingPoints]
4428,444.444444444444,4,3,2,40,1,0
42205,-100,4,3,2,50,0,0
56872,-100,4,3,2,60,0,0
57761,-100,4,3,1,40,0,0
73761,-100,4,3,3,60,0,0
87983,-100,4,3,1,50,0,0
109316,-100,4,3,1,60,0,0
125316,-100,4,2,2,60,0,0
139539,-100,4,3,1,55,0,0
153761,-100,4,3,1,70,0,1
167094,-100,4,3,1,80,0,0
167983,-100,4,3,1,70,0,1
181316,-100,4,3,0,40,0,0
182205,-100,4,3,3,60,0,0
209761,-100,4,3,2,60,0,0

[Colours]
Combo1 : 255,211,81
Combo2 : 255,83,83
Combo3 : 205,205,205
Combo4 : 244,122,0

[HitObjects]
361,152,13316,6,0,P|350:191|371:280,1,120,0|0,0:2|0:0,0:0:0:0:
450,350,14205,2,0,L|511:355,2,60,0|0|8,0:0|0:0|0:0,0:0:0:0:
335,383,15094,2,0,P|284:348|206:347,1,120,0|0,0:0|0:0,0:0:0:0:
109,363,15983,1,0,0:0:0:0:
24,278,16427,2,0,L|35:193,1,60,8|8,0:2|0:2,0:0:0:0:
42,159,16872,5,8,0:2:0:0:
152,205,17316,2,0,L|163:290,2,60,8|8|8,0:2|0:2|0:2,0:0:0:0:
236,120,18205,1,8,0:2:0:0:
304,218,18650,1,8,0:2:0:0:
414,172,19094,2,0,L|425:87,2,60,8|8|8,0:2|0:2|0:2,0:0:0:0:
498,257,19983,1,8,0:2:0:0:
413,341,20427,6,0,P|374:352|285:331,1,120,0|0,0:0|0:0,0:0:0:0:
240,232,21316,2,0,L|245:171,2,60,0|0|8,0:0|0:0|0:0,0:0:0:0:
177,334,22205,1,0,0:0:0:0:
62,298,22650,1,0,0:0:0:0:
125,196,23094,1,0,0:0:0:0:
36,114,23539,2,0,P|68:89|99:76,1,60,8|8,0:2|0:2,0:0:0:0:
145,76,23983,5,8,0:2:0:0:
229,160,24427,2,0,L|314:171,2,60,8|8|8,0:2|0:2|0:2,0:0:0:0:
144,244,25316,1,8,0:2:0:0:
228,328,25761,1,8,0:2:0:0:
312,244,26205,2,0,L|323:159,2,60,8|8|0,0:2|0:2|2:0,0:0:0:0:
396,329,27094,1,0,2:0:0:0:
480,244,27539,6,0,P|495:186|468:108,1,120,6|0,0:0|0:0,0:0:0:0:
396,43,28427,1,0,0:0:0:0:
350,82,28650,1,0,0:0:0:0:
290,81,28872,1,0,0:0:0:0:
205,165,29316,2,0,P|220:223|193:301,1,120,2|0,0:0|0:0,0:0:0:0:
121,366,30204,1,0,0:0:0:0:
75,327,30427,1,0,0:0:0:0:
15,328,30649,1,0,0:0:0:0:
15,207,31094,6,0,L|34:126,1,60,10|8,0:2|0:2,0:0:0:0:
45,90,31539,1,8,0:2:0:0:
153,39,31983,2,0,L|172:120,1,60,10|0,0:2|0:0,0:0:0:0:
183,156,32428,1,8,0:2:0:0:
291,207,32872,1,10,0:2:0:0:
321,89,33317,1,8,2:0:0:0:
429,39,33761,1,0,2:0:0:0:
459,156,34206,1,2,2:0:0:0:
475,214,34427,1,2,2:0:0:0:
491,272,34650,5,2,0:0:0:0:
406,356,35094,1,0,0:0:0:0:
298,301,35539,2,0,P|244:271|172:269,1,120,0|8,0:0|0:0,0:0:0:0:
70,295,36427,1,0,0:0:0:0:
103,180,36872,1,0,0:0:0:0:
47,73,37316,2,0,P|103:59|182:88,1,120,0|8,0:0|0:2,0:0:0:0:
247,159,38205,5,8,0:2:0:0:
357,113,38649,2,0,L|368:28,2,60,8|8|8,0:2|0:2|0:2,0:0:0:0:
441,198,39538,1,8,0:2:0:0:
367,292,39983,1,8,0:2:0:0:
254,250,40427,1,0,2:0:0:0:
151,312,40872,1,0,2:0:0:0:
38,270,41316,2,0,L|23:208,1,60,0|2,2:0|2:0,0:0:0:0:
182,32,42205,6,0,P|198:66|185:152,1,120,4|0,0:0|0:0,0:0:0:0:
83,203,43094,2,0,L|17:212,2,60,0|8|8,0:0|0:2|0:2,0:0:0:0:
167,287,43983,2,0,P|201:303|287:290,1,120,0|0,0:0|0:0,0:0:0:0:
338,188,44872,1,0,0:0:0:0:
390,158,45094,1,8,0:2:0:0:
449,161,45316,5,8,0:2:0:0:
388,56,45761,2,0,P|356:31|325:18,1,60,8|0,0:2|0:0,0:0:0:0:
279,18,46205,1,8,0:2:0:0:
194,102,46650,2,0,L|185:232,1,120,8|0,0:2|0:0,0:0:0:0:
234,331,47539,1,8,2:0:0:0:
347,369,47983,2,0,L|413:360,2,60,0|0|0,2:0|0:0|2:0,0:0:0:0:
318,316,48650,1,2,0:0:0:0:
348,264,48872,5,4,0:0:0:0:
455,210,49316,1,4,0:0:0:0:
433,92,49761,2,0,L|409:33,2,60
342,170,50650,1,4,0:0:0:0:
237,110,51094,1,4,0:0:0:0:
157,199,51539,2,0,L|183:261,2,60
38,181,52427,6,0,P|54:237|44:304,1,120,8|0,2:0|2:0,0:0:0:0:
132,382,53316,1,8,2:0:0:0:
250,360,53761,1,2,2:0:0:0:
334,275,54205,2,0,L|346:130,1,120,0|0,2:0|2:0,0:0:0:0:
226,181,55094,1,0,2:0:0:0:
216,61,55539,1,2,2:0:0:0:
96,61,55983,6,0,L|84:206,1,120,0|0,2:0|2:0,0:0:0:0:
73,300,56872,1,0,2:0:0:0:
183,251,57316,1,2,2:0:0:0:
286,312,57761,1,4,1:0:0:0:
133,336,64872,6,0,L|10:329,2,120,0|0|0,0:0|0:0|0:0,0:0:0:0:
195,234,66205,1,0,0:0:0:0:
257,132,66650,2,0,L|380:139,2,120,0|0|0,0:0|0:0|0:0,0:0:0:0:
195,30,67983,1,0,0:0:0:0:
75,30,68427,6,0,P|51:73|57:155,1,120,0|0,0:0|0:0,0:0:0:0:
98,253,69316,2,0,P|108:285|99:329,2,60,0|0|0,0:0|0:0|0:0,0:0:0:0:
170,157,70205,2,0,P|264:171|340:217,2,180,0|0|0,0:0|0:0|0:0,0:0:0:0:
98,253,71983,2,0,P|52:132|235:56,1,360,0|0,0:0|0:0,0:0:0:0:
327,117,73761,6,0,L|342:241,1,120,4|0,0:0|0:0,0:0:0:0:
401,236,74427,2,0,L|386:360,1,120,4|0,0:0|0:0,0:0:0:0:
326,355,75094,1,12,0:0:0:0:
205,355,75539,2,0,L|190:231,1,120,4|0,0:0|0:0,0:0:0:0:
131,236,76205,2,0,L|146:112,1,120,4|0,0:0|0:0,0:0:0:0:
206,117,76872,1,12,0:0:0:0:
325,117,77316,6,0,P|376:144|384:208,1,120,4|0,0:0|0:0,0:0:0:0:
386,261,77983,2,0,P|396:318|447:345,1,120,4|0,0:0|0:0,0:0:0:0:
507,345,78650,1,8,0:0:0:0:
507,225,79094,2,0,P|480:174|416:166,1,120,4|0,0:0|0:0,0:0:0:0:
363,164,79761,2,0,P|305:153|278:102,1,120,4|0,0:0|0:0,0:0:0:0:
279,43,80428,1,12,0:0:0:0:
159,43,80872,6,0,P|133:88|142:172,1,120,4|0,0:0|0:0,0:0:0:0:
194,154,81539,2,0,P|197:213|169:265,1,120,4|0,0:0|0:0,0:0:0:0:
125,306,82205,1,10,0:0:0:0:
239,343,82650,6,0,P|284:317|368:326,1,120,4|0,0:0|0:0,0:0:0:0:
350,378,83317,2,0,P|409:381|461:353,1,120,4|0,0:0|0:0,0:0:0:0:
501,312,83983,1,12,0:0:0:0:
502,192,84427,6,0,L|430:70,1,120,4|0,0:0|0:0,0:0:0:0:
380,88,85094,2,0,P|355:141|373:222,1,120,4|0,0:0|0:0,0:0:0:0:
388,254,85761,1,12,0:0:0:0:
302,338,86205,2,0,L|194:335,2,90,12|12|12,0:0|0:0|0:0,0:0:0:0:
448,192,87983,6,0,L|524:194,2,60,4|4|8,0:0|0:0|0:0,0:0:0:0:
356,114,88872,1,4,0:0:0:0:
334,231,89316,1,8,0:0:0:0:
242,153,89761,2,0,L|165:150,2,60,4|4|0,0:0|0:0|0:0,0:0:0:0:
356,114,90650,1,4,0:0:0:0:
448,192,91094,1,8,0:0:0:0:
471,309,91539,6,0,L|468:385,2,60,4|4|0,0:0|0:0|0:0,0:0:0:0:
357,270,92427,1,4,0:0:0:0:
248,321,92872,1,8,0:0:0:0:
133,286,93316,2,0,P|117:223|128:168,1,120,12|8,0:0|0:0,0:0:0:0:
155,116,93983,1,8,0:0:0:0:
447,86,95094,6,0,L|516:96,2,60,4|4|8,0:0|0:0|0:0,0:0:0:0:
331,120,95983,1,4,0:0:0:0:
419,204,96427,2,0,L|427:273,1,60,8|0,0:0|0:0,0:0:0:0:
436,322,96872,1,4,0:0:0:0:
321,287,97316,1,8,0:0:0:0:
208,330,97761,1,4,0:0:0:0:
93,295,98205,1,8,0:0:0:0:
40,187,98650,6,0,P|62:142|134:111,1,120,4|8,0:0|0:0,0:0:0:0:
239,137,99539,1,4,0:0:0:0:
327,217,99983,2,0,L|335:286,1,60,8|0,0:0|0:0,0:0:0:0:
344,335,100428,1,4,0:0:0:0:
462,351,100872,1,8,0:0:0:0:
445,233,101317,1,4,0:0:0:0:
489,121,101761,1,8,0:0:0:0:
371,139,102205,6,0,L|309:151,1,60,4|4,0:0|0:0,0:0:0:0:
252,161,102650,2,0,P|231:115|243:39,2,120,8|4|8,0:0|0:0|0:0,0:0:0:0:
287,275,103983,2,0,L|225:263,1,60,4|4,0:0|0:0,0:0:0:0:
168,253,104428,2,0,P|147:299|159:375,2,120,8|4|8,0:0|0:0|0:0,0:0:0:0:
83,168,105761,6,0,L|97:47,1,120,4|8,0:0|0:0,0:0:0:0:
212,18,106650,2,0,L|226:139,1,120,4|8,0:0|0:0,0:0:0:0:
310,222,107539,1,12,0:0:0:0:
415,165,107983,2,0,P|444:162|476:163,2,60,8|8|0,0:0|0:0|0:0,0:0:0:0:
261,349,109316,6,0,P|151:376|12:340,1,240,4|4,0:0|0:0,0:0:0:0:
6,230,110650,1,8,0:0:0:0:
7,170,110872,1,0,0:0:0:0:
25,112,111094,2,0,P|135:85|274:121,1,240,4|4,0:0|0:0,0:0:0:0:
353,183,112427,1,8,0:0:0:0:
319,233,112650,1,0,0:0:0:0:
280,278,112872,6,0,P|407:291|470:208,1,240,4|4,0:0|0:0,0:0:0:0:
469,90,114205,1,8,0:0:0:0:
409,81,114427,1,0,0:0:0:0:
364,40,114650,2,0,P|237:27|174:110,1,240,4|4,0:0|0:0,0:0:0:0:
171,227,115983,1,8,0:0:0:0:
273,288,116427,6,0,P|290:232|276:169,2,120,4|8|4,0:0|0:0|0:0,0:0:0:0:
168,347,117761,1,8,0:0:0:0:
66,285,118205,1,4,0:0:0:0:
171,227,118650,1,8,0:0:0:0:
69,165,119094,1,4,0:0:0:0:
55,106,119316,1,4,0:0:0:0:
69,49,119538,1,8,0:0:0:0:
184,15,119983,6,0,L|308:27,1,120,4|8,0:0|0:0,0:0:0:0:
388,111,120872,2,0,L|464:103,2,60,4|4|8,0:0|0:0|0:0,0:0:0:0:
303,195,121761,2,0,P|264:238|265:317,1,120,4|8,0:0|0:0,0:0:0:0:
198,297,122427,2,0,P|192:238|153:194,1,120,8|0,0:0|0:0,0:0:0:0:
94,182,123094,1,0,0:0:0:0:
94,61,123539,2,0,P|261:135|319:297,1,360,0|0,0:0|0:0,0:0:0:0:
234,377,125316,6,0,L|114:358,1,120,4|0,0:0|0:0,0:0:0:0:
72,315,125983,2,0,P|59:258|80:191,1,120,4|0,0:0|0:0,0:0:0:0:
117,157,126650,1,0,0:0:0:0:
201,241,127094,2,0,L|321:222,1,120,4|0,0:0|0:0,0:0:0:0:
363,179,127761,2,0,P|376:122|355:55,1,120,4|0,0:0|0:0,0:0:0:0:
318,21,128428,1,4,0:0:0:0:
198,21,128872,6,0,L|179:148,1,120,4|0,0:0|0:0,0:0:0:0:
120,139,129539,2,0,L|139:266,1,120,4|0,0:0|0:0,0:0:0:0:
180,300,130205,1,0,0:0:0:0:
300,300,130650,2,0,L|281:173,1,120,4|0,0:0|0:0,0:0:0:0:
222,182,131317,2,0,L|241:55,1,120,4|0,0:0|0:0,0:0:0:0:
282,21,131983,1,4,0:0:0:0:
401,21,132427,5,4,0:0:0:0:
453,129,132872,1,0,0:0:0:0:
432,185,133094,2,0,P|385:178|308:202,1,120,4|0,0:0|0:0,0:0:0:0:
283,247,133761,1,0,0:0:0:0:
163,247,134205,5,4,0:0:0:0:
215,139,134650,1,0,0:0:0:0:
194,83,134872,2,0,P|147:90|70:66,1,120,4|0,0:0|0:0,0:0:0:0:
45,21,135539,1,4,0:0:0:0:
7,134,135983,5,4,0:0:0:0:
85,224,136427,1,0,0:0:0:0:
125,269,136650,2,0,P|157:295|257:317,1,120,4|0,0:0|0:0,0:0:0:0:
291,316,137316,1,0,0:0:0:0:
375,231,137761,5,4,0:0:0:0:
297,141,138205,1,0,0:0:0:0:
257,96,138428,2,0,P|225:70|125:48,1,120,4|0,0:0|0:0,0:0:0:0:
91,49,139094,1,0,0:0:0:0:
8,136,139539,1,4,1:0:0:0:
256,192,150205,12,2,152872,1:2:0:0:
125,117,153761,6,0,P|107:174|127:253,1,120,4|8,1:0|0:0,0:0:0:0:
200,318,154650,1,4,0:0:0:0:
314,281,155094,1,8,0:0:0:0:
362,245,155316,2,0,P|404:165|355:69,1,180,0|8,0:0|0:0,0:0:0:0:
260,48,156427,1,4,0:0:0:0:
200,54,156650,1,4,0:0:0:0:
152,90,156872,1,8,0:0:0:0:
119,205,157316,6,0,P|89:255|19:308,2,120,4|8|4,0:0|0:0|0:0,0:0:0:0:
239,198,158650,1,8,0:0:0:0:
290,228,158872,1,0,0:0:0:0:
315,282,159094,1,4,0:0:0:0:
416,346,159539,2,0,P|477:313|478:243,2,120,8|4|8,0:0|0:0|0:0,0:0:0:0:
315,282,160872,5,4,0:0:0:0:
196,277,161316,1,8,0:0:0:0:
95,342,161761,1,4,0:0:0:0:
58,294,161983,1,4,0:0:0:0:
62,234,162205,1,8,0:0:0:0:
121,129,162650,2,0,L|258:119,1,120,4|8,0:0|0:0,0:0:0:0:
283,162,163316,2,0,P|304:211|278:294,1,120,0|4,0:0|0:0,0:0:0:0:
261,325,163983,1,8,0:0:0:0:
371,370,164427,6,0,P|402:317|417:240,1,120,4|8,0:0|0:0,0:0:0:0:
330,175,165316,2,0,P|344:116|374:65,1,120,4|8,0:0|0:0,0:0:0:0:
263,21,166205,1,4,0:0:0:0:
158,79,166650,1,8,0:0:0:0:
46,34,167094,5,2,1:2:0:0:
63,153,167539,1,2,1:2:0:0:
88,270,167983,6,0,P|146:279|215:253,1,120,4|8,1:0|0:0,0:0:0:0:
284,172,168872,1,4,0:0:0:0:
366,84,169316,1,8,0:0:0:0:
418,113,169539,2,0,P|463:154|461:287,1,180,0|8,0:0|0:0,0:0:0:0:
372,333,170650,1,4,0:0:0:0:
322,298,170872,1,4,0:0:0:0:
262,298,171094,1,8,0:0:0:0:
145,327,171539,6,0,P|88:325|20:277,2,120,4|8|4,0:0|0:0|0:0,0:0:0:0:
251,271,172872,1,8,0:0:0:0:
205,231,173094,1,0,0:0:0:0:
190,172,173316,1,4,0:0:0:0:
292,179,173761,2,0,P|339:224|349:291,2,120,8|4|8,0:0|0:0|0:0,0:0:0:0:
178,217,175094,5,4,0:0:0:0:
202,99,175539,1,8,0:0:0:0:
97,40,175983,1,4,0:0:0:0:
46,71,176205,1,4,0:0:0:0:
27,128,176427,1,0,0:0:0:0:
30,248,176872,2,0,P|82:276|155:271,1,120,4|8,0:0|0:0,0:0:0:0:
200,263,177539,2,0,P|259:262|311:290,1,120,0|4,0:0|0:0,0:0:0:0:
356,330,178205,1,8,0:0:0:0:
456,264,178650,6,0,L|431:127,1,120,4|8,0:0|0:0,0:0:0:0:
326,198,179539,2,0,L|301:61,1,120,4|8,0:0|0:0,0:0:0:0:
195,30,180427,1,4,0:0:0:0:
174,148,180872,2,0,L|149:285,1,120,8|0,0:0|0:0,0:0:0:0:
362,366,182205,6,0,P|377:305|357:230,1,120,4|0,0:0|0:0,0:0:0:0:
324,207,182872,2,0,L|329:71,1,120,4|0,0:0|0:0,0:0:0:0:
285,44,183539,1,12,0:0:0:0:
165,44,183983,6,0,P|150:105|170:180,1,120,4|0,0:0|0:0,0:0:0:0:
203,203,184650,2,0,L|198:339,1,120,4|0,0:0|0:0,0:0:0:0:
242,366,185317,1,12,0:0:0:0:
326,281,185761,6,0,P|367:264|446:272,1,120,4|0,0:0|0:0,0:0:0:0:
483,227,186427,2,0,L|495:98,1,120,4|0,0:0|0:0,0:0:0:0:
451,64,187094,1,12,0:0:0:0:
341,114,187539,2,0,P|300:131|221:123,1,120,4|0,0:0|0:0,0:0:0:0:
184,168,188205,2,0,L|172:297,1,120,4|0,0:0|0:0,0:0:0:0:
130,330,188872,1,12,0:0:0:0:
45,245,189316,6,0,P|30:187|47:111,1,120,4|0,0:0|0:0,0:0:0:0:
72,78,189983,1,4,0:0:0:0:
180,26,190427,2,0,L|252:33,1,60,0|12,0:0|0:0,0:0:0:0:
357,55,191094,2,0,P|372:113|355:189,1,120,4|0,0:0|0:0,0:0:0:0:
330,222,191761,1,4,0:0:0:0:
222,274,192205,2,0,L|150:267,1,60,0|12,0:0|0:0,0:0:0:0:
162,148,192872,6,0,P|220:133|296:150,1,120,4|0,0:0|0:0,0:0:0:0:
329,175,193539,1,4,0:0:0:0:
381,283,193983,2,0,L|374:355,1,60,0|12,0:0|0:0,0:0:0:0:
256,359,194650,2,0,L|164:368,2,90,12|12|12,0:0|0:0|0:0,0:0:0:0:
488,338,196427,6,0,P|503:280|483:198,1,120,4|0,0:0|0:0,0:0:0:0:
451,178,197094,1,4,0:0:0:0:
350,243,197539,1,0,0:0:0:0:
307,285,197761,2,0,L|237:271,1,60,12|0,0:0|0:0,0:0:0:0:
205,230,198205,2,0,P|190:172|210:90,1,120,4|0,0:0|0:0,0:0:0:0:
241,70,198872,1,4,0:0:0:0:
352,113,199316,1,0,0:0:0:0:
394,155,199539,2,0,L|381:229,1,60,12|0,0:0|0:0,0:0:0:0:
341,256,199983,6,0,P|288:248|219:272,1,120,4|0,0:0|0:0,0:0:0:0:
171,292,200650,1,4,0:0:0:0:
56,255,201094,1,0,0:0:0:0:
13,212,201316,2,0,L|30:153,1,60,12|0,0:0|0:0,0:0:0:0:
11,97,201761,2,0,P|65:112|129:89,1,120,4|0,0:0|0:0,0:0:0:0:
178,67,202428,1,4,0:0:0:0:
296,81,202872,1,0,0:0:0:0:
346,114,203094,1,12,0:0:0:0:
383,228,203539,5,4,0:0:0:0:
263,226,203983,1,0,0:0:0:0:
231,276,204205,2,0,P|185:307|106:305,1,120,4|0,0:0|0:0,0:0:0:0:
68,283,204872,2,0,L|48:213,1,60,12|0,0:0|0:0,0:0:0:0:
37,167,205316,1,4,0:0:0:0:
157,169,205760,1,0,0:0:0:0:
189,119,205982,2,0,P|235:88|314:90,1,120,4|0,0:0|0:0,0:0:0:0:
352,112,206649,2,0,L|372:182,1,60,12|0,0:0|0:0,0:0:0:0:
384,227,207094,5,4,0:0:0:0:
327,333,207539,1,0,0:0:0:0:
274,303,207761,2,0,P|214:291|141:319,1,120,4|0,0:0|0:0,0:0:0:0:
116,264,208427,2,0,L|101:184,1,60,12|0,0:0|0:0,0:0:0:0:
95,145,208872,2,0,P|75:112|17:75,2,90,12|12|12,0:0|0:0|0:0,0:0:0:0:
154,150,209761,1,0,2:0:0:0:
272,167,210205,1,0,2:0:0:0:
381,116,210650,5,6,0:0:0:0:
469,339,211539,1,4,0:0:0:0:
231,303,212427,1,8,2:0:0:0:
116,266,212872,1,0,2:0:0:0:
206,186,213316,2,0,P|230:140|234:53,1,120,0|2,2:0|2:0,0:0:0:0:
348,26,214205,5,0,2:0:0:0:
463,63,214650,1,0,2:0:0:0:
373,143,215094,2,0,P|349:189|345:276,1,120,0|2,2:0|2:0,0:0:0:0:
238,317,215983,1,4,2:3:0:0:
123,280,216428,1,4,2:3:0:0:
213,200,216872,2,0,P|237:154|241:67,1,120,4|6,2:3|2:3,0:0:0:0:
225,29,217539,1,6,2:3:0:0:
