osu file format v14

[General]
AudioFilename: audio.mp3
AudioLeadIn: 0
PreviewTime: 109313
Countdown: 0
SampleSet: None
StackLeniency: 0.7
Mode: 0
LetterboxInBreaks: 0
WidescreenStoryboard: 0

[Editor]
DistanceSpacing: 1
BeatDivisor: 4
GridSize: 8
TimelineZoom: 1

[Metadata]
Title:Senkyou Ranbu
TitleUnicode:戦狂乱舞
Artist:sakuzyo
ArtistUnicode:削除
Creator:ktgster
Version:Insane
Source:
Tags:Nerova Riuz GX Irreversible oriental diverse system
BeatmapID:1042025
BeatmapSetID:460516

[Difficulty]
HPDrainRate:5.5
CircleSize:4.7
OverallDifficulty:7
ApproachRate:8.3
SliderMultiplier:1.5
SliderTickRate:1

[Events]
//Background and Video events
0,0,"BG.jpg",0,0
//Break Periods
//Storyboard Layer 0 (Background)
//Storyboard Layer 1 (Fail)
//Storyboard Layer 2 (Pass)
//Storyboard Layer 3 (Foreground)
//Storyboard Sound Samples

[TimingPoints]
4428,444.444444444444,4,3,2,40,1,0
42205,-100,4,3,2,50,0,0
52205,-111.111111111111,4,3,2,50,0,0
52427,-100,4,3,2,50,0,0
56872,-100,4,3,2,60,0,0
57761,-200,4,3,1,40,0,0
73761,-100,4,3,3,60,0,0
87983,-100,4,3,1,50,0,0
109316,-100,4,3,1,60,0,0
125316,-100,4,2,2,60,0,0
139539,-100,4,3,1,55,0,0
153761,-90.9090909090909,4,3,1,70,0,1
167094,-90.9090909090909,4,3,1,80,0,0
167983,-90.9090909090909,4,3,1,70,0,1
181316,-100,4,3,0,40,0,0
182205,-100,4,3,3,60,0,0
209761,-100,4,3,2,60,0,0

[Colours]
Combo1 : 255,211,81
Combo2 : 255,83,83
Combo3 : 205,205,205
Combo4 : 244,122,0

[HitObjects]
96,64,6205,5,0,0:0:0:0:
41,115,6427,2,0,L|1:112,2,37.5,0|0|8,0:0|0:0|0:2,0:0:0:0:
95,180,6872,1,0,0:0:0:0:
95,180,6983,1,0,0:0:0:0:
95,180,7094,2,0,L|127:178,6,25,0|0|0|0|0|0|8,0:0|0:0|0:0|0:0|0:0|0:0|0:2,0:0:0:0:
23,272,7761,1,0,0:0:0:0:
28,289,7872,1,0,0:0:0:0:
33,306,7983,5,8,0:2:0:0:
107,316,8205,2,0,L|119:278,2,37.5,0|0|8,0:0|0:0|0:2,0:0:0:0:
158,371,8650,1,0,0:0:0:0:
176,368,8761,1,0,0:0:0:0:
194,365,8872,2,0,L|222:360,6,25,0|0|0|0|0|0|8,0:0|0:0|0:0|0:0|0:0|0:0|0:2,0:0:0:0:
126,247,9539,1,0,0:0:0:0:
129,229,9650,1,0,0:0:0:0:
132,211,9761,5,8,0:2:0:0:
252,173,9983,2,0,L|259:213,2,37.5,0|0|8,0:0|0:0|0:2,0:0:0:0:
179,129,10427,1,0,0:0:0:0:
182,111,10538,1,0,0:0:0:0:
185,93,10650,2,0,L|190:65,6,25,0|0|0|0|0|0|8,0:0|0:0|0:0|0:0|0:0|0:0|0:2,0:0:0:0:
328,25,11316,1,0,0:0:0:0:
331,43,11427,1,0,0:0:0:0:
334,61,11538,5,8,0:2:0:0:
436,108,11761,2,0,L|429:148,2,37.5,0|0|8,0:0|0:0|0:2,0:0:0:0:
316,143,12205,1,0,0:0:0:0:
319,161,12316,1,0,0:0:0:0:
322,179,12427,1,8,0:2:0:0:
421,235,12650,1,0,0:0:0:0:
418,253,12761,1,0,0:0:0:0:
415,271,12872,1,8,0:2:0:0:
335,350,13094,1,8,0:2:0:0:
272,192,13316,6,0,B|240:160|208:192|224:232|256:232|232:296,1,150,0|0,0:2|0:0,0:0:0:0:
180,343,13983,1,0,0:0:0:0:
65,260,14205,1,0,0:0:0:0:
67,241,14316,1,0,0:0:0:0:
69,222,14427,1,0,0:0:0:0:
70,203,14539,1,8,0:0:0:0:
76,184,14650,1,8,0:0:0:0:
76,184,15094,5,0,0:0:0:0:
147,162,15316,1,0,0:0:0:0:
165,157,15427,1,0,0:0:0:0:
182,152,15539,1,0,0:0:0:0:
92,106,15760,1,0,0:0:0:0:
110,101,15871,1,0,0:0:0:0:
128,96,15983,1,0,0:0:0:0:
113,84,16094,1,0,0:0:0:0:
98,72,16205,1,0,0:0:0:0:
83,60,16316,1,0,0:0:0:0:
68,48,16427,2,0,L|46:48,6,18.75,8|8|8|8|8|8|8,0:2|0:2|0:2|0:2|0:2|0:2|0:2,0:0:0:0:
39,48,16872,6,0,L|25:99,3,37.5,8|8|8|8,0:2|0:2|0:2|0:2,0:0:0:0:
82,137,17317,1,8,0:2:0:0:
86,155,17428,1,8,0:2:0:0:
91,173,17539,1,8,0:2:0:0:
95,191,17650,1,8,0:2:0:0:
121,217,17761,5,8,0:2:0:0:
116,235,17872,1,0,0:0:0:0:
111,253,17983,1,0,0:0:0:0:
108,271,18094,1,0,0:0:0:0:
103,289,18205,2,0,L|93:323,7,18.75,8|8|8|8|8|8|8|8,0:2|0:2|0:2|0:2|0:2|0:2|0:2|0:2,0:0:0:0:
95,326,18650,6,0,L|146:340,3,37.5,8|8|8|8,0:2|0:2|0:2|0:2,0:0:0:0:
184,283,19095,1,8,0:2:0:0:
202,278,19206,1,8,0:2:0:0:
220,273,19317,1,8,0:2:0:0:
238,270,19428,1,8,0:2:0:0:
264,243,19539,1,8,0:2:0:0:
211,190,19761,1,0,0:0:0:0:
312,157,19983,1,8,0:2:0:0:
312,157,20205,1,0,0:0:0:0:
393,30,20427,6,0,B|425:-2|457:30|441:70|409:70|433:134,1,150,0|0,0:0|0:0,0:0:0:0:
484,181,21094,1,0,0:0:0:0:
353,258,21316,1,0,0:0:0:0:
334,256,21427,1,0,0:0:0:0:
315,254,21538,1,0,0:0:0:0:
296,253,21650,1,8,0:0:0:0:
277,255,21761,1,8,0:0:0:0:
277,255,22205,5,0,0:0:0:0:
255,184,22427,1,0,0:0:0:0:
250,166,22538,1,0,0:0:0:0:
245,149,22650,1,0,0:0:0:0:
182,227,22872,1,0,0:0:0:0:
177,209,22983,1,0,0:0:0:0:
172,192,23095,1,0,0:0:0:0:
154,186,23205,1,0,0:0:0:0:
136,180,23316,1,0,0:0:0:0:
117,174,23427,1,0,0:0:0:0:
98,168,23539,2,0,L|76:162,7,18.75,8|8|8|8|8|8|8|8,0:2|0:2|0:2|0:2|0:2|0:2|0:2|0:2,0:0:0:0:
79,144,23983,6,0,L|130:130,3,37.5,8|8|8|8,0:2|0:2|0:2|0:2,0:0:0:0:
168,187,24428,1,8,0:2:0:0:
186,191,24539,1,8,0:2:0:0:
204,196,24650,1,8,0:2:0:0:
222,200,24761,1,8,0:2:0:0:
248,226,24872,5,8,0:2:0:0:
266,221,24983,1,0,0:0:0:0:
284,216,25094,1,0,0:0:0:0:
302,213,25205,1,0,0:0:0:0:
320,208,25316,2,0,L|354:198,7,18.75,8|8|8|8|8|8|8|8,0:2|0:2|0:2|0:2|0:2|0:2|0:2|0:2,0:0:0:0:
356,198,25761,6,0,L|370:249,3,37.5,8|8|8|8,0:2|0:2|0:2|0:2,0:0:0:0:
313,287,26206,1,8,0:2:0:0:
308,305,26317,1,8,0:2:0:0:
303,323,26428,1,8,0:2:0:0:
300,341,26539,1,8,0:2:0:0:
273,367,26650,6,0,L|222:353,2,50,0|0|0,2:0|2:0|2:0,0:0:0:0:
366,331,27094,2,0,L|414:317,2,50,0|0|0,2:0|2:0|2:0,0:0:0:0:
289,269,27539,5,6,0:0:0:0:
179,292,27872,1,0,0:0:0:0:
179,292,27983,1,0,0:0:0:0:
245,135,28427,1,0,0:0:0:0:
263,137,28539,1,0,0:0:0:0:
281,139,28650,1,0,0:0:0:0:
299,141,28761,1,0,0:0:0:0:
317,143,28872,1,0,0:0:0:0:
369,195,29094,6,0,L|365:234,3,25,8|8|8|2,0:2|0:2|0:2|0:0,0:0:0:0:
256,245,29650,1,0,0:0:0:0:
258,227,29761,1,0,0:0:0:0:
145,128,30204,1,0,0:0:0:0:
147,146,30315,1,0,0:0:0:0:
149,164,30426,1,0,0:0:0:0:
151,182,30539,1,0,0:0:0:0:
153,200,30649,1,0,0:0:0:0:
99,253,30872,2,0,L|60:249,2,25,8|8|8,0:2|0:2|0:2,0:0:0:0:
58,250,31094,5,10,0:2:0:0:
53,231,31205,1,8,0:2:0:0:
48,213,31316,1,8,0:2:0:0:
44,195,31427,1,8,0:2:0:0:
39,177,31539,2,0,B|32:150|32:150|43:103,2,50,8|8|8,0:2|0:2|0:2,0:0:0:0:
110,197,31983,6,0,B|117:224|117:224|106:271,1,50,10|8,0:2|0:2,0:0:0:0:
164,298,32279,1,8,0:2:0:0:
176,296,32353,1,8,0:2:0:0:
188,294,32427,2,0,L|221:290,7,18.75,8|8|8|8|8|8|8|8,0:2|0:2|0:2|0:2|0:2|0:2|0:2|0:2,0:0:0:0:
225,290,32872,6,0,B|252:285|252:285|298:300,2,50,10|8|0,0:2|2:0|2:0,0:0:0:0:
183,227,33316,2,0,L|177:159,1,50,8|0,2:0|2:0,0:0:0:0:
125,123,33613,1,0,2:0:0:0:
72,175,33761,2,0,L|78:243,1,50,0|2,2:0|2:0,0:0:0:0:
23,278,34058,1,2,2:0:0:0:
23,278,34205,1,2,2:0:0:0:
182,364,34427,2,0,L|188:296,1,37.5,2|0,2:0|2:0,0:0:0:0:
194,251,34650,5,2,0:0:0:0:
299,145,34872,1,0,0:0:0:0:
303,163,34983,1,0,0:0:0:0:
308,181,35094,1,0,0:0:0:0:
174,113,35316,1,0,0:0:0:0:
178,95,35427,1,0,0:0:0:0:
183,77,35538,1,0,0:0:0:0:
201,72,35650,1,0,0:0:0:0:
219,67,35761,1,0,0:0:0:0:
237,63,35872,1,8,0:0:0:0:
255,63,35983,1,8,0:0:0:0:
255,63,36427,5,0,0:0:0:0:
277,134,36649,1,0,0:0:0:0:
282,152,36760,1,0,0:0:0:0:
287,169,36872,1,0,0:0:0:0:
333,79,37093,1,0,0:0:0:0:
338,97,37204,1,0,0:0:0:0:
343,115,37316,1,0,0:0:0:0:
355,100,37427,1,0,0:0:0:0:
367,85,37538,1,0,0:0:0:0:
379,70,37649,1,0,0:0:0:0:
391,55,37761,2,0,L|391:33,7,18.75,8|8|8|8|8|8|8|8,0:2|0:2|0:2|0:2|0:2|0:2|0:2|0:2,0:0:0:0:
391,26,38205,6,0,L|340:12,3,37.5,8|8|8|8,0:2|0:2|0:2|0:2,0:0:0:0:
301,69,38650,1,8,0:2:0:0:
305,87,38761,1,8,0:2:0:0:
310,105,38872,1,8,0:2:0:0:
314,123,38983,1,8,0:2:0:0:
340,149,39094,5,8,0:2:0:0:
335,167,39205,1,0,0:0:0:0:
330,185,39316,1,0,0:0:0:0:
327,203,39427,1,0,0:0:0:0:
322,221,39538,2,0,L|312:255,7,18.75,8|8|8|8|8|8|8|8,0:2|0:2|0:2|0:2|0:2|0:2|0:2|0:2,0:0:0:0:
314,258,39983,6,0,L|255:277,1,50,8|0,0:2|2:0,0:0:0:0:
193,256,40279,1,0,2:0:0:0:
232,195,40427,1,0,2:0:0:0:
232,195,40576,1,0,2:0:0:0:
232,195,40724,1,0,2:0:0:0:
296,157,40872,2,0,L|357:160,1,50,0|0,2:0|2:0,0:0:0:0:
412,124,41168,1,0,2:0:0:0:
374,59,41316,5,0,2:0:0:0:
302,321,41539,1,2,2:0:0:0:
302,321,41983,2,0,L|322:264,1,37.5,0|0,0:0|0:0,0:0:0:0:
369,119,42205,5,4,0:0:0:0:
270,173,42427,1,0,0:0:0:0:
266,154,42539,1,0,0:0:0:0:
262,135,42650,1,0,0:0:0:0:
258,116,42761,1,0,0:0:0:0:
305,14,42983,1,0,0:0:0:0:
305,14,43094,1,0,0:0:0:0:
142,51,43316,1,8,0:2:0:0:
142,51,43390,1,8,0:2:0:0:
142,51,43465,1,8,0:2:0:0:
142,51,43539,5,8,0:2:0:0:
180,156,43761,2,0,L|160:213,1,37.5,0|0,0:0|0:0,0:0:0:0:
138,260,43983,1,0,0:0:0:0:
270,329,44205,1,0,0:0:0:0:
274,310,44317,1,0,0:0:0:0:
278,291,44428,1,0,0:0:0:0:
296,288,44538,1,0,0:0:0:0:
315,284,44650,1,0,0:0:0:0:
334,280,44761,1,0,0:0:0:0:
353,276,44872,1,0,0:0:0:0:
494,213,45094,1,8,0:2:0:0:
494,213,45168,1,8,0:2:0:0:
494,213,45243,1,8,0:2:0:0:
494,213,45316,6,0,L|480:264,3,37.5,8|8|8|8,0:2|0:2|0:2|0:2,0:0:0:0:
430,302,45761,2,0,L|444:353,2,50,8|8|8,0:2|0:2|0:2,0:0:0:0:
361,331,46205,2,0,L|347:280,1,50,8|8,0:2|0:2,0:0:0:0:
294,229,46502,1,8,0:2:0:0:
282,227,46576,1,8,0:2:0:0:
270,225,46650,2,0,L|237:221,7,18.75,8|8|8|8|8|8|8|8,0:2|0:2|0:2|0:2|0:2|0:2|0:2|0:2,0:0:0:0:
232,219,47094,6,0,L|218:270,1,50,0|8,0:0|2:0,0:0:0:0:
195,338,47390,1,0,2:0:0:0:
119,338,47539,2,0,L|105:287,1,50,8|0,2:0|2:0,0:0:0:0:
82,219,47835,1,0,2:0:0:0:
134,166,47983,1,0,2:0:0:0:
134,166,48131,1,2,2:0:0:0:
134,166,48279,1,2,2:0:0:0:
192,212,48427,1,0,2:0:0:0:
119,338,48650,1,2,0:0:0:0:
353,365,48872,5,4,0:0:0:0:
432,285,49094,1,0,0:0:0:0:
435,266,49205,1,0,0:0:0:0:
438,247,49316,1,4,0:0:0:0:
303,171,49539,1,0,0:0:0:0:
306,190,49650,1,0,0:0:0:0:
309,209,49761,1,0,0:0:0:0:
290,206,49872,1,0,0:0:0:0:
271,203,49983,1,0,0:0:0:0:
252,200,50094,1,0,0:0:0:0:
233,197,50205,1,0,0:0:0:0:
127,291,50427,1,8,0:2:0:0:
127,291,50501,1,8,0:2:0:0:
127,291,50576,1,8,0:2:0:0:
127,291,50650,5,4,0:0:0:0:
37,136,50872,2,0,L|97:140,1,37.5,0|0,0:0|0:0,0:0:0:0:
148,149,51094,1,4,0:0:0:0:
275,69,51316,1,0,0:0:0:0:
278,50,51427,1,0,0:0:0:0:
281,31,51538,1,0,0:0:0:0:
262,34,51649,1,0,0:0:0:0:
243,37,51760,1,0,0:0:0:0:
224,40,51871,1,0,0:0:0:0:
197,66,51983,2,0,L|136:61,1,37.5
133,89,52205,2,0,L|94:85,2,22.4999993133545,8|8|8,0:2|0:2|0:2,0:0:0:0:
95,86,52427,6,0,L|34:80,1,50,8|0,2:0|2:0,0:0:0:0:
6,145,52724,1,0,2:0:0:0:
58,197,52872,1,0,2:0:0:0:
62,197,53020,1,0,2:0:0:0:
66,197,53168,1,0,2:0:0:0:
140,190,53316,2,0,L|146:251,1,50,8|8,2:0|2:0,0:0:0:0:
198,293,53613,1,2,2:0:0:0:
250,240,53761,1,2,2:0:0:0:
417,86,54205,6,0,L|478:80,1,50,0|0,2:0|2:0,0:0:0:0:
506,145,54502,1,0,2:0:0:0:
454,197,54650,1,0,2:0:0:0:
450,197,54798,1,0,2:0:0:0:
446,197,54946,1,0,2:0:0:0:
372,190,55094,2,0,L|366:251,1,50,0|0,2:0|2:0,0:0:0:0:
314,293,55391,1,2,2:0:0:0:
262,240,55539,1,2,2:0:0:0:
110,73,55983,5,0,2:0:0:0:
110,77,56131,1,0,2:0:0:0:
110,81,56279,1,0,2:0:0:0:
57,133,56427,5,0,2:0:0:0:
57,137,56575,1,0,2:0:0:0:
57,141,56723,1,0,2:0:0:0:
167,166,56872,5,0,2:0:0:0:
167,170,57020,1,0,2:0:0:0:
167,174,57168,1,2,2:0:0:0:
29,217,57316,5,2,2:0:0:0:
29,221,57464,1,0,2:0:0:0:
29,225,57612,1,0,2:0:0:0:
190,288,57761,6,0,B|262:320|326:320|334:280|366:272|390:304|364:335,1,225,4|0,1:0|0:0,0:0:0:0:
296,227,59316,1,0,0:0:0:0:
296,227,59427,1,0,0:0:0:0:
296,227,59539,2,0,B|270:196|294:164|326:172|334:212|398:212|466:180,1,206.25
467,176,60872,1,0,0:0:0:0:
503,63,61094,1,0,0:0:0:0:
503,63,61205,1,0,0:0:0:0:
503,63,61316,6,0,B|529:32|505:0|473:8|465:48|401:48|329:16,1,225
276,69,62872,1,0,0:0:0:0:
276,69,62983,1,0,0:0:0:0:
276,69,63094,2,0,B|302:100|278:132|246:124|238:84|174:84|132:106,1,187.5,0|2,0:0|0:2,0:0:0:0:
81,150,64427,1,4,0:0:0:0:
74,167,64539,1,0,0:0:0:0:
66,184,64650,1,0,0:0:0:0:
82,257,64872,6,0,L|76:344,2,75
206,171,66205,1,0,0:0:0:0:
206,171,66650,2,0,L|200:84,2,75,0|0|0,0:0|0:0|0:0,0:0:0:0:
349,217,67983,1,0,0:0:0:0:
349,217,68427,6,0,P|383:223|437:217,1,75,0|0,0:0|0:0,0:0:0:0:
504,93,69316,2,0,L|508:48,2,37.5,0|0|0,0:0|0:0|0:0,0:0:0:0:
366,32,70205,1,0,0:0:0:0:
366,32,70872,2,0,P|325:51|250:41,1,112.5,0|0,0:0|0:0,0:0:0:0:
232,72,71650,2,0,L|227:111,1,37.5,0|0,0:0|0:0,0:0:0:0:
200,135,71983,5,0,0:0:0:0:
181,132,72094,1,0,0:0:0:0:
162,130,72205,1,0,0:0:0:0:
143,128,72316,1,0,0:0:0:0:
124,126,72427,1,0,0:0:0:0:
105,123,72539,1,0,0:0:0:0:
86,121,72650,1,0,0:0:0:0:
67,119,72761,1,0,0:0:0:0:
48,117,72872,1,0,0:0:0:0:
51,136,72983,1,0,0:0:0:0:
53,155,73094,1,0,0:0:0:0:
191,212,73316,1,0,0:0:0:0:
188,231,73428,1,0,0:0:0:0:
186,250,73539,1,0,0:0:0:0:
184,269,73650,1,0,0:0:0:0:
182,288,73761,6,0,L|286:277,1,75,4|0,0:0|0:0,0:0:0:0:
368,192,74094,2,0,L|264:181,1,75,4|0,0:0|0:0,0:0:0:0:
213,319,74427,2,0,L|317:308,1,75,4|0,0:0|0:0,0:0:0:0:
399,223,74760,2,0,L|295:212,1,75,4|0,0:0|0:0,0:0:0:0:
244,350,75094,1,12,0:0:0:0:
374,134,75316,1,0,0:0:0:0:
374,134,75427,1,0,0:0:0:0:
374,134,75539,6,0,L|270:145,1,75,4|0,0:0|0:0,0:0:0:0:
188,230,75872,2,0,L|292:241,1,75,4|0,0:0|0:0,0:0:0:0:
343,103,76205,2,0,L|239:114,1,75,4|0,0:0|0:0,0:0:0:0:
157,199,76538,2,0,L|261:210,1,75,4|0,0:0|0:0,0:0:0:0:
312,72,76872,1,12,0:0:0:0:
182,288,77094,1,0,0:0:0:0:
182,288,77205,1,0,0:0:0:0:
182,288,77316,6,0,L|193:184,1,75,4|0,0:0|0:0,0:0:0:0:
278,102,77649,2,0,L|289:206,1,75,4|0,0:0|0:0,0:0:0:0:
151,257,77982,2,0,L|162:153,1,75,4|0,0:0|0:0,0:0:0:0:
247,71,78316,2,0,L|258:175,1,75,4|0,0:0|0:0,0:0:0:0:
120,226,78649,1,8,0:0:0:0:
336,96,78871,1,0,0:0:0:0:
336,96,78982,1,0,0:0:0:0:
336,96,79094,6,0,L|325:200,1,75,4|0,0:0|0:0,0:0:0:0:
240,282,79427,2,0,L|229:178,1,75,4|0,0:0|0:0,0:0:0:0:
367,127,79760,2,0,L|356:231,1,75,4|0,0:0|0:0,0:0:0:0:
271,313,80093,2,0,L|260:209,1,75,4|0,0:0|0:0,0:0:0:0:
398,158,80428,1,12,0:0:0:0:
401,195,80539,1,0,0:0:0:0:
405,232,80650,1,0,0:0:0:0:
408,269,80761,1,0,0:0:0:0:
412,306,80872,6,0,L|308:295,1,75,4|0,0:0|0:0,0:0:0:0:
226,210,81205,2,0,L|330:199,1,75,4|0,0:0|0:0,0:0:0:0:
381,337,81538,2,0,L|277:326,1,75,4|0,0:0|0:0,0:0:0:0:
195,241,81871,2,0,L|299:230,1,75,4|0,0:0|0:0,0:0:0:0:
350,368,82205,1,10,0:0:0:0:
144,152,82427,1,0,0:0:0:0:
144,152,82538,1,0,0:0:0:0:
144,152,82650,6,0,L|155:256,1,75,4|0,0:0|0:0,0:0:0:0:
240,338,82983,2,0,L|251:234,1,75,4|0,0:0|0:0,0:0:0:0:
113,183,83316,2,0,L|124:287,1,75,4|0,0:0|0:0,0:0:0:0:
209,369,83649,2,0,L|220:265,1,75,4|0,0:0|0:0,0:0:0:0:
82,214,83983,1,12,0:0:0:0:
350,291,84205,1,0,0:0:0:0:
350,291,84316,1,0,0:0:0:0:
350,291,84427,6,0,L|339:187,1,75,4|0,0:0|0:0,0:0:0:0:
254,105,84760,2,0,L|243:209,1,75,4|0,0:0|0:0,0:0:0:0:
381,260,85093,2,0,L|370:156,1,75,4|0,0:0|0:0,0:0:0:0:
285,74,85427,2,0,L|274:178,1,75,4|0,0:0|0:0,0:0:0:0:
412,229,85760,1,12,0:0:0:0:
142,152,85982,1,0,0:0:0:0:
142,152,86093,1,0,0:0:0:0:
142,152,86205,6,0,L|38:141,1,75,12|0,0:0|0:0,0:0:0:0:
13,197,86539,1,12,0:0:0:0:
35,227,86650,1,0,0:0:0:0:
68,244,86761,1,0,0:0:0:0:
105,246,86872,1,12,0:0:0:0:
105,246,87983,6,0,L|161:246,1,37.5,4|0,0:0|0:0,0:0:0:0:
195,193,88205,2,0,B|219:209|219:209|219:281,1,75,4|8,0:0|0:0,0:0:0:0:
338,361,88650,1,0,0:0:0:0:
338,361,88761,1,0,0:0:0:0:
338,361,88872,2,0,L|338:305,1,37.5,4|0,0:0|0:0,0:0:0:0:
390,270,89094,2,0,L|390:186,1,75,4|8,0:0|0:0,0:0:0:0:
283,88,89539,1,0,0:0:0:0:
283,88,89650,1,0,0:0:0:0:
283,88,89761,6,0,L|283:144,1,37.5,4|0,0:0|0:0,0:0:0:0:
230,178,89983,2,0,B|246:202|246:202|318:202,1,75,4|0,0:0|0:0,0:0:0:0:
398,308,90428,1,0,0:0:0:0:
398,308,90539,1,0,0:0:0:0:
398,308,90650,2,0,L|342:308,1,37.5,4|0,0:0|0:0,0:0:0:0:
307,360,90872,2,0,L|223:360,1,75,4|8,0:0|0:0,0:0:0:0:
90,307,91317,1,0,0:0:0:0:
90,307,91428,1,0,0:0:0:0:
90,307,91539,6,0,L|90:251,1,37.5,4|0,0:0|0:0,0:0:0:0:
133,208,91761,2,0,B|157:224|157:224|157:296,1,75,4|0,0:0|0:0,0:0:0:0:
262,376,92205,1,0,0:0:0:0:
262,376,92316,1,0,0:0:0:0:
262,376,92427,2,0,L|318:376,1,37.5,4|0,0:0|0:0,0:0:0:0:
359,316,92650,1,4,0:0:0:0:
359,316,92761,1,0,0:0:0:0:
359,316,92872,2,0,L|443:316,1,75,8|0,0:0|0:0,0:0:0:0:
486,263,93205,1,0,0:0:0:0:
486,263,93316,5,12,0:0:0:0:
475,226,93427,1,8,0:0:0:0:
465,189,93539,1,0,0:0:0:0:
455,152,93650,1,8,0:0:0:0:
445,115,93761,2,0,L|394:103,1,37.5,8|0,0:0|0:0,0:0:0:0:
365,44,93983,2,0,L|416:32,1,37.5,8|8,0:0|0:0,0:0:0:0:
401,35,95094,6,0,L|401:91,1,37.5,4|0,0:0|0:0,0:0:0:0:
444,134,95316,2,0,B|468:118|468:118|468:46,1,75,4|8,0:0|0:0,0:0:0:0:
268,90,95761,1,0,0:0:0:0:
268,90,95872,1,0,0:0:0:0:
268,90,95983,2,0,L|268:174,1,75,4|4,0:0|0:0,0:0:0:0:
373,270,96427,1,8,0:0:0:0:
188,315,96650,1,0,0:0:0:0:
188,315,96761,1,8,0:0:0:0:
188,315,96872,6,0,L|188:259,1,37.5,4|0,0:0|0:0,0:0:0:0:
145,216,97094,2,0,B|121:232|121:232|121:304,1,75,4|8,0:0|0:0,0:0:0:0:
259,338,97539,1,0,0:0:0:0:
259,338,97650,1,0,0:0:0:0:
259,338,97761,2,0,L|259:254,1,75,4|4,0:0|0:0,0:0:0:0:
154,158,98205,1,8,0:0:0:0:
339,113,98428,1,0,0:0:0:0:
339,113,98539,1,8,0:0:0:0:
339,113,98650,6,0,L|339:169,1,37.5,4|0,0:0|0:0,0:0:0:0:
391,203,98872,2,0,B|375:227|375:227|303:227,1,75,4|8,0:0|0:0,0:0:0:0:
222,333,99317,1,0,0:0:0:0:
222,333,99428,1,0,0:0:0:0:
222,333,99539,2,0,L|306:333,1,75,4|4,0:0|0:0,0:0:0:0:
349,280,99872,1,0,0:0:0:0:
349,280,99983,2,0,L|349:224,1,37.5,8|0,0:0|0:0,0:0:0:0:
421,224,100205,2,0,L|421:280,1,37.5,0|0,0:0|0:0,0:0:0:0:
280,250,100427,6,0,L|280:194,1,37.5,4|0,0:0|0:0,0:0:0:0:
332,160,100650,1,4,0:0:0:0:
183,148,100872,1,8,0:0:0:0:
176,184,100983,1,8,0:0:0:0:
169,220,101094,1,8,0:0:0:0:
162,256,101205,1,8,0:0:0:0:
155,292,101316,2,0,L|99:292,1,37.5,4|0,0:0|0:0,0:0:0:0:
41,292,101539,1,4,0:0:0:0:
9,145,101761,2,0,B|25:121|25:121|97:121,1,75,8|0,0:0|0:0,0:0:0:0:
146,121,102094,1,8,0:0:0:0:
146,121,102205,6,0,L|146:65,1,37.5,4|0,0:0|0:0,0:0:0:0:
198,31,102427,2,0,B|222:47|222:47|222:119,1,75,4|8,0:0|0:0,0:0:0:0:
331,203,102872,1,0,0:0:0:0:
331,203,102983,1,0,0:0:0:0:
331,203,103094,2,0,L|387:203,1,37.5,4|0,0:0|0:0,0:0:0:0:
421,255,103316,1,4,0:0:0:0:
314,361,103539,2,0,L|258:361,1,37.5,8|0,0:0|0:0,0:0:0:0:
223,308,103761,2,0,L|167:308,1,37.5,0|8,0:0|0:0,0:0:0:0:
132,255,103983,6,0,L|132:199,1,37.5,4|0,0:0|0:0,0:0:0:0:
80,164,104205,2,0,B|56:180|56:180|56:252,1,75,4|8,0:0|0:0,0:0:0:0:
206,226,104650,1,0,0:0:0:0:
206,226,104761,1,0,0:0:0:0:
206,226,104872,2,0,L|262:226,1,37.5,4|0,0:0|0:0,0:0:0:0:
296,173,105094,1,12,0:0:0:0:
189,66,105317,2,0,L|133:66,1,37.5,8|8,0:0|0:0,0:0:0:0:
98,119,105539,1,0,0:0:0:0:
98,119,105650,1,8,0:0:0:0:
98,119,105761,6,0,L|98:175,1,37.5,4|0,0:0|0:0,0:0:0:0:
150,210,105983,2,0,B|174:194|174:194|174:122,1,75,4|8,0:0|0:0,0:0:0:0:
35,90,106427,1,0,0:0:0:0:
250,118,106650,6,0,L|250:174,1,37.5,4|0,0:0|0:0,0:0:0:0:
198,209,106872,2,0,B|174:193|174:193|174:121,1,75,4|8,0:0|0:0,0:0:0:0:
322,169,107316,1,0,0:0:0:0:
322,169,107427,1,8,0:0:0:0:
322,169,107539,6,0,L|322:225,2,37.5,12|8|8,0:0|0:0|0:0,0:0:0:0:
247,80,107983,1,8,0:0:0:0:
283,73,108094,1,0,0:0:0:0:
319,66,108205,1,8,0:0:0:0:
355,59,108316,1,8,0:0:0:0:
391,52,108427,1,0,0:0:0:0:
391,52,109316,6,0,L|391:149,1,75,4|0,0:0|0:0,0:0:0:0:
497,233,109761,1,8,0:0:0:0:
295,295,109983,1,0,0:0:0:0:
295,295,110094,1,0,0:0:0:0:
295,295,110205,2,0,L|295:198,1,75,4|4,0:0|0:0,0:0:0:0:
241,166,110539,1,0,0:0:0:0:
241,166,110650,2,0,L|241:103,1,37.5,8|0,0:0|0:0,0:0:0:0:
144,87,110872,1,0,0:0:0:0:
144,87,110983,1,8,0:0:0:0:
144,87,111094,6,0,L|144:184,1,75,4|0,0:0|0:0,0:0:0:0:
7,256,111539,1,8,0:0:0:0:
209,318,111761,1,0,0:0:0:0:
209,318,111872,1,0,0:0:0:0:
209,318,111983,2,0,L|209:221,1,75,4|4,0:0|0:0,0:0:0:0:
263,189,112317,1,0,0:0:0:0:
263,189,112428,2,0,L|263:126,1,37.5,8|0,0:0|0:0,0:0:0:0:
316,98,112650,1,0,0:0:0:0:
316,98,112761,1,8,0:0:0:0:
316,98,112872,6,0,L|413:98,1,75,4|0,0:0|0:0,0:0:0:0:
482,228,113316,1,8,0:0:0:0:
482,228,113427,1,0,0:0:0:0:
482,228,113539,2,0,L|419:228,1,37.5
391,280,113761,1,4,0:0:0:0:
267,211,113983,1,4,0:0:0:0:
267,211,114094,1,0,0:0:0:0:
267,211,114205,2,0,L|267:130,1,75,8|0,0:0|0:0,0:0:0:0:
213,82,114539,1,8,0:0:0:0:
213,82,114650,6,0,L|160:82,2,37.5,4|0|0,0:0|0:0|0:0,0:0:0:0:
61,211,115094,1,8,0:0:0:0:
98,211,115205,1,0,0:0:0:0:
135,211,115316,1,8,0:0:0:0:
173,211,115427,1,8,0:0:0:0:
210,211,115539,2,0,L|288:231,1,75,4|0,0:0|0:0,0:0:0:0:
282,305,115872,1,0,0:0:0:0:
282,305,115983,2,0,L|203:325,1,75,8|0,0:0|0:0,0:0:0:0:
138,349,116316,1,8,0:0:0:0:
138,349,116427,6,0,L|138:268,1,75,4|0,0:0|0:0,0:0:0:0:
191,220,116761,1,0,0:0:0:0:
191,220,116872,2,0,L|191:139,1,75,8|0,0:0|0:0,0:0:0:0:
50,92,117316,2,0,L|50:148,1,37.5,4|0,0:0|0:0,0:0:0:0:
121,155,117539,2,0,L|121:98,1,37.5,4|0,0:0|0:0,0:0:0:0:
63,202,117761,2,0,L|63:289,1,75,8|0,0:0|0:0,0:0:0:0:
174,284,118094,1,8,0:0:0:0:
174,284,118205,6,0,L|174:203,1,75,4|0,0:0|0:0,0:0:0:0:
121,155,118539,1,0,0:0:0:0:
121,155,118650,2,0,L|121:74,1,75,8|0,0:0|0:0,0:0:0:0:
262,27,119094,2,0,L|262:83,1,37.5,4|0,0:0|0:0,0:0:0:0:
191,90,119317,2,0,L|191:33,1,37.5,4|0,0:0|0:0,0:0:0:0:
249,137,119539,2,0,L|249:224,1,75,8|0,0:0|0:0,0:0:0:0:
121,155,119872,1,8,0:0:0:0:
121,155,119983,6,0,L|121:67,1,75,4|0,0:0|0:0,0:0:0:0:
334,25,120427,2,0,L|334:113,1,75,8|0,0:0|0:0,0:0:0:0:
387,153,120761,1,0,0:0:0:0:
387,153,120872,2,0,L|387:210,1,37.5,4|0,0:0|0:0,0:0:0:0:
458,212,121094,2,0,L|458:155,1,37.5,4|0,0:0|0:0,0:0:0:0:
403,263,121316,2,0,L|403:351,1,75,8|0,0:0|0:0,0:0:0:0:
339,378,121650,1,8,0:0:0:0:
339,378,121761,5,4,0:0:0:0:
302,370,121872,1,0,0:0:0:0:
265,363,121983,1,0,0:0:0:0:
228,356,122094,1,0,0:0:0:0:
191,349,122205,1,8,0:0:0:0:
222,328,122317,1,8,0:0:0:0:
253,307,122428,1,8,0:0:0:0:
285,286,122539,1,8,0:0:0:0:
316,264,122650,2,0,L|360:264,7,37.5,0|0|0|0|0|0|0|0,0:0|0:0|0:0|0:0|0:0|0:0|0:0|0:0,0:0:0:0:
372,264,123539,5,0,0:0:0:0:
379,246,123650,1,0,0:0:0:0:
386,229,123761,1,0,0:0:0:0:
394,212,123872,1,0,0:0:0:0:
402,195,123983,1,0,0:0:0:0:
410,178,124094,1,0,0:0:0:0:
418,161,124205,1,0,0:0:0:0:
426,144,124316,1,0,0:0:0:0:
434,127,124427,1,0,0:0:0:0:
416,119,124539,1,0,0:0:0:0:
398,112,124650,1,0,0:0:0:0:
318,32,124872,1,0,0:0:0:0:
300,40,124984,1,0,0:0:0:0:
282,47,125095,1,0,0:0:0:0:
264,55,125205,1,0,0:0:0:0:
246,62,125316,6,0,L|234:104,2,37.5,4|0|0,0:0|0:0|0:0,0:0:0:0:
170,62,125650,2,0,L|158:104,2,37.5,4|0|0,0:0|0:0|0:0,0:0:0:0:
95,62,125983,2,0,L|83:104,2,37.5,4|0|0,0:0|0:0|0:0,0:0:0:0:
19,62,126317,2,0,L|7:104,2,37.5,0|0|0,0:0|0:0|0:0,0:0:0:0:
46,162,126650,1,0,0:0:0:0:
50,180,126761,1,0,0:0:0:0:
55,198,126872,1,0,0:0:0:0:
59,216,126983,1,0,0:0:0:0:
64,234,127094,6,0,L|75:276,2,37.5,4|0|0,0:0|0:0|0:0,0:0:0:0:
140,234,127428,2,0,L|151:276,2,37.5,4|0|0,0:0|0:0|0:0,0:0:0:0:
215,234,127761,2,0,L|226:276,2,37.5,4|0|0,0:0|0:0|0:0,0:0:0:0:
291,234,128095,2,0,L|302:276,2,37.5,0|0|0,0:0|0:0|0:0,0:0:0:0:
343,181,128427,2,0,L|385:170,1,37.5,4|0,0:0|0:0,0:0:0:0:
404,100,128650,2,0,L|362:89,1,37.5,4|0,0:0|0:0,0:0:0:0:
291,83,128872,6,0,L|248:95,2,37.5,4|0|0,0:0|0:0|0:0,0:0:0:0:
291,159,129206,2,0,L|248:171,2,37.5,4|0|0,0:0|0:0|0:0,0:0:0:0:
291,234,129539,2,0,L|248:246,2,37.5,4|0|0,0:0|0:0|0:0,0:0:0:0:
291,310,129873,2,0,L|248:322,2,37.5,0|0|0,0:0|0:0|0:0,0:0:0:0:
191,283,130206,1,0,0:0:0:0:
173,279,130317,1,0,0:0:0:0:
155,274,130428,1,0,0:0:0:0:
137,270,130539,1,0,0:0:0:0:
119,265,130650,6,0,L|77:254,2,37.5,4|0|0,0:0|0:0|0:0,0:0:0:0:
119,189,130984,2,0,L|77:178,2,37.5,4|0|0,0:0|0:0|0:0,0:0:0:0:
119,114,131316,2,0,L|77:103,2,37.5,4|0|0,0:0|0:0|0:0,0:0:0:0:
119,39,131650,2,0,L|77:28,2,37.5,0|0|0,0:0|0:0|0:0,0:0:0:0:
183,76,131983,2,0,L|225:65,1,37.5,4|0,0:0|0:0,0:0:0:0:
286,107,132205,1,0,0:0:0:0:
286,107,132316,1,0,0:0:0:0:
286,107,132427,6,0,L|328:96,2,37.5,4|0|0,0:0|0:0|0:0,0:0:0:0:
232,160,132761,1,4,0:0:0:0:
229,178,132872,1,0,0:0:0:0:
226,196,132983,1,0,0:0:0:0:
222,214,133094,2,0,L|180:225,2,37.5,4|0|0,0:0|0:0|0:0,0:0:0:0:
275,267,133428,1,0,0:0:0:0:
278,285,133539,1,0,0:0:0:0:
281,303,133650,1,0,0:0:0:0:
285,321,133761,1,0,0:0:0:0:
303,318,133872,1,0,0:0:0:0:
321,315,133983,1,0,0:0:0:0:
339,311,134094,1,0,0:0:0:0:
357,307,134205,6,0,L|399:296,2,37.5,4|0|0,0:0|0:0|0:0,0:0:0:0:
315,244,134539,1,4,0:0:0:0:
312,226,134650,1,0,0:0:0:0:
309,208,134761,1,0,0:0:0:0:
305,190,134872,2,0,L|263:179,2,37.5,4|0|0,0:0|0:0|0:0,0:0:0:0:
358,137,135206,1,0,0:0:0:0:
361,119,135317,1,0,0:0:0:0:
364,101,135428,1,0,0:0:0:0:
368,83,135539,2,0,L|379:41,1,37.5,4|0,0:0|0:0,0:0:0:0:
475,116,135761,2,0,L|465:79,1,37.5,4|0,0:0|0:0,0:0:0:0:
289,157,135983,6,0,L|300:199,2,37.5,4|0|0,0:0|0:0|0:0,0:0:0:0:
236,103,136317,1,4,0:0:0:0:
218,100,136428,1,0,0:0:0:0:
200,97,136539,1,0,0:0:0:0:
182,93,136650,2,0,L|171:51,2,37.5,4|0|0,0:0|0:0|0:0,0:0:0:0:
129,146,136984,1,0,0:0:0:0:
111,149,137095,1,0,0:0:0:0:
93,152,137206,1,0,0:0:0:0:
75,156,137317,1,0,0:0:0:0:
78,174,137428,1,0,0:0:0:0:
81,192,137539,1,0,0:0:0:0:
85,210,137650,1,0,0:0:0:0:
89,228,137761,6,0,L|100:270,2,37.5,4|0|0,0:0|0:0|0:0,0:0:0:0:
152,186,138095,1,4,0:0:0:0:
170,183,138206,1,0,0:0:0:0:
188,180,138317,1,0,0:0:0:0:
206,176,138428,2,0,L|217:134,2,37.5,4|0|0,0:0|0:0|0:0,0:0:0:0:
259,229,138762,1,0,0:0:0:0:
277,232,138873,1,0,0:0:0:0:
386,257,139095,2,0,L|428:268,1,37.5,0|0,0:0|0:0,0:0:0:0:
470,186,139317,2,0,L|428:175,1,37.5
287,119,139539,6,0,P|275:82|295:3,2,112.5,4|8|8,1:0|0:0|0:0,0:0:0:0:
295,135,140316,1,0,0:0:0:0:
241,188,140539,1,0,0:0:0:0:
241,188,140650,1,0,0:0:0:0:
173,155,140872,1,0,0:0:0:0:
106,189,141094,1,0,0:0:0:0:
70,255,141316,6,0,B|182:343|374:343|446:279|378:175|311:199,1,450,0|0,0:0|0:0,0:0:0:0:
246,229,142872,1,0,0:0:0:0:
225,119,143094,6,0,P|237:82|217:3,2,112.5,0|0|8,0:0|0:0|0:0,0:0:0:0:
217,135,143871,1,0,0:0:0:0:
271,188,144094,1,0,0:0:0:0:
271,188,144205,1,0,0:0:0:0:
339,155,144427,1,0,0:0:0:0:
442,255,144649,1,0,0:0:0:0:
442,255,144761,1,0,0:0:0:0:
442,255,144871,6,0,B|330:343|138:343|66:279|134:175|201:199,1,450,0|0,0:0|0:0,0:0:0:0:
266,229,146427,1,0,0:0:0:0:
388,110,146650,6,0,P|425:98|504:118,2,112.5,0|0|0,0:0|0:0|0:0,0:0:0:0:
285,156,147650,1,0,0:0:0:0:
181,112,147983,2,0,L|175:38,1,75,0|0,0:0|0:0,0:0:0:0:
120,192,148427,6,0,P|83:180|4:200,2,112.5,0|0|0,0:0|0:0|0:0,0:0:0:0:
223,238,149427,1,0,0:0:0:0:
327,194,149760,2,0,L|333:120,1,75,0|0,0:0|0:0,0:0:0:0:
358,330,150205,6,0,P|395:318|474:338,2,112.5,0|0|0,0:0|0:0|0:0,0:0:0:0:
255,376,151205,1,0,0:0:0:0:
151,332,151538,2,0,L|145:258,1,75,0|0,0:0|0:0,0:0:0:0:
251,136,151983,5,0,0:0:0:0:
265,147,152094,1,0,0:0:0:0:
276,162,152205,1,0,0:0:0:0:
284,179,152316,1,0,0:0:0:0:
289,197,152427,1,0,0:0:0:0:
289,216,152538,1,0,0:0:0:0:
285,234,152649,1,0,0:0:0:0:
277,251,152760,1,0,0:0:0:0:
266,266,152871,1,2,1:2:0:0:
95,219,153094,1,2,1:2:0:0:
251,136,153316,1,0,0:0:0:0:
288,140,153427,1,0,0:0:0:0:
325,144,153539,1,0,0:0:0:0:
362,148,153650,1,0,0:0:0:0:
399,152,153761,6,0,L|417:244,1,82.5000025177003,4|0,1:0|0:0,0:0:0:0:
291,342,154205,1,8,0:0:0:0:
460,373,154427,1,0,0:0:0:0:
460,373,154539,1,0,0:0:0:0:
460,373,154650,2,0,L|478:281,1,82.5000025177003,4|4,0:0|0:0,0:0:0:0:
418,235,154983,1,0,0:0:0:0:
418,235,155094,1,8,0:0:0:0:
180,215,155316,1,0,0:0:0:0:
180,215,155427,1,8,0:0:0:0:
180,215,155539,6,0,L|162:123,1,82.5000025177003,4|0,0:0|0:0,0:0:0:0:
90,95,155872,1,0,0:0:0:0:
90,95,155983,1,8,0:0:0:0:
31,248,156205,2,0,L|49:340,1,82.5000025177003,0|4,0:0|0:0,0:0:0:0:
206,374,156650,1,4,0:0:0:0:
334,269,156872,2,0,L|254:254,1,82.5000025177003,8|0,0:0|0:0,0:0:0:0:
207,186,157205,1,8,0:0:0:0:
207,186,157316,6,0,L|287:170,1,82.5000025177003,4|0,0:0|0:0,0:0:0:0:
346,111,157650,1,0,0:0:0:0:
346,111,157761,1,8,0:0:0:0:
414,284,157983,2,0,L|334:269,1,82.5000025177003,0|4,0:0|0:0,0:0:0:0:
233,105,158427,1,4,0:0:0:0:
371,195,158650,1,8,0:0:0:0:
143,293,158872,1,0,0:0:0:0:
143,293,158983,1,8,0:0:0:0:
143,293,159094,6,0,L|78:280,3,41.2500012588501,4|0|0|0,0:0|0:0|0:0|0:0,0:0:0:0:
43,227,159539,1,8,0:0:0:0:
84,219,159650,1,0,0:0:0:0:
125,211,159761,1,0,0:0:0:0:
166,203,159872,1,0,0:0:0:0:
207,195,159983,6,0,L|271:182,3,41.2500012588501,4|0|4|0,0:0|0:0|0:0|0:0,0:0:0:0:
268,107,160427,2,0,L|280:42,1,41.2500012588501,8|0,0:0|0:0,0:0:0:0:
181,30,160650,2,0,L|193:94,1,41.2500012588501,0|0,0:0|0:0,0:0:0:0:
346,139,160872,5,4,0:0:0:0:
346,139,160983,1,0,0:0:0:0:
346,139,161094,2,0,L|333:203,1,41.2500012588501,0|0,0:0|0:0,0:0:0:0:
200,198,161316,1,8,0:0:0:0:
200,198,161427,1,0,0:0:0:0:
200,198,161538,2,0,L|213:262,1,41.2500012588501,0|0,0:0|0:0,0:0:0:0:
282,278,161761,2,0,L|291:238,1,41.2500012588501,4|0,0:0|0:0,0:0:0:0:
209,322,161983,1,4,0:0:0:0:
209,322,162094,2,0,L|222:386,1,41.2500012588501,0|8,0:0|0:0,0:0:0:0:
299,362,162316,1,0,0:0:0:0:
299,362,162428,1,0,0:0:0:0:
299,362,162539,1,8,0:0:0:0:
299,362,162650,6,0,L|363:349,3,41.2500012588501,4|0|0|0,0:0|0:0|0:0|0:0,0:0:0:0:
397,295,163094,2,0,L|410:231,1,41.2500012588501,8|0,0:0|0:0,0:0:0:0:
463,196,163316,1,0,0:0:0:0:
463,196,163427,2,0,L|448:116,1,82.5000025177003,0|0,0:0|0:0,0:0:0:0:
506,56,163761,1,4,0:0:0:0:
344,23,163983,1,8,0:0:0:0:
303,29,164094,1,0,0:0:0:0:
262,35,164205,1,0,0:0:0:0:
221,42,164316,1,8,0:0:0:0:
180,49,164427,6,0,L|165:129,1,82.5000025177003,4|0,0:0|0:0,0:0:0:0:
105,188,164761,2,0,L|90:108,1,82.5000025177003,0|0,0:0|0:0,0:0:0:0:
31,48,165094,1,0,0:0:0:0:
32,200,165316,6,0,L|47:280,1,82.5000025177003,4|4,0:0|0:0,0:0:0:0:
107,339,165650,2,0,L|122:259,1,82.5000025177003,0|0,0:0|0:0,0:0:0:0:
181,199,165983,1,0,0:0:0:0:
181,199,166094,1,8,0:0:0:0:
181,199,166205,6,0,L|194:134,3,41.2500012588501,4|0|0|0,0:0|0:0|0:0|0:0,0:0:0:0:
266,129,166650,1,8,0:0:0:0:
274,170,166761,1,0,0:0:0:0:
282,211,166872,1,0,0:0:0:0:
290,252,166983,1,8,0:0:0:0:
305,295,167094,5,2,1:2:0:0:
96,176,167316,1,2,1:2:0:0:
305,295,167539,1,2,1:2:0:0:
96,176,167761,1,2,1:2:0:0:
71,361,167983,6,0,L|163:343,1,82.5000025177003,4|0,1:0|0:0,0:0:0:0:
268,228,168427,1,8,0:0:0:0:
403,323,168650,1,0,0:0:0:0:
403,323,168762,1,0,0:0:0:0:
403,323,168873,2,0,L|311:305,1,82.5000025177003,4|0,0:0|0:0,0:0:0:0:
250,348,169206,1,0,0:0:0:0:
250,348,169317,1,8,0:0:0:0:
440,192,169539,1,0,0:0:0:0:
440,192,169650,1,8,0:0:0:0:
440,192,169762,6,0,L|458:100,1,82.5000025177003,4|0,0:0|0:0,0:0:0:0:
479,32,170095,1,0,0:0:0:0:
479,32,170206,1,8,0:0:0:0:
317,0,170428,2,0,L|335:92,1,82.5000025177003,0|4,0:0|0:0,0:0:0:0:
215,198,170873,1,4,0:0:0:0:
424,273,171095,2,0,L|440:192,1,82.5000025177003,8|0,0:0|0:0,0:0:0:0:
300,140,171428,1,8,0:0:0:0:
300,140,171539,6,0,L|316:220,1,82.5000025177003,4|0,0:0|0:0,0:0:0:0:
257,279,171873,1,0,0:0:0:0:
257,279,171984,1,8,0:0:0:0:
149,154,172205,2,0,L|165:74,1,82.5000025177003,0|4,0:0|0:0,0:0:0:0:
193,236,172650,1,4,0:0:0:0:
55,146,172873,1,8,0:0:0:0:
294,40,173095,1,0,0:0:0:0:
294,40,173206,1,8,0:0:0:0:
294,40,173317,6,0,L|359:53,3,41.2500012588501,4|0|0|0,0:0|0:0|0:0|0:0,0:0:0:0:
384,114,173761,1,8,0:0:0:0:
343,122,173872,1,0,0:0:0:0:
302,130,173983,1,8,0:0:0:0:
261,138,174094,1,0,0:0:0:0:
220,146,174205,6,0,L|156:159,3,41.2500012588501,4|0|0|0,0:0|0:0|0:0|0:0,0:0:0:0:
155,233,174649,2,0,L|143:298,1,41.2500012588501,8|0,0:0|0:0,0:0:0:0:
242,310,174872,2,0,L|230:246,1,41.2500012588501,0|0,0:0|0:0,0:0:0:0:
171,384,175094,5,4,0:0:0:0:
171,384,175205,1,0,0:0:0:0:
171,384,175316,2,0,L|184:320,1,41.2500012588501,0|0,0:0|0:0,0:0:0:0:
317,325,175538,1,8,0:0:0:0:
317,325,175649,1,0,0:0:0:0:
317,325,175760,2,0,L|304:261,1,41.2500012588501,0|0,0:0|0:0,0:0:0:0:
234,244,175983,2,0,L|226:285,1,41.2500012588501,4|0,0:0|0:0,0:0:0:0:
308,201,176205,1,4,0:0:0:0:
308,201,176316,2,0,L|295:137,1,41.2500012588501,8|0,0:0|0:0,0:0:0:0:
218,161,176538,1,0,0:0:0:0:
218,161,176650,1,0,0:0:0:0:
218,161,176761,1,8,0:0:0:0:
218,161,176872,6,0,L|154:174,3,41.2500012588501,4|0|0|0,0:0|0:0|0:0|0:0,0:0:0:0:
136,240,177316,2,0,L|200:253,1,41.2500012588501,8|0,0:0|0:0,0:0:0:0:
235,306,177538,1,0,0:0:0:0:
235,306,177649,2,0,L|315:291,1,82.5000025177003,0|0,0:0|0:0,0:0:0:0:
375,349,177983,1,4,0:0:0:0:
495,183,178205,1,8,0:0:0:0:
454,189,178316,1,0,0:0:0:0:
413,195,178427,1,0,0:0:0:0:
372,202,178538,1,8,0:0:0:0:
331,208,178649,6,0,L|316:290,1,82.5000025177003,4|0,0:0|0:0,0:0:0:0:
243,330,178983,2,0,L|228:250,1,82.5000025177003,0|0,0:0|0:0,0:0:0:0:
169,190,179316,1,0,0:0:0:0:
0,34,179539,6,0,L|15:115,1,82.5000025177003,4|0,0:0|0:0,0:0:0:0:
88,155,179873,2,0,L|103:75,1,82.5000025177003,0|0,0:0|0:0,0:0:0:0:
161,15,180206,1,0,0:0:0:0:
161,15,180316,1,0,0:0:0:0:
161,15,180427,6,0,L|225:28,3,41.2500012588501,4|0|4|0,0:0|0:0|0:0|0:0,0:0:0:0:
343,75,180872,2,0,L|279:88,1,41.2500012588501,8|0,0:0|0:0,0:0:0:0:
184,153,181094,2,0,L|248:166,1,41.2500012588501
408,192,181316,5,0,0:0:0:0:
117,193,182205,6,0,L|132:274,1,75,4|0,0:0|0:0,0:0:0:0:
263,336,182539,2,0,L|278:255,1,75,4|0,0:0|0:0,0:0:0:0:
189,187,182872,2,0,L|204:268,1,75,4|0,0:0|0:0,0:0:0:0:
335,330,183206,2,0,L|350:249,1,75,4|0,0:0|0:0,0:0:0:0:
307,194,183539,1,12,0:0:0:0:
117,195,183761,1,0,0:0:0:0:
117,195,183872,1,0,0:0:0:0:
117,195,183983,6,0,L|132:114,1,75,4|0,0:0|0:0,0:0:0:0:
263,52,184317,2,0,L|278:133,1,75,4|0,0:0|0:0,0:0:0:0:
189,201,184650,2,0,L|204:120,1,75,4|0,0:0|0:0,0:0:0:0:
335,58,184984,2,0,L|350:139,1,75,4|0,0:0|0:0,0:0:0:0:
307,194,185317,1,12,0:0:0:0:
148,351,185539,1,0,0:0:0:0:
148,351,185650,1,0,0:0:0:0:
148,351,185761,6,0,L|67:336,1,75,4|0,0:0|0:0,0:0:0:0:
5,205,186095,2,0,L|86:190,1,75,4|0,0:0|0:0,0:0:0:0:
154,279,186428,2,0,L|73:264,1,75,4|0,0:0|0:0,0:0:0:0:
11,133,186762,2,0,L|92:118,1,75,0|0,0:0|0:0,0:0:0:0:
147,161,187095,1,12,0:0:0:0:
326,63,187317,1,0,0:0:0:0:
326,63,187428,1,0,0:0:0:0:
326,63,187539,6,0,L|407:78,1,75,4|0,0:0|0:0,0:0:0:0:
469,209,187873,2,0,L|388:224,1,75,4|0,0:0|0:0,0:0:0:0:
320,135,188206,2,0,L|401:150,1,75,4|0,0:0|0:0,0:0:0:0:
463,281,188540,2,0,L|382:296,1,75,0|0,0:0|0:0,0:0:0:0:
327,253,188872,1,12,0:0:0:0:
320,216,188983,1,0,0:0:0:0:
313,179,189094,1,0,0:0:0:0:
306,142,189205,1,0,0:0:0:0:
299,105,189316,6,0,L|218:90,1,75,4|0,0:0|0:0,0:0:0:0:
181,29,189650,2,0,L|241:17,1,37.5,4|0,0:0|0:0,0:0:0:0:
230,179,189983,2,0,L|157:166,1,75,4|0,0:0|0:0,0:0:0:0:
113,103,190317,2,0,L|150:97,1,37.5,4|0,0:0|0:0,0:0:0:0:
161,253,190650,2,0,L|124:246,1,37.5,12|0,0:0|0:0,0:0:0:0:
71,299,190872,1,0,0:0:0:0:
234,269,191094,6,0,L|315:284,1,75,4|0,0:0|0:0,0:0:0:0:
352,345,191428,2,0,L|291:356,1,37.5,4|0,0:0|0:0,0:0:0:0:
302,194,191761,2,0,L|375:207,1,75,4|0,0:0|0:0,0:0:0:0:
419,270,192095,2,0,L|382:276,1,37.5,4|0,0:0|0:0,0:0:0:0:
372,121,192428,2,0,L|408:127,1,37.5,12|0,0:0|0:0,0:0:0:0:
462,75,192650,1,0,0:0:0:0:
289,39,192872,6,0,L|303:113,1,75,4|0,0:0|0:0,0:0:0:0:
365,157,193206,2,0,L|372:121,1,37.5,4|0,0:0|0:0,0:0:0:0:
214,107,193539,2,0,L|228:181,1,75,4|0,0:0|0:0,0:0:0:0:
290,224,193873,2,0,L|297:188,1,37.5,4|0,0:0|0:0,0:0:0:0:
141,177,194206,2,0,L|148:214,1,37.5,12|0,0:0|0:0,0:0:0:0:
96,268,194428,1,0,0:0:0:0:
219,353,194650,6,0,L|256:360,2,37.5,12|0|0,0:0|0:0|0:0,0:0:0:0:
39,327,194983,2,0,L|2:333,2,37.5,12|0|0,0:0|0:0|0:0,0:0:0:0:
147,213,195316,1,12,0:0:0:0:
147,213,196427,6,0,L|228:228,1,75,4|0,0:0|0:0,0:0:0:0:
274,173,196761,2,0,L|329:162,2,37.5,4|0|0,0:0|0:0|0:0,0:0:0:0:
336,338,197094,2,0,L|255:353,1,75,4|0,0:0|0:0,0:0:0:0:
209,298,197428,2,0,L|154:287,2,37.5,4|0|0,0:0|0:0|0:0,0:0:0:0:
260,246,197761,1,12,0:0:0:0:
265,228,197872,1,0,0:0:0:0:
270,210,197983,1,0,0:0:0:0:
275,192,198094,1,0,0:0:0:0:
280,174,198205,6,0,L|199:189,1,75,4|0,0:0|0:0,0:0:0:0:
153,134,198539,2,0,L|98:123,2,37.5,4|0|0,0:0|0:0|0:0,0:0:0:0:
91,299,198872,2,0,L|172:314,1,75,4|0,0:0|0:0,0:0:0:0:
218,259,199206,2,0,L|273:248,2,37.5,4|0|0,0:0|0:0|0:0,0:0:0:0:
166,206,199539,1,12,0:0:0:0:
161,188,199650,1,0,0:0:0:0:
156,170,199761,1,0,0:0:0:0:
151,152,199872,1,0,0:0:0:0:
147,133,199983,6,0,L|228:118,1,75,4|0,0:0|0:0,0:0:0:0:
274,173,200317,2,0,L|329:184,2,37.5,4|0|0,0:0|0:0|0:0,0:0:0:0:
381,306,200650,6,0,L|300:321,1,75,4|0,0:0|0:0,0:0:0:0:
254,266,200984,2,0,L|199:255,2,37.5,4|0|0,0:0|0:0|0:0,0:0:0:0:
306,213,201317,1,12,0:0:0:0:
301,195,201428,1,0,0:0:0:0:
296,177,201539,1,0,0:0:0:0:
291,159,201650,1,0,0:0:0:0:
287,140,201761,6,0,L|368:125,1,75,4|0,0:0|0:0,0:0:0:0:
414,180,202095,2,0,L|469:191,2,37.5,4|0|0,0:0|0:0|0:0,0:0:0:0:
307,63,202427,2,0,L|226:48,1,75,4|0,0:0|0:0,0:0:0:0:
180,103,202761,2,0,L|125:114,2,37.5,4|0|0,0:0|0:0|0:0,0:0:0:0:
232,155,203094,1,12,0:0:0:0:
222,191,203205,1,0,0:0:0:0:
212,227,203316,1,0,0:0:0:0:
202,263,203427,1,0,0:0:0:0:
194,301,203539,6,0,L|210:384,1,75,4|0,0:0|0:0,0:0:0:0:
283,374,203872,1,4,0:0:0:0:
301,371,203983,1,0,0:0:0:0:
319,367,204094,1,0,0:0:0:0:
337,363,204205,2,0,L|348:304,1,37.5,4|0,0:0|0:0,0:0:0:0:
415,302,204427,1,0,0:0:0:0:
415,302,204539,2,0,L|426:360,1,37.5,4|0,0:0|0:0,0:0:0:0:
282,286,204761,1,0,0:0:0:0:
282,286,204873,2,0,L|293:227,3,37.5,12|0|0|0,0:0|0:0|0:0|0:0,0:0:0:0:
341,196,205316,6,0,L|324:112,1,75,4|0,0:0|0:0,0:0:0:0:
259,92,205649,1,2,0:0:0:0:
241,95,205760,1,0,0:0:0:0:
223,99,205871,1,0,0:0:0:0:
205,103,205982,2,0,L|193:161,1,37.5,4|0,0:0|0:0,0:0:0:0:
127,164,206204,1,0,0:0:0:0:
127,164,206316,2,0,L|115:105,1,37.5,4|0,0:0|0:0,0:0:0:0:
260,180,206538,1,0,0:0:0:0:
260,180,206650,2,0,L|248:238,3,37.5,12|0|0|0,0:0|0:0|0:0|0:0,0:0:0:0:
235,289,207094,6,0,L|151:272,1,75,4|0,0:0|0:0,0:0:0:0:
131,207,207427,1,4,0:0:0:0:
134,189,207538,1,0,0:0:0:0:
138,171,207649,1,0,0:0:0:0:
142,153,207760,2,0,L|200:141,1,37.5,4|0,0:0|0:0,0:0:0:0:
203,75,207982,1,0,0:0:0:0:
203,75,208094,2,0,L|144:63,1,37.5,4|0,0:0|0:0,0:0:0:0:
219,208,208316,1,0,0:0:0:0:
219,208,208428,2,0,L|277:196,3,37.5,12|0|0|0,0:0|0:0|0:0|0:0,0:0:0:0:
329,188,208872,6,0,L|341:130,1,37.5,12|0,0:0|0:0,0:0:0:0:
480,83,209094,1,0,0:0:0:0:
480,83,209205,2,0,L|492:141,1,37.5,12|0,0:0|0:0,0:0:0:0:
449,277,209427,1,0,0:0:0:0:
449,277,209539,1,12,0:0:0:0:
449,277,209650,1,0,0:0:0:0:
449,277,209761,6,0,B|469:290|469:290|507:291,2,50,0|0|0,2:0|2:0|2:0,0:0:0:0:
388,233,210205,1,0,2:0:0:0:
325,274,210353,1,0,2:0:0:0:
262,232,210502,1,0,2:0:0:0:
262,232,210650,5,6,0:0:0:0:
262,232,211539,1,4,0:0:0:0:
182,152,211761,2,0,L|176:124,3,25,0|0|0|0,0:0|0:0|0:0|0:0,0:0:0:0:
264,57,212205,1,0,0:0:0:0:
264,57,212279,1,0,0:0:0:0:
264,57,212353,1,0,0:0:0:0:
264,57,212427,6,0,B|263:83|263:83|250:103,2,50,8|0|0,2:0|2:0|2:0,0:0:0:0:
333,28,212872,1,0,2:0:0:0:
337,28,213020,1,0,2:0:0:0:
341,28,213168,1,0,2:0:0:0:
396,78,213316,1,0,2:0:0:0:
353,140,213465,1,0,2:0:0:0:
403,195,213613,1,0,2:0:0:0:
403,195,213761,1,2,2:0:0:0:
248,57,214205,6,0,B|249:83|249:83|262:103,2,50,0|0|0,2:0|2:0|2:0,0:0:0:0:
179,28,214650,1,0,2:0:0:0:
175,28,214798,1,0,2:0:0:0:
171,28,214946,1,0,2:0:0:0:
116,78,215094,1,0,2:0:0:0:
159,140,215243,1,0,2:0:0:0:
109,195,215391,1,0,2:0:0:0:
109,195,215539,1,2,2:0:0:0:
256,360,215983,5,4,2:3:0:0:
256,356,216131,1,4,2:3:0:0:
256,352,216279,1,4,2:3:0:0:
203,300,216427,5,4,2:3:0:0:
203,296,216575,1,4,2:3:0:0:
203,292,216723,1,4,2:3:0:0:
325,270,216872,5,4,2:3:0:0:
325,266,217020,1,4,2:3:0:0:
325,262,217168,1,4,2:3:0:0:
161,212,217316,5,6,2:3:0:0:
351,172,217539,1,6,2:3:0:0:
