osu file format v14

[General]
AudioFilename: Scattered+Rose.mp3
AudioLeadIn: 0
PreviewTime: 44016
Countdown: 0
SampleSet: Normal
StackLeniency: 0.7
Mode: 0
LetterboxInBreaks: 1
WidescreenStoryboard: 1

[Editor]
DistanceSpacing: 1.1
BeatDivisor: 4
GridSize: 4
TimelineZoom: 2

[Metadata]
Title:Scattered rose
TitleUnicode:Scattered rose
Artist:sakuzyo
ArtistUnicode:sakuzyo
Creator:Stirezet
Version:Scattered
Source:BMS
Tags:
BeatmapID:614859
BeatmapSetID:269223

[Difficulty]
HPDrainRate:8
CircleSize:4.5
OverallDifficulty:8.5
ApproachRate:10
SliderMultiplier:1.6
SliderTickRate:1

[Events]
//Background and Video events
0,0,"Scattered.png",0,0
//Break Periods
//Storyboard Layer 0 (Background)
//Storyboard Layer 1 (Fail)
//Storyboard Layer 2 (Pass)
//Storyboard Layer 3 (Foreground)
//Storyboard Sound Samples

[TimingPoints]
1350,333.333333333333,4,2,1,70,1,0
1350,-100,4,2,0,50,0,0
5349,-200,4,2,0,50,0,0
5683,-100,4,2,0,50,0,0
6683,-83.3333333333333,4,2,1,70,0,0
9349,-166.666666666667,4,2,0,50,0,0
9683,-100,4,2,0,50,0,0
10683,-83.3333333333333,4,1,1,60,0,0
11349,-83.3333333333333,4,1,2,60,0,0
11516,-166.666666666667,4,1,2,60,0,0
11849,-83.3333333333333,4,1,2,60,0,0
12016,-62.5,4,1,2,60,0,1
12099,-62.5,4,1,2,60,0,0
12266,-83.3333333333333,4,1,2,60,0,0
15266,-83.3333333333333,4,1,2,30,0,0
15433,-83.3333333333333,4,1,2,60,0,0
15599,-83.3333333333333,4,1,2,30,0,0
15766,-83.3333333333333,4,1,2,60,0,0
15849,-166.666666666667,4,1,2,60,0,0
16183,-83.3333333333333,4,1,2,60,0,0
20849,-166.666666666667,4,1,2,60,0,0
21183,-83.3333333333333,4,1,2,60,0,0
22683,-83.3333333333333,4,1,2,60,0,1
22766,-83.3333333333333,4,1,2,60,0,0
25933,-83.3333333333333,4,1,2,30,0,0
26099,-83.3333333333333,4,1,2,60,0,0
26266,-83.3333333333333,4,1,2,30,0,0
26433,-83.3333333333333,4,1,2,60,0,0
26516,-166.666666666667,4,1,2,60,0,0
26849,-83.3333333333333,4,1,2,60,0,0
33349,-83.3333333333333,4,2,2,70,0,0
38683,-200,4,2,0,50,0,0
40016,-200,4,1,1,40,0,0
41349,-166.666666666667,4,1,1,50,0,0
41683,-125,4,1,1,50,0,0
42016,-83.3333333333333,4,1,1,50,0,0
42683,-83.3333333333333,4,1,1,60,0,0
43349,-83.3333333333333,4,1,2,60,0,0
43516,-166.666666666667,4,1,2,60,0,0
43683,-55.5555555555556,4,1,0,60,0,0
44016,-50,4,1,3,60,0,1
44099,-50,4,1,2,60,0,0
44349,-83.3333333333333,4,1,2,60,0,0
47849,-71.4285714285714,4,1,2,60,0,0
48183,-83.3333333333333,4,1,2,60,0,0
53349,-55.5555555555556,4,1,2,60,0,0
53683,-83.3333333333333,4,1,2,60,0,0
54683,-83.3333333333333,4,1,2,60,0,1
54766,-83.3333333333333,4,1,2,60,0,0
57933,-83.3333333333333,4,1,2,30,0,0
58099,-83.3333333333333,4,1,2,60,0,0
58266,-83.3333333333333,4,1,2,30,0,0
58433,-83.3333333333333,4,1,2,60,0,0
60016,-166.666666666667,4,1,2,60,0,0
62016,-166.666666666667,4,1,2,60,0,0
62683,-83.3333333333333,4,1,2,60,0,0
65016,-71.4285714285714,4,1,2,60,0,0
65349,-83.3333333333333,4,1,3,70,0,1
69183,-71.4285714285714,4,1,3,70,0,1
69516,-83.3333333333333,4,1,3,70,0,1
74349,-166.666666666667,4,1,3,70,0,1
74683,-83.3333333333333,4,1,3,70,0,1
75516,-166.666666666667,4,1,3,70,0,1
75849,-83.3333333333333,4,1,3,70,0,1
75933,-83.3333333333333,4,1,3,70,0,0
76016,-83.3333333333333,4,1,2,60,0,1
76099,-83.3333333333333,4,1,2,60,0,0
78516,-55.5555555555556,4,1,2,60,0,0
78683,-83.3333333333333,4,1,2,60,0,0
79266,-83.3333333333333,4,1,2,30,0,0
79433,-83.3333333333333,4,1,2,60,0,0
79599,-83.3333333333333,4,1,2,30,0,0
79766,-83.3333333333333,4,1,2,60,0,0
81349,-166.666666666667,4,1,2,60,0,0
83349,-125,4,1,2,60,0,0
84016,-83.3333333333333,4,1,2,60,0,0
86599,-50,4,1,2,60,0,0
86683,-50,4,2,1,70,0,0
86766,-100,4,2,1,70,0,0
87849,-100,4,2,1,35,0,0
88016,-200,4,2,1,70,0,0
88683,-55.5555555555556,4,1,2,70,0,0
89349,-100,4,2,0,40,0,1
89433,-100,4,2,0,40,0,0
90016,-100,4,2,0,60,0,0
90683,-100,4,2,0,80,0,0
91349,-100,4,2,0,100,0,0
91933,-100,4,2,0,20,0,0

[Colours]
Combo1 : 255,255,255
Combo2 : 188,188,188
Combo3 : 87,87,87
Combo4 : 162,255,255
Combo5 : 191,255,194

[HitObjects]
144,172,1350,5,2,0:0:0:0:
318,124,1516,1,0,0:0:0:0:
204,265,1683,1,0,0:0:0:0:
213,90,1849,1,2,0:0:0:0:
312,236,2016,2,0,P|360:244|388:263,1,80,0|2,0:0|0:0,0:0:0:0:
444,344,2349,1,0,0:0:0:0:
496,256,2516,1,2,0:0:0:0:
476,136,2683,5,0,0:0:0:0:
476,136,2849,1,2,0:0:0:0:
476,136,3016,1,0,0:0:0:0:
444,48,3183,6,0,B|368:32|368:32|340:64|296:64,1,160,2|2,0:0|0:0,0:0:0:0:
120,44,3683,1,0,0:0:0:0:
20,172,3849,1,0,0:0:0:0:
44,320,4016,6,0,B|76:340|116:332|116:332|120:284|168:232|232:240,1,240
320,304,4683,1,2,0:0:0:0:
451,155,4849,1,0,0:0:0:0:
432,352,5016,1,0,0:0:0:0:
512,261,5183,1,0,0:0:0:0:
332,184,5349,6,0,P|296:176|268:140,1,80,2|0,0:0|0:0,0:0:0:0:
356,64,5849,6,0,B|292:52|292:52|256:84|204:80,1,160,2|2,0:0|0:0,0:0:0:0:
68,128,6349,1,0,0:0:0:0:
40,244,6516,1,4,1:0:0:0:
108,340,6683,6,0,B|148:360|184:356|184:356|212:324|256:320|288:348,1,191.999994140625,6|2,0:0|0:0,0:0:0:0:
432,352,7183,1,0,0:0:0:0:
480,220,7349,2,0,B|476:160|476:160|516:120|500:80,1,143.999995605469,8|0,0:0|0:0,0:0:0:0:
448,48,7683,2,0,B|396:68|396:68|356:64,1,95.9999970703126,2|0,0:0|0:0,0:0:0:0:
200,52,8016,5,2,0:0:0:0:
206,237,8183,1,0,0:0:0:0:
91,91,8349,1,2,0:0:0:0:
270,141,8516,1,0,0:0:0:0:
96,200,8683,2,0,L|84:224,7,23.9999992675781,8|0|0|0|0|0|0|0,0:0|0:0|0:0|0:0|0:0|0:0|0:0|0:0,0:0:0:0:
68,264,9016,6,0,B|112:288|112:288|132:336|184:348,1,143.999995605469,2|0,0:0|0:0,0:0:0:0:
228,340,9349,6,0,P|252:300|296:280,1,95.9999970703126,2|2,0:0|0:0,0:0:0:0:
280,96,9849,5,0,0:0:0:0:
464,115,10016,1,8,0:0:0:0:
242,190,10183,1,0,0:0:0:0:
376,59,10349,1,0,0:0:0:0:
296,279,10516,1,2,0:0:0:0:
474,219,10683,5,6,0:0:0:0:
296,279,10849,1,0,0:0:0:0:
256,296,10933,1,0,0:0:0:0:
212,288,11016,1,8,0:0:0:0:
180,252,11099,1,8,0:0:0:0:
152,208,11183,1,8,0:0:0:0:
108,188,11266,1,8,0:0:0:0:
64,196,11349,5,14,0:0:0:0:
464,115,11516,2,0,P|436:76|392:56,1,95.9999970703126,14|2,0:0|2:0,0:0:0:0:
152,100,12016,6,0,P|148:200|228:220,1,192,6|0,0:0|2:0,0:0:0:0:
268,228,12349,5,8,0:0:0:0:
300,209,12433,1,0,0:0:0:0:
332,191,12516,1,0,0:0:0:0:
472,260,12683,5,2,0:0:0:0:
448,308,12766,1,0,0:0:0:0:
408,344,12849,1,8,0:0:0:0:
360,360,12933,1,0,0:0:0:0:
310,350,13016,2,0,B|278:329|278:329|246:334|219:314,1,95.9999970703126
84,348,13349,6,0,B|60:308|60:308|64:260|64:260|40:216,1,143.999995605469,10|0,0:0|0:0,0:0:0:0:
12,176,13683,2,0,P|56:172|104:144,1,95.9999970703126
136,116,13933,1,0,0:0:0:0:
168,88,14016,1,8,0:0:0:0:
212,76,14099,1,0,0:0:0:0:
260,88,14183,1,0,0:0:0:0:
296,116,14266,1,0,0:0:0:0:
340,132,14349,1,0,0:0:0:0:
484,92,14516,6,0,L|496:112,3,23.9999992675781,2|2|2|2,2:0|2:0|2:0|2:0,0:0:0:0:
500,160,14683,6,0,B|484:204|452:228|452:228|412:236|388:264|388:304,1,191.999994140625,10|0,0:0|0:0,0:0:0:0:
472,316,15183,1,6,0:0:0:0:
276,336,15349,2,0,P|224:328|188:304,1,95.9999970703126,0|6,0:0|0:0,0:0:0:0:
168,176,15683,1,0,0:0:0:0:
340,132,15849,2,0,P|316:88|276:64,1,95.9999970703126,12|2,0:0|2:0,0:0:0:0:
76,36,16349,5,14,0:0:0:0:
104,72,16433,1,0,0:0:0:0:
116,116,16516,1,0,0:0:0:0:
96,160,16599,1,0,0:0:0:0:
64,192,16683,2,0,B|68:264|68:264|32:288|40:328,1,143.999995605469
68,356,17016,2,0,B|108:364|108:364|132:348|160:348,1,95.9999970703126,8|0,0:0|0:0,0:0:0:0:
256,288,17349,5,6,0:0:0:0:
416,344,17516,1,2,0:0:0:0:
392,308,17599,1,0,0:0:0:0:
376,260,17683,1,8,0:0:0:0:
380,212,17766,1,0,0:0:0:0:
400,168,17849,1,0,0:0:0:0:
432,144,17933,1,0,0:0:0:0:
464,112,18016,6,0,P|456:64|424:28,1,95.9999970703126,8|0,0:0|0:0,0:0:0:0:
376,24,18266,1,0,0:0:0:0:
328,36,18349,2,0,B|292:52|272:20|224:36,1,95.9999970703126,8|0,0:0|0:0,0:0:0:0:
132,60,18683,5,10,0:0:0:0:
247,146,18850,1,0,0:0:0:0:
132,60,19016,1,8,0:0:0:0:
114,202,19183,1,0,0:0:0:0:
44,312,19349,5,0,0:0:0:0:
84,336,19433,1,0,0:0:0:0:
132,340,19516,1,0,0:0:0:0:
180,324,19599,1,0,0:0:0:0:
228,316,19683,2,2,B|236:314|236:314|243:320|243:320|251:318|251:318|258:325|258:325|267:323|267:323|273:330|273:330|282:328|282:328|289:334|289:334|298:333|298:333|304:339|304:339|312:337|312:337,1,95.9999970703126,6|0,0:3|0:0,0:0:0:0:
416,296,20016,5,10,0:0:0:0:
456,96,20183,1,0,0:0:0:0:
506,210,20349,1,8,0:0:0:0:
308,236,20516,1,0,0:0:0:0:
456,96,20683,1,0,0:0:0:0:
328,120,20849,6,0,P|300:80|256:56,1,95.9999970703126,2|0,0:0|0:0,0:0:0:0:
128,28,21349,6,0,B|114:43|114:43|109:68|109:68|90:84|90:84|85:109|85:109|66:126|66:126|61:151|61:151|42:168|42:168|36:187|36:187,1,191.999994140625,6|8,0:0|0:0,0:0:0:0:
104,300,21849,5,2,0:0:0:0:
244,336,22016,1,0,0:0:0:0:
265,311,22099,1,0,0:0:0:0:
285,286,22183,1,2,0:0:0:0:
261,61,22349,1,2,0:0:0:0:
241,86,22432,1,0,0:0:0:0:
221,110,22516,1,2,0:0:0:0:
448,96,22683,6,0,B|448:148|448:148|465:189|465:189|442:227|442:227|435:279,1,191.999994140625,14|8,0:0|0:0,0:0:0:0:
336,296,23183,1,0,0:0:0:0:
156,244,23349,1,0,0:0:0:0:
227,335,23516,1,0,0:0:0:0:
156,244,23683,1,10,0:0:0:0:
112,240,23766,1,0,0:0:0:0:
80,212,23849,1,0,0:0:0:0:
32,212,23933,1,0,0:0:0:0:
0,184,24016,6,0,B|15:117|15:117|57:104|66:61,1,143.999995605469,10|0,0:0|0:0,0:0:0:0:
112,56,24349,1,8,0:0:0:0:
240,88,24516,1,0,0:0:0:0:
380,56,24683,5,0,0:0:0:0:
366,97,24766,1,0,0:0:0:0:
381,136,24849,1,8,0:0:0:0:
415,165,24933,1,0,0:0:0:0:
453,191,25016,1,8,0:0:0:0:
476,225,25099,1,0,0:0:0:0:
491,268,25183,1,0,0:0:0:0:
481,309,25266,1,0,0:0:0:0:
456,344,25349,6,0,B|400:312|400:312|364:336|324:316,1,143.999995605469,10|0,0:0|0:0,0:0:0:0:
288,288,25683,1,0,0:0:0:0:
160,308,25849,2,0,B|136:352|84:360,1,95.9999970703126,6|0,0:0|0:0,0:0:0:0:
112,208,26183,2,0,B|68:240|20:208|20:208,1,95.9999970703126,6|0,0:0|0:0,0:0:0:0:
168,112,26516,2,0,B|113:108|97:52|97:52,1,95.9999970703126,12|2,0:0|0:0,0:0:0:0:
362,130,27016,5,14,0:0:0:0:
344,176,27099,1,0,0:0:0:0:
364,212,27183,1,0,0:0:0:0:
391,251,27266,1,0,0:0:0:0:
396,296,27349,2,0,P|364:328|316:336,1,95.9999970703126,2|0,0:0|0:0,0:0:0:0:
268,332,27599,2,0,B|208:320|208:320|172:344|128:332,1,143.999995605469
60,240,28016,5,0,0:0:0:0:
32,204,28099,1,0,0:0:0:0:
24,160,28183,1,0,0:0:0:0:
40,116,28266,1,0,0:0:0:0:
72,84,28349,2,0,B|120:72|120:72|152:88|176:84,1,95.9999970703126
288,68,28683,2,0,P|308:76|320:76,1,31.9999990234375,10|2,0:0|0:0,0:0:0:0:
292,112,28794,2,0,P|316:108|336:112,1,31.9999990234375,2|2,0:0|0:0,0:0:0:0:
456,112,29016,5,2,0:0:0:0:
456,148,29099,1,0,0:0:0:0:
456,184,29183,1,0,0:0:0:0:
456,220,29266,1,0,0:0:0:0:
456,256,29349,2,0,B|424:276|424:276|416:308|384:320,1,95.9999970703126
328,352,29599,1,0,0:0:0:0:
304,348,29683,2,0,P|276:316|224:300,1,95.9999970703126,8|0,0:0|0:0,0:0:0:0:
96,324,30016,5,2,0:3:0:0:
32,204,30183,1,2,0:3:0:0:
60,72,30349,2,2,B|80:74|80:74|103:64|103:64|128:71|128:71|151:61|151:61|175:67|175:67|199:58|199:58|223:64|223:64|243:59|243:59,1,191.999994140625,10|8,0:3|0:0,0:0:0:0:
380,60,30849,5,0,0:0:0:0:
304,160,31016,1,0,0:0:0:0:
428,180,31183,2,0,B|416:216|432:244|432:244|404:272|404:272|444:320|424:356,2,191.999994140625,8|8|8,0:0|0:0|0:0,0:0:0:0:
300,264,32016,6,0,B|252:272|252:272|240:300|216:312,1,95.9999970703126,6|0,0:0|0:0,0:0:0:0:
176,320,32266,1,0,0:0:0:0:
132,303,32349,1,0,0:0:0:0:
8,160,32516,5,0,0:0:0:0:
40,148,32599,1,0,0:0:0:0:
72,136,32683,5,8,0:0:0:0:
104,124,32766,1,8,0:0:0:0:
140,108,32849,1,8,0:0:0:0:
184,132,32933,1,8,0:0:0:0:
232,136,33016,5,8,0:0:0:0:
280,116,33099,1,8,0:0:0:0:
308,80,33183,1,8,0:0:0:0:
348,60,33266,1,8,0:0:0:0:
396,64,33349,6,0,P|412:112|448:144,1,95.9999970703126,6|0,0:0|0:0,0:0:0:0:
392,240,33683,1,8,0:0:0:0:
218,169,33849,1,2,0:0:0:0:
317,327,34016,1,0,0:0:0:0:
330,141,34183,1,0,0:0:0:0:
210,285,34349,2,0,P|160:268|108:280,1,95.9999970703126,8|2,0:0|0:0,0:0:0:0:
56,88,34683,5,0,0:0:0:0:
208,117,34849,1,0,0:0:0:0:
67,183,35016,1,10,0:0:0:0:
143,47,35183,1,0,0:0:0:0:
160,200,35349,2,0,P|203:223|252:228,1,95.9999970703126,6|0,0:0|0:0,0:0:0:0:
208,117,35683,1,10,0:0:0:0:
330,141,35849,1,0,0:0:0:0:
432,72,36016,5,2,0:0:0:0:
496,176,36183,1,0,0:0:0:0:
392,236,36349,1,8,0:0:0:0:
488,328,36516,1,2,0:0:0:0:
392,236,36683,2,0,B|352:252|352:252|344:276|320:296,1,95.9999970703126
268,300,36933,1,0,0:0:0:0:
224,280,37016,2,0,P|180:296|148:336,1,95.9999970703126,8|2,0:0|0:0,0:0:0:0:
16,224,37349,6,0,L|17:191,1,31.9999990234375,2|0,0:1|0:0,0:0:0:0:
64,180,37461,2,0,L|89:150,1,31.9999990234375,2|0,0:1|0:0,0:0:0:0:
60,116,37572,2,0,L|65:84,1,31.9999990234375,2|0,0:1|0:0,0:0:0:0:
100,68,37683,6,0,B|160:92|160:92|192:72|236:76,1,143.999995605469,10|0,0:0|0:0,0:0:0:0:
276,60,38016,6,0,P|292:104|336:132,1,95.9999970703126,6|8,0:0|0:0,0:0:0:0:
376,160,38266,1,8,0:0:0:0:
426,164,38349,1,10,0:0:0:0:
396,204,38433,1,8,0:0:0:0:
356,236,38516,1,8,0:0:0:0:
340,280,38599,1,8,0:0:0:0:
364,324,38683,6,0,B|440:316|452:244|452:244,1,120,6|0,0:0|0:0,0:0:0:0:
148,324,39349,2,0,B|72:316|60:244|60:244,1,120,10|0,0:0|0:0,0:0:0:0:
364,96,40016,2,0,B|396:92|396:92|412:80|412:80|444:76,1,80,6|0,0:0|2:0,0:0:0:0:
148,96,40516,1,0,0:0:0:0:
148,96,40683,2,0,B|116:92|116:92|100:80|100:80|68:76,1,80,2|0,0:0|2:0,0:0:0:0:
136,188,41349,6,0,L|179:221,1,47.9999985351563
220,159,41683,2,0,L|287:184,1,64,2|0,0:0|0:0,0:0:0:0:
268,80,42016,5,2,0:0:0:0:
304,64,42099,1,0,0:0:0:0:
344,60,42183,1,0,0:0:0:0:
384,68,42266,1,0,0:0:0:0:
416,92,42349,1,2,0:0:0:0:
440,124,42433,1,0,0:0:0:0:
452,160,42516,1,2,0:0:0:0:
448,196,42599,1,0,0:0:0:0:
428,232,42683,6,0,B|400:252|400:252|408:284|396:316,1,95.9999970703126
352,328,42933,1,0,0:0:0:0:
308,308,43016,1,8,0:0:0:0:
260,320,43099,1,8,0:0:0:0:
220,284,43183,1,8,0:0:0:0:
172,264,43266,1,8,0:0:0:0:
120,268,43349,6,0,L|108:208,1,47.9999985351563,14|0,0:0|2:0,0:0:0:0:
416,92,43516,2,0,L|432:112,1,23.9999992675781,14|0,0:0|2:0,0:0:0:0:
508,124,43683,2,2,P|480:188|404:184,1,143.999995605469,12|6,2:0|2:0,0:0:0:0:
224,100,44016,6,2,P|92:84|96:136,1,240,14|0,0:0|2:0,0:0:0:0:
124,176,44349,5,8,0:0:0:0:
128,220,44433,1,0,0:0:0:0:
120,268,44516,1,0,0:0:0:0:
172,264,44599,1,0,0:0:0:0:
220,284,44683,2,0,B|284:272|284:272|316:304|356:296,1,143.999995605469,2|0,0:0|0:0,0:0:0:0:
396,320,45016,2,0,P|412:284|464:260,1,95.9999970703126,8|0,0:0|0:0,0:0:0:0:
360,176,45349,5,2,0:0:0:0:
312,172,45433,1,0,0:0:0:0:
268,144,45516,1,0,0:0:0:0:
236,108,45599,1,0,0:0:0:0:
232,56,45683,2,0,P|184:72|136:60,1,95.9999970703126,8|0,0:0|0:0,0:0:0:0:
24,108,46016,5,8,0:0:0:0:
56,144,46099,1,0,0:0:0:0:
68,188,46183,1,2,0:0:0:0:
56,228,46266,1,0,0:0:0:0:
24,264,46349,2,0,P|64:280|84:332,1,95.9999970703126,8|0,0:0|0:0,0:0:0:0:
200,312,46683,5,2,0:0:0:0:
297,76,46849,1,0,0:0:0:0:
159,214,47016,1,0,0:0:0:0:
395,116,47183,2,0,P|424:80|468:60,1,95.9999970703126,10|0,0:0|0:0,0:0:0:0:
332,320,47516,2,0,P|372:356|416:368,1,95.9999970703126,10|0,0:0|0:0,0:0:0:0:
88,100,47849,2,0,B|84:112|84:112|96:112|96:112|92:124|92:124|104:124|104:124|92:200|200:212|220:152,1,223.999993164063
268,152,48266,5,0,0:0:0:0:
304,184,48349,1,0,0:0:0:0:
312,232,48433,1,0,0:0:0:0:
288,280,48516,1,0,0:0:0:0:
240,308,48599,1,0,0:0:0:0:
192,300,48683,2,0,B|144:292|144:292|128:316|104:324,1,95.9999970703126,2|0,0:0|0:0,0:0:0:0:
40,296,48933,1,0,0:0:0:0:
60,268,49016,2,0,B|72:220|72:220|60:176,1,95.9999970703126,2|0,0:0|0:0,0:0:0:0:
188,108,49349,5,6,0:0:0:0:
396,120,49516,1,0,0:0:0:0:
288,268,49683,1,8,0:0:0:0:
188,108,49849,5,0,0:0:0:0:
224,132,49933,1,0,0:0:0:0:
268,140,50016,1,0,0:0:0:0:
312,124,50099,1,0,0:0:0:0:
356,108,50183,1,8,0:0:0:0:
396,120,50266,1,0,0:0:0:0:
440,116,50349,1,0,0:0:0:0:
508,184,50516,2,0,L|496:192,7,11.9999996337891,2|0|2|0|2|0|2|0,2:0|2:0|2:0|2:0|2:0|2:0|2:0|2:0,0:0:0:0:
476,208,50683,6,0,B|456:252|456:252|476:296,1,95.9999970703126
452,332,50933,2,0,B|384:312|384:312|352:332|312:328,1,143.999995605469,8|0,0:0|0:0,0:0:0:0:
224,252,51349,1,2,0:0:0:0:
14,281,51516,1,0,0:0:0:0:
184,350,51683,1,6,0:3:0:0:
53,183,51849,1,0,0:0:0:0:
168,160,52016,6,0,B|204:132|204:132|208:112|232:88,1,95.9999970703126,8|0,0:0|0:0,0:0:0:0:
276,68,52266,1,0,0:0:0:0:
324,64,52349,1,0,0:0:0:0:
368,92,52433,1,0,0:0:0:0:
404,128,52516,6,0,B|400:158|419:177|419:177|412:220|412:220|448:256|424:316,2,191.999994140625,8|2|8,0:0|0:0|0:0,0:0:0:0:
320,336,53349,6,0,B|309:339|309:339|308:321|308:321|294:333|294:333|294:315|294:315|280:326|280:326|279:308|279:308|265:319|265:319|265:301|265:301|251:312|251:312|250:294|250:294|236:306|236:306|236:288|236:288|222:299|222:299|221:281|221:281|207:292|207:292|207:274|207:274|196:278|196:278,1,287.999991210938,6|8,0:0|0:0,0:0:0:0:
156,272,53766,1,0,0:0:0:0:
116,284,53849,1,0,0:0:0:0:
8,180,54016,1,0,0:0:0:0:
88,60,54183,5,8,0:0:0:0:
132,84,54266,1,8,0:0:0:0:
180,92,54349,1,8,0:0:0:0:
232,80,54433,1,8,0:0:0:0:
280,64,54516,1,8,0:0:0:0:
328,44,54599,1,8,0:0:0:0:
384,40,54683,6,0,B|396:84|396:84|420:104|424:128,1,95.9999970703126,14|0,0:0|0:0,0:0:0:0:
464,224,55016,1,8,0:0:0:0:
416,236,55099,1,0,0:0:0:0:
372,264,55183,1,0,0:0:0:0:
340,300,55266,1,0,0:0:0:0:
320,348,55349,2,0,P|276:328|228:332,1,95.9999970703126,2|8,0:0|0:0,0:0:0:0:
184,348,55599,5,0,0:0:0:0:
136,352,55683,1,0,0:0:0:0:
88,340,55766,1,0,0:0:0:0:
56,304,55849,1,0,0:0:0:0:
40,256,55933,1,0,0:0:0:0:
52,208,56016,6,0,B|64:168|64:168|96:160|112:136,1,95.9999970703126
92,80,56266,2,0,B|160:100|160:100|236:92,1,143.999995605469
352,48,56683,1,8,0:0:0:0:
400,64,56766,1,0,0:0:0:0:
428,104,56849,1,0,0:0:0:0:
420,152,56933,1,0,0:0:0:0:
384,188,57016,2,0,L|356:232,1,47.9999985351563,4|0,0:3|0:0,0:0:0:0:
440,264,57183,2,0,L|456:312,1,47.9999985351563,2|0,0:0|0:0,0:0:0:0:
372,328,57349,6,0,B|332:332|332:332|316:344|316:344|276:348,1,95.9999970703126,10|0,0:0|0:0,0:0:0:0:
92,352,57683,1,0,0:0:0:0:
180,208,57849,1,6,0:0:0:0:
92,80,58016,1,0,0:0:0:0:
64,344,58183,1,6,0:0:0:0:
152,200,58349,1,0,0:0:0:0:
64,72,58516,1,12,0:0:0:0:
212,64,58683,2,0,L|232:120,1,47.9999985351563,2|2,2:0|2:0,0:0:0:0:
244,152,58849,5,0,0:0:0:0:
284,128,58933,1,0,0:0:0:0:
332,120,59016,1,14,0:0:0:0:
380,132,59099,1,0,0:0:0:0:
420,160,59183,1,0,0:0:0:0:
444,200,59266,1,0,0:0:0:0:
448,244,59349,2,0,B|420:288|420:288|428:332,1,95.9999970703126,2|0,0:0|0:0,0:0:0:0:
388,352,59599,2,0,B|324:336|324:336|296:368|248:364,1,143.999995605469,2|0,0:0|0:0,0:0:0:0:
72,240,60016,6,0,B|104:280|104:280|144:296|144:296|176:336,1,143.999995605469,6|0,0:0|0:0,0:0:0:0:
440,240,60683,2,0,B|408:280|408:280|368:296|368:296|336:336,1,143.999995605469,10|0,0:0|0:0,0:0:0:0:
140,88,61349,2,0,B|96:64|48:76,1,95.9999970703126,6|0,0:0|2:0,0:0:0:0:
372,88,61849,1,0,0:0:0:0:
372,88,62016,2,0,L|448:64,2,71.9999978027344,0|2|2,0:0|0:0|0:0,0:0:0:0:
460,192,62683,5,0,0:0:0:0:
444,240,62766,1,0,0:0:0:0:
408,276,62849,1,0,0:0:0:0:
364,292,62933,1,0,0:0:0:0:
316,284,63016,1,8,0:0:0:0:
280,248,63099,1,0,0:0:0:0:
232,232,63183,1,0,0:0:0:0:
184,244,63266,1,0,0:0:0:0:
152,272,63349,2,0,L|136:296,7,23.9999992675781,0|0|0|0|0|0|0|0,2:0|2:0|2:0|2:0|2:0|2:0|2:0|2:0,0:0:0:0:
112,320,63683,6,0,L|92:272,1,47.9999985351563,8|0,0:0|0:0,0:0:0:0:
16,280,63849,2,0,L|12:232,1,47.9999985351563
24,168,64016,5,8,0:0:0:0:
236,76,64183,1,0,0:0:0:0:
132,272,64349,1,8,0:0:0:0:
96,56,64516,1,0,0:0:0:0:
236,76,64683,5,8,0:0:0:0:
270,108,64766,1,8,0:0:0:0:
322,119,64849,1,8,0:0:0:0:
370,103,64933,1,8,0:0:0:0:
412,72,65016,6,2,B|456:108|398:193|443:229,1,167.999994873047,14|0,0:0|0:0,0:0:0:0:
460,288,65349,6,2,B|420:320|384:344|344:320|344:320|384:280|336:220|336:220|292:184|248:184|212:236|212:236,1,383.99998828125,14|2,0:0|0:0,0:0:0:0:
100,304,66183,1,10,0:0:0:0:
60,272,66266,1,0,0:0:0:0:
44,224,66349,1,10,0:0:0:0:
60,176,66433,1,0,0:0:0:0:
96,144,66516,1,0,0:0:0:0:
124,100,66599,1,0,0:0:0:0:
124,48,66683,6,0,B|192:64|192:64|224:44|264:44,1,143.999995605469,10|0,0:0|0:0,0:0:0:0:
340,44,67016,2,0,B|324:88|324:88|340:140,1,95.9999970703126
388,244,67349,1,8,0:0:0:0:
224,280,67516,2,0,B|180:264|180:264|152:276|124:268,1,95.9999970703126,10|2,0:0|0:0,0:0:0:0:
64,128,67849,1,8,0:0:0:0:
76,76,67933,1,8,0:0:0:0:
120,48,68016,6,0,B|164:32|208:68|208:68|232:108|212:152|212:152|268:128|316:160,1,287.999991210938,6|0,0:0|0:0,0:0:0:0:
380,68,68683,1,8,0:0:0:0:
388,116,68766,1,8,0:0:0:0:
416,156,68849,1,10,0:0:0:0:
452,184,68933,1,8,0:0:0:0:
500,196,69016,1,10,0:0:0:0:
376,296,69183,6,2,B|339:340|254:282|218:327,1,167.999994873047,10|2,0:0|0:0,0:0:0:0:
176,344,69516,6,0,B|120:284|120:284|60:300|24:240,1,191.999994140625,4|0,0:3|0:0,0:0:0:0:
376,296,70016,1,0,0:0:0:0:
288,192,70183,1,10,0:0:0:0:
328,196,70265,1,8,0:0:0:0:
376,180,70349,1,10,0:0:0:0:
408,144,70432,1,8,0:0:0:0:
432,104,70515,1,8,0:0:0:0:
288,64,70683,6,0,B|232:92|232:92|192:68|152:88,1,143.999995605469,14|0,0:0|0:0,0:0:0:0:
68,88,71016,2,0,B|88:136|88:136|72:180,1,95.9999970703126
160,268,71349,1,8,0:0:0:0:
32,304,71516,1,2,0:0:0:0:
264,316,71683,1,10,0:0:0:0:
304,336,71766,1,8,0:0:0:0:
352,328,71849,1,8,0:0:0:0:
452,348,72016,6,0,B|428:284|428:284|440:208,1,143.999995605469,10|0,0:0|0:0,0:0:0:0:
492,152,72349,2,0,B|448:136|448:136|440:112|412:100|412:100,1,95.9999970703126,8|0,0:0|0:0,0:0:0:0:
312,60,72683,1,8,0:0:0:0:
216,180,72849,1,2,0:0:0:0:
128,48,73016,2,2,B|113:54|113:54|103:68|103:68|88:75|88:75|78:88|78:88|63:95|63:95|53:108|53:108,1,95.9999970703126,14|0,0:3|0:0,0:0:0:0:
56,216,73349,6,2,B|80:280|80:280|140:304|140:304|180:356,1,191.999994140625,14|0,0:0|0:0,0:0:0:0:
312,60,73849,6,2,B|312:96|348:120|348:120|424:120|432:192,1,191.999994140625,14|0,0:0|0:0,0:0:0:0:
216,180,74349,6,2,B|168:160|160:104,1,95.9999970703126,2|0,0:0|0:0,0:0:0:0:
248,264,74766,6,0,P|260:276|276:284,5,23.9999992675781,0|0|0|0|0|0,2:0|2:0|2:0|2:0|0:0|0:0,0:0:0:0:
304,296,75016,2,0,B|332:248|388:244,1,95.9999970703126,10|0,0:0|0:0,0:0:0:0:
424,280,75266,2,0,B|440:240|440:240|472:232|480:208,1,95.9999970703126
500,144,75516,6,2,P|456:116|436:76,1,95.9999970703126,0|0,0:0|0:0,0:0:0:0:
260,48,76016,5,14,0:0:0:0:
170,280,76183,1,0,0:0:0:0:
338,143,76349,1,8,0:0:0:0:
92,183,76516,1,0,0:0:0:0:
260,48,76683,6,0,P|308:40|352:56,1,95.9999970703126
392,80,76933,1,0,0:0:0:0:
424,116,77017,1,8,0:0:0:0:
440,160,77100,1,0,0:0:0:0:
436,208,77183,1,0,0:0:0:0:
416,252,77266,1,0,0:0:0:0:
424,300,77349,6,0,B|376:292|376:292|356:304|332:308,1,95.9999970703126,8|0,0:0|0:0,0:0:0:0:
288,336,77599,2,0,B|234:328|234:328|199:347|199:347|148:343,1,143.999995605469,2|0,0:0|0:0,0:0:0:0:
44,300,78016,5,0,0:0:0:0:
82,266,78099,1,0,0:0:0:0:
99,219,78183,1,0,0:0:0:0:
78,174,78266,1,0,0:0:0:0:
55,134,78349,1,8,0:0:0:0:
55,88,78433,1,0,0:0:0:0:
77,49,78516,2,2,L|221:64,1,143.999995605469,0|10,0:0|0:0,0:0:0:0:
376,56,78849,5,0,0:0:0:0:
304,184,79016,1,0,0:0:0:0:
376,56,79183,2,0,P|424:48|472:52,1,95.9999970703126,6|0,0:0|0:0,0:0:0:0:
304,184,79516,2,0,P|316:232|348:272,1,95.9999970703126,6|0,0:0|0:0,0:0:0:0:
440,180,79849,1,12,0:0:0:0:
408,336,80016,2,0,L|356:344,1,47.9999985351563,2|2,2:0|2:0,0:0:0:0:
312,344,80183,5,0,0:0:0:0:
296,300,80266,1,0,0:0:0:0:
256,272,80349,1,14,0:0:0:0:
208,276,80433,1,0,0:0:0:0:
168,304,80516,1,0,0:0:0:0:
124,324,80599,1,0,0:0:0:0:
72,316,80683,2,0,B|56:244|56:244|8:192,1,143.999995605469,8|0,0:0|0:0,0:0:0:0:
16,148,81016,2,0,B|32:112|32:112|64:100|72:68,1,95.9999970703126,2|0,0:0|0:0,0:0:0:0:
436,160,81349,6,0,B|408:104|408:104|368:92|344:56,1,143.999995605469,6|0,0:0|0:0,0:0:0:0:
76,160,82016,2,0,B|104:104|104:104|144:92|168:56,1,143.999995605469,10|0,0:0|0:0,0:0:0:0:
348,292,82683,2,0,L|440:320,1,95.9999970703126,6|0,0:0|2:0,0:0:0:0:
164,292,83183,1,0,0:0:0:0:
164,292,83349,2,0,L|72:320,1,96,10|2,0:0|2:0,0:0:0:0:
44,92,83849,1,2,0:0:0:0:
44,92,84016,5,0,0:0:0:0:
80,116,84099,1,0,0:0:0:0:
124,124,84183,1,0,0:0:0:0:
168,108,84266,1,0,0:0:0:0:
200,80,84349,1,8,0:0:0:0:
240,48,84433,1,0,0:0:0:0:
268,84,84516,1,0,0:0:0:0:
300,116,84599,1,0,0:0:0:0:
344,144,84683,6,0,L|364:128,3,23.9999992675781,0|0|0|0,1:0|2:0|1:0|2:0,0:0:0:0:
400,144,84849,2,0,L|428:136,3,23.9999992675781,0|0|0|0,0:0|2:0|0:0|2:0,0:0:0:0:
456,164,85016,2,0,L|480:208,1,47.9999985351563
480,292,85183,2,0,L|448:328,1,47.9999985351563
364,328,85349,6,0,B|320:316|320:316|292:328|264:328,1,95.9999970703126,8|0,0:0|0:0,0:0:0:0:
192,320,85599,1,0,0:0:0:0:
168,332,85683,2,0,L|112:316,1,47.9999985351563
60,264,85849,1,2,0:0:0:0:
43,221,85933,1,0,0:0:0:0:
48,168,86016,5,8,0:0:0:0:
68,128,86099,1,8,0:0:0:0:
104,104,86183,1,8,0:0:0:0:
148,112,86266,1,8,0:0:0:0:
180,144,86349,1,8,0:0:0:0:
220,164,86433,1,8,0:0:0:0:
264,156,86516,1,8,0:0:0:0:
312,168,86599,2,8,L|392:148,1,80,8|14,0:0|0:0,0:0:0:0:
256,192,86766,12,0,87849,0:0:0:0:
224,76,88016,6,0,P|282:129|296:188,1,140,2|0,0:0|0:0,0:0:0:0:
284,240,88683,5,14,0:0:0:0:
244,272,88766,1,0,0:0:0:0:
196,276,88849,1,0,0:0:0:0:
152,264,88933,1,0,0:0:0:0:
120,232,89016,2,0,L|48:248,1,71.9999978027344
96,136,89183,1,0,0:0:0:0:
144,128,89266,1,0,0:0:0:0:
192,120,89349,1,14,0:0:0:0:
256,192,89433,12,0,91933,0:0:0:0:
