osu file format v14

[General]
AudioFilename: Scattered+Rose.mp3
AudioLeadIn: 0
PreviewTime: 44016
Countdown: 0
SampleSet: Soft
StackLeniency: 0.7
Mode: 0
LetterboxInBreaks: 1
WidescreenStoryboard: 1

[Editor]
DistanceSpacing: 1.1
BeatDivisor: 4
GridSize: 4
TimelineZoom: 1.8

[Metadata]
Title:Scattered rose
TitleUnicode:Scattered rose
Artist:sakuzyo
ArtistUnicode:sakuzyo
Creator:Stirezet
Version:Insane
Source:BMS
Tags:
BeatmapID:612931
BeatmapSetID:269223

[Difficulty]
HPDrainRate:7
CircleSize:4
OverallDifficulty:7
ApproachRate:9.5
SliderMultiplier:1.4
SliderTickRate:1

[Events]
//Background and Video events
0,0,"Scattered.png",0,0
//Break Periods
//Storyboard Layer 0 (Background)
//Storyboard Layer 1 (Fail)
//Storyboard Layer 2 (Pass)
//Storyboard Layer 3 (Foreground)
//Storyboard Sound Samples

[TimingPoints]
1350,333.333333333333,4,2,1,70,1,0
1350,-100,4,2,0,50,0,0
6683,-83.3333333333333,4,2,1,70,0,0
9349,-100,4,2,0,50,0,0
10683,-83.3333333333333,4,1,1,60,0,0
11349,-83.3333333333333,4,1,2,60,0,0
12016,-83.3333333333333,4,1,2,60,0,1
12099,-83.3333333333333,4,1,2,60,0,0
15266,-83.3333333333333,4,1,2,30,0,0
15433,-83.3333333333333,4,1,2,60,0,0
15599,-83.3333333333333,4,1,2,30,0,0
15766,-83.3333333333333,4,1,2,60,0,0
22683,-83.3333333333333,4,1,2,60,0,1
22766,-83.3333333333333,4,1,2,60,0,0
25933,-83.3333333333333,4,1,2,30,0,0
26099,-83.3333333333333,4,1,2,60,0,0
26266,-83.3333333333333,4,1,2,30,0,0
26433,-83.3333333333333,4,1,2,60,0,0
33349,-83.3333333333333,4,2,2,70,0,0
38683,-100,4,2,0,50,0,0
40016,-100,4,1,1,40,0,0
40683,-100,4,1,2,60,0,0
41349,-83.3333333333333,4,1,1,50,0,0
42683,-83.3333333333333,4,1,1,60,0,0
43349,-83.3333333333333,4,1,2,60,0,0
43683,-62.5,4,1,0,60,0,0
44016,-83.3333333333333,4,1,3,60,0,1
44099,-83.3333333333333,4,1,2,60,0,0
54683,-83.3333333333333,4,1,2,60,0,1
54766,-83.3333333333333,4,1,2,60,0,0
57933,-83.3333333333333,4,1,2,30,0,0
58099,-83.3333333333333,4,1,2,60,0,0
58266,-83.3333333333333,4,1,2,30,0,0
58433,-83.3333333333333,4,1,2,60,0,0
65016,-71.4285714285714,4,1,2,60,0,0
65349,-83.3333333333333,4,1,3,70,0,1
69183,-71.4285714285714,4,1,3,70,0,1
69516,-83.3333333333333,4,1,3,70,0,1
75933,-83.3333333333333,4,1,3,70,0,0
76016,-83.3333333333333,4,1,2,60,0,1
76099,-83.3333333333333,4,1,2,60,0,0
79266,-83.3333333333333,4,1,2,30,0,0
79433,-83.3333333333333,4,1,2,60,0,0
79599,-83.3333333333333,4,1,2,30,0,0
79766,-83.3333333333333,4,1,2,60,0,0
86683,-100,4,2,1,70,0,0
88683,-83.3333333333333,4,1,2,70,0,0
89349,-100,4,2,0,40,0,1
89433,-100,4,2,0,40,0,0
90016,-100,4,2,0,60,0,0
90683,-100,4,2,0,80,0,0
91349,-100,4,2,0,100,0,0
91933,-100,4,2,0,20,0,0

[Colours]
Combo1 : 255,255,255
Combo2 : 188,188,188
Combo3 : 87,87,87
Combo4 : 162,255,255
Combo5 : 191,255,194

[HitObjects]
56,128,1350,6,0,B|120:156|120:156|132:192|164:208,1,140,2|0,0:0|0:0,0:0:0:0:
208,128,1849,1,2,0:0:0:0:
296,104,2016,2,0,P|336:100|364:112,1,70,0|2,0:0|0:0,0:0:0:0:
320,192,2349,1,0,0:0:0:0:
396,232,2516,1,2,0:0:0:0:
440,320,2683,5,0,0:0:0:0:
440,320,2849,2,0,P|404:336|372:340,1,70,2|0,0:0|0:0,0:0:0:0:
272,324,3183,2,0,B|212:304|212:304|184:328|140:320,1,140,2|2,0:0|0:0,0:0:0:0:
56,276,3683,1,0,0:0:0:0:
40,112,3849,1,0,0:0:0:0:
196,56,4016,6,0,B|212:88|244:104|244:104|276:60|320:44|376:64,1,210,0|0,0:0|0:0,0:0:0:0:
340,176,4683,2,0,P|340:216|352:252,1,70,2|0,0:0|0:0,0:0:0:0:
440,312,5016,2,0,P|416:340|384:352,1,70
280,316,5349,1,2,0:0:0:0:
120,328,5849,6,0,B|84:264|84:264|48:256|32:224,1,140,2|2,0:0|0:0,0:0:0:0:
128,192,6349,1,0,0:0:0:0:
56,128,6516,1,4,1:0:0:0:
136,68,6683,6,0,B|216:52|216:52|260:76|304:72,1,167.999994873047,4|0,0:0|0:0,0:0:0:0:
464,76,7349,2,0,P|432:152|456:232,1,167.999994873047,8|0,0:0|0:0,0:0:0:0:
360,332,8016,6,0,B|291:294|291:294|249:310|204:292,1,167.999994873047,2|0,0:0|0:0,0:0:0:0:
252,204,8516,1,0,0:0:0:0:
228,108,8683,2,0,P|304:120|352:196,1,167.999994873047,8|2,0:0|0:0,0:0:0:0:
144,288,9349,6,0,B|132:232|132:232|164:200|156:156,1,140,4|0,0:0|0:0,0:0:0:0:
200,64,9849,1,0,0:0:0:0:
304,64,10016,2,0,P|352:72|376:92,1,70,8|0,0:0|0:0,0:0:0:0:
312,168,10349,2,0,P|332:208|356:224,1,70,2|0,0:0|0:0,0:0:0:0:
416,160,10683,5,12,0:0:0:0:
408,288,10849,1,0,0:0:0:0:
376,308,10933,1,0,0:0:0:0:
340,320,11016,1,8,0:0:0:0:
304,320,11099,1,8,0:0:0:0:
268,316,11183,1,8,0:0:0:0:
232,304,11266,1,8,0:0:0:0:
200,280,11349,5,14,0:0:0:0:
80,72,11516,1,14,0:0:0:0:
84,300,11849,1,2,2:0:0:0:
84,300,12016,6,0,B|180:312|180:312|204:340|244:344,1,167.999994873047,14|8,0:0|0:0,0:0:0:0:
276,248,12516,1,0,0:0:0:0:
356,320,12683,2,0,P|402:326|434:311,1,83.9999974365235,2|8,0:0|0:0,0:0:0:0:
388,224,13016,1,0,0:0:0:0:
432,200,13099,1,0,0:0:0:0:
456,152,13183,1,0,0:0:0:0:
356,124,13349,6,0,B|304:84|304:84|272:92|240:84,1,125.999996154785,10|0,0:0|0:0,0:0:0:0:
192,68,13683,2,0,P|192:112|176:148,1,83.9999974365235
68,48,14016,1,8,0:0:0:0:
80,172,14183,1,0,0:0:0:0:
80,172,14266,1,0,0:0:0:0:
80,172,14349,1,0,0:0:0:0:
60,288,14516,1,0,0:0:0:0:
60,288,14683,6,0,B|76:328|112:336|112:336|144:296|188:276|232:288|268:332,1,251.999992309571,10|6,0:0|0:0,0:0:0:0:
376,352,15349,1,0,0:0:0:0:
340,244,15516,2,0,P|388:232|416:212,1,83.9999974365235,6|0,0:0|0:0,0:0:0:0:
336,124,15849,1,12,0:0:0:0:
244,76,16183,5,8,0:0:0:0:
116,104,16349,1,14,0:0:0:0:
80,128,16433,1,0,0:0:0:0:
64,160,16516,1,0,0:0:0:0:
160,191,16683,2,0,B|208:216|208:216|244:196|284:208,1,125.999996154785,8|0,0:0|0:0,0:0:0:0:
324,236,17016,2,0,P|348:192|376:172,1,83.9999974365235,8|0,0:0|0:0,0:0:0:0:
408,324,17349,6,0,P|361:339|324:336,1,83.9999974365235
220,284,17683,1,8,0:0:0:0:
135,144,17849,1,0,0:0:0:0:
286,207,18016,1,0,0:0:0:0:
128,240,18183,1,0,0:0:0:0:
234,121,18349,2,0,B|284:108|284:108|324:120|360:116,1,125.999996154785,8|0,0:0|0:0,0:0:0:0:
408,100,18683,6,0,B|396:160|396:160|416:212|416:212|400:260,1,167.999994873047,10|8,0:0|0:0,0:0:0:0:
286,207,19183,1,0,0:0:0:0:
304,336,19349,2,0,B|260:336|260:336|220:324,1,83.9999974365235,2|0,0:0|0:0,0:0:0:0:
172,304,19599,1,0,0:0:0:0:
140,264,19683,2,2,B|100:244|56:260,1,83.9999974365235,6|0,0:3|0:0,0:0:0:0:
147,137,20016,5,0,0:0:0:0:
356,201,20183,1,0,0:0:0:0:
276,275,20349,1,0,0:0:0:0:
224,64,20516,2,0,B|261:57|261:57|281:69|305:65,1,83.9999974365235,8|0,0:0|0:0,0:0:0:0:
404,48,20849,1,8,0:0:0:0:
456,188,21183,5,2,0:0:0:0:
420,280,21349,2,0,B|403:293|403:293|377:292|377:292|357:307|357:307|332:306|332:306|311:321|311:321|286:320|286:320|269:334|269:334,1,167.999994873047,6|8,0:0|0:0,0:0:0:0:
160,316,21849,1,2,0:0:0:0:
86,138,22016,1,0,0:0:0:0:
248,239,22183,1,2,0:0:0:0:
59,252,22349,1,0,0:0:0:0:
204,130,22516,1,2,0:0:0:0:
140,32,22683,6,0,B|212:32|212:32|260:72|304:56,1,167.999994873047,14|8,0:0|0:0,0:0:0:0:
408,108,23183,1,2,0:0:0:0:
376,216,23349,2,0,P|360:260|372:300,1,83.9999974365235,0|8,0:0|0:0,0:0:0:0:
260,304,23683,1,0,0:0:0:0:
216,320,23766,1,0,0:0:0:0:
172,328,23849,1,0,0:0:0:0:
124,312,23933,1,0,0:0:0:0:
72,328,24016,6,0,B|64:280|64:280|80:248|80:248|72:204,1,125.999996154785,0|8,0:0|0:0,0:0:0:0:
64,160,24349,1,0,0:0:0:0:
64,44,24516,1,0,0:0:0:0:
188,52,24683,2,0,L|276:48,1,83.9999974365235,8|0,0:0|0:0,0:0:0:0:
320,48,24933,2,0,B|384:44|384:44|432:84,1,125.999996154785
484,192,25349,6,0,B|432:248|432:248|380:232|344:272,1,167.999994873047,10|0,0:0|0:0,0:0:0:0:
408,340,25849,2,0,P|372:364|332:364,1,83.9999974365235,6|0,0:0|0:0,0:0:0:0:
204,332,26183,1,6,0:0:0:0:
295,233,26349,1,0,0:0:0:0:
164,203,26516,1,12,0:0:0:0:
80,300,26849,5,0,0:0:0:0:
49,254,26933,1,0,0:0:0:0:
43,206,27016,1,14,0:0:0:0:
57,156,27099,1,0,0:0:0:0:
96,120,27183,1,0,0:0:0:0:
144,12,27349,6,0,L|224:36,1,83.9999974365235,8|0,0:0|0:0,0:0:0:0:
276,56,27599,2,0,B|305:110|305:110|364:137,1,125.999996154785,2|0,0:0|0:0,0:0:0:0:
476,176,28016,6,0,B|452:224|452:224|408:236|396:276,1,125.999996154785,6|0,0:0|0:0,0:0:0:0:
428,312,28349,2,0,P|392:320|352:348,1,83.9999974365235,8|2,0:0|0:0,0:0:0:0:
244,320,28683,1,2,0:0:0:0:
244,320,28766,1,0,0:0:0:0:
244,320,28849,1,8,0:0:0:0:
120,348,29016,1,2,0:0:0:0:
82,315,29099,1,0,0:0:0:0:
68,264,29183,1,0,0:0:0:0:
33,231,29266,1,0,0:0:0:0:
24,184,29349,6,0,L|4:96,1,83.9999974365235,10|0,0:0|0:0,0:0:0:0:
16,56,29599,2,0,B|68:36|68:36|104:56|140:52,1,125.999996154785,2|0,0:0|0:0,0:0:0:0:
176,160,30016,2,0,P|220:148|248:120,1,83.9999974365235,2|2,0:3|0:3,0:0:0:0:
356,48,30349,6,2,B|374:79|374:79|402:97|402:97|418:126|418:126|446:144|446:144|464:176|464:176,1,167.999994873047,10|8,0:3|0:0,0:0:0:0:
412,280,30849,5,2,0:0:0:0:
320,208,31016,1,0,0:0:0:0:
304,324,31183,2,0,B|280:300|240:312|240:312|208:292|168:308|168:308|144:292,2,167.999994873047,8|8|8,0:0|0:0|0:0,0:0:0:0:
320,208,32016,6,0,P|304:164|276:140,1,83.9999974365235
152,148,32349,1,0,0:0:0:0:
68,240,32516,5,0,0:0:0:0:
80,284,32599,1,0,0:0:0:0:
112,312,32683,2,0,L|156:328,3,41.9999987182618,8|8|8|8,0:0|0:0|0:0|0:0,0:0:0:0:
200,328,33016,1,8,0:0:0:0:
236,296,33099,1,8,0:0:0:0:
284,288,33183,1,8,0:0:0:0:
328,308,33266,1,8,0:0:0:0:
360,348,33349,6,0,B|395:266|395:266|455:214,1,167.999994873047,6|8,0:0|0:0,0:0:0:0:
340,112,34016,1,2,0:0:0:0:
163,96,34183,1,0,0:0:0:0:
297,212,34349,1,8,0:0:0:0:
257,40,34516,1,0,0:0:0:0:
188,204,34683,6,0,B|140:273|140:273|60:301|60:301,1,167.999994873047,0|10,0:0|0:0,0:0:0:0:
24,168,35349,2,0,B|72:104|72:104|156:76|156:76,1,167.999994873047,6|10,0:0|0:0,0:0:0:0:
344,64,36016,6,0,B|360:112|360:112|408:156|408:156|424:208|424:208,1,167.999994873047,2|10,0:0|0:0,0:0:0:0:
145,142,36683,1,2,0:0:0:0:
269,301,36849,1,0,0:0:0:0:
244,128,37016,1,8,0:0:0:0:
169,315,37183,1,2,0:0:0:0:
40,144,37349,6,0,B|40:168|40:168|48:184|48:200,2,55.9999982910157,2|2|2,0:1|0:1|0:1,0:0:0:0:
80,104,37683,2,0,B|120:108|120:108|140:92|160:88,1,83.9999974365235,10|0,0:0|0:0,0:0:0:0:
244,128,38016,5,6,0:0:0:0:
352,144,38183,1,8,0:0:0:0:
380,172,38266,1,8,0:0:0:0:
432,168,38349,1,10,0:0:0:0:
411,211,38433,1,8,0:0:0:0:
391,255,38516,1,8,0:0:0:0:
371,298,38599,1,8,0:0:0:0:
348,340,38683,5,6,0:0:0:0:
340,336,39349,1,10,0:0:0:0:
336,332,40016,1,6,0:0:0:0:
332,328,40683,1,12,0:0:0:0:
108,116,41349,5,8,0:0:0:0:
136,228,41516,1,0,0:0:0:0:
220,152,41683,2,0,B|248:132|248:132|272:140|296:128,1,83.9999974365235,2|0,0:0|0:0,0:0:0:0:
412,88,42016,6,0,P|428:108|436:124,3,41.9999987182618,2|0|0|0,0:0|0:0|0:0|0:0,0:0:0:0:
440,180,42349,2,0,P|436:208|432:228,3,41.9999987182618,2|0|2|0,0:0|0:0|0:0|0:0,0:0:0:0:
412,272,42683,6,0,P|376:300|336:308,1,83.9999974365235
288,296,42933,1,0,0:0:0:0:
248,260,43016,1,8,0:0:0:0:
204,236,43099,1,8,0:0:0:0:
156,240,43183,1,8,0:0:0:0:
112,268,43266,1,8,0:0:0:0:
60,276,43349,5,14,0:0:0:0:
412,88,43516,1,14,0:0:0:0:
496,140,43683,2,2,P|452:184|404:188,1,112,12|6,2:0|2:0,0:0:0:0:
76,204,44016,5,14,0:0:0:0:
134,77,44183,1,0,0:0:0:0:
213,191,44349,1,8,0:0:0:0:
252,172,44433,1,0,0:0:0:0:
292,156,44516,1,0,0:0:0:0:
440,164,44683,2,0,P|428:224|448:288,1,125.999996154785,8|0,0:0|0:0,0:0:0:0:
488,324,45016,2,0,P|444:328|412:356,1,83.9999974365235,2|0,0:0|0:0,0:0:0:0:
284,344,45349,6,0,P|252:308|216:292,1,83.9999974365235,10|8,0:0|0:0,0:0:0:0:
116,312,45683,1,0,0:0:0:0:
72,304,45766,1,0,0:0:0:0:
32,272,45849,1,0,0:0:0:0:
16,224,45933,1,0,0:0:0:0:
20,172,46016,6,0,B|32:120|32:120|68:104|80:68,1,125.999996154785,2|0,0:0|0:0,0:0:0:0:
68,24,46349,2,0,L|152:48,1,83.9999974365235
192,148,46683,5,2,0:0:0:0:
363,228,46849,1,0,0:0:0:0:
271,62,47016,1,0,0:0:0:0:
248,252,47183,2,0,P|260:294|288:330,1,83.9999974365235,10|0,0:0|0:0,0:0:0:0:
368,120,47516,2,0,P|416:128|448:148,1,83.9999974365235,10|0,0:0|0:0,0:0:0:0:
364,228,47849,1,10,0:0:0:0:
144,304,48183,5,0,0:0:0:0:
104,280,48266,1,0,0:0:0:0:
72,244,48349,1,8,0:0:0:0:
56,192,48433,1,0,0:0:0:0:
72,144,48516,1,0,0:0:0:0:
148,48,48683,2,0,B|208:28|208:28|236:48|272:44,1,125.999996154785
308,4,49016,2,0,L|332:88,1,83.9999974365235,2|0,0:0|0:0,0:0:0:0:
380,148,49349,5,6,0:0:0:0:
471,283,49516,1,0,0:0:0:0:
317,227,49683,1,8,0:0:0:0:
372,312,49849,1,2,0:0:0:0:
474,182,50016,1,0,0:0:0:0:
372,312,50183,2,0,P|338:338|298:350,1,83.9999974365235
252,352,50433,1,0,0:0:0:0:
204,340,50516,1,0,0:0:0:0:
156,348,50599,1,0,0:0:0:0:
116,328,50683,6,0,B|88:252|88:252|40:248|20:200,1,167.999994873047,10|8,0:0|0:0,0:0:0:0:
104,168,51183,1,0,0:0:0:0:
286,220,51349,1,2,0:0:0:0:
169,70,51516,1,0,0:0:0:0:
175,260,51683,1,6,0:3:0:0:
281,102,51849,1,0,0:0:0:0:
376,36,52016,6,0,B|400:58|400:58|429:57|449:73,1,83.9999974365235,10|0,0:0|0:0,0:0:0:0:
392,164,52349,1,8,0:0:0:0:
488,216,52516,2,0,B|488:256|488:256|468:272|468:296,2,83.9999974365235,2|0|0,0:0|0:0|0:0,0:0:0:0:
308,300,53183,5,2,0:0:0:0:
200,328,53349,2,0,B|192:317|192:317|176:312|176:312|165:300|165:300|150:294|150:294|139:282|139:282|123:276|123:276|112:264|112:264|97:258|97:258|86:246|86:246|70:240|70:240|62:230|62:230,1,167.999994873047,6|0,0:0|0:0,0:0:0:0:
76,52,53849,1,0,0:0:0:0:
28,136,54016,1,0,0:0:0:0:
176,100,54183,1,8,0:0:0:0:
216,120,54266,1,8,0:0:0:0:
264,124,54349,1,8,0:0:0:0:
312,116,54433,1,8,0:0:0:0:
352,92,54516,1,8,0:0:0:0:
388,64,54599,1,8,0:0:0:0:
440,68,54683,6,0,B|456:128|456:128|492:148|496:180,1,125.999996154785,14|0,0:0|0:0,0:0:0:0:
492,228,55016,2,0,B|448:236|424:272,1,83.9999974365235,8|0,0:0|0:0,0:0:0:0:
344,224,55349,1,2,0:0:0:0:
179,157,55516,1,0,0:0:0:0:
273,307,55683,1,8,0:0:0:0:
285,131,55850,1,0,0:0:0:0:
172,264,56016,6,0,B|128:272|108:316,1,83.9999974365235,2|0,0:0|0:0,0:0:0:0:
64,320,56266,2,0,B|56:264|56:264|24:244|32:204,1,125.999996154785,2|0,0:0|0:0,0:0:0:0:
44,104,56683,1,0,0:0:0:0:
76,68,56766,1,0,0:0:0:0:
124,56,56849,1,0,0:0:0:0:
172,68,56933,1,0,0:0:0:0:
216,96,57016,2,0,B|272:104|272:104|304:80|340:80,1,125.999996154785,4|0,0:3|0:0,0:0:0:0:
384,80,57349,6,0,L|388:172,1,83.9999974365235,10|0,0:0|0:0,0:0:0:0:
388,300,57683,1,0,0:0:0:0:
268,220,57849,1,6,0:0:0:0:
156,296,58016,1,0,0:0:0:0:
260,188,58183,1,6,0:0:0:0:
380,268,58349,1,0,0:0:0:0:
252,152,58516,1,10,0:0:0:0:
207,56,58849,5,0,0:0:0:0:
164,59,58932,1,0,0:0:0:0:
124,80,59015,1,14,0:0:0:0:
93,113,59099,1,0,0:0:0:0:
72,152,59182,1,0,0:0:0:0:
60,192,59266,1,0,0:0:0:0:
64,232,59349,2,0,B|64:272|64:272|84:288|92:316,1,83.9999974365235
72,352,59600,2,0,B|132:360|132:360|156:340|196:336,1,125.999996154785
256,64,60016,5,6,0:0:0:0:
256,64,60683,1,10,0:0:0:0:
256,64,61349,1,6,0:0:0:0:
256,64,62016,1,10,0:0:0:0:
360,40,62683,5,0,0:0:0:0:
395,64,62766,1,0,0:0:0:0:
404,106,62849,1,0,0:0:0:0:
440,130,62933,1,0,0:0:0:0:
448,176,63016,2,0,B|460:232|460:232|440:264|452:300,1,125.999996154785,8|0,0:0|0:0,0:0:0:0:
432,332,63349,6,0,B|392:324|392:324|372:336|348:340,1,83.9999974365235
304,324,63599,1,0,0:0:0:0:
256,324,63683,2,0,P|212:316|176:296,1,83.9999974365235,8|0,0:0|0:0,0:0:0:0:
104,188,64016,1,8,0:0:0:0:
304,261,64183,1,0,0:0:0:0:
178,297,64349,1,8,0:0:0:0:
188,100,64516,1,0,0:0:0:0:
280,64,64683,5,8,0:0:0:0:
292,104,64766,1,8,0:0:0:0:
324,136,64849,1,8,0:0:0:0:
364,156,64933,1,8,0:0:0:0:
400,160,65016,6,2,B|432:208|368:256|400:304,1,146.999995513916,6|0,0:0|0:0,0:0:0:0:
344,328,65349,5,14,0:0:0:0:
284,172,65516,1,0,0:0:0:0:
178,297,65683,1,12,0:0:0:0:
40,328,65849,2,0,B|44:260|44:260|80:224|72:164,1,167.999994873047,2|10,0:0|0:0,0:0:0:0:
300,48,66349,1,2,0:0:0:0:
176,88,66516,1,0,0:0:0:0:
284,172,66683,6,0,B|340:148|340:148|372:160|404:156,1,125.999996154785,10|0,0:0|0:0,0:0:0:0:
456,144,67016,2,0,P|440:188|448:232,1,83.9999974365235,8|0,0:0|0:0,0:0:0:0:
436,328,67349,1,8,0:0:0:0:
208,316,67516,1,10,0:0:0:0:
352,240,67683,1,2,0:0:0:0:
320,344,67849,1,0,0:0:0:0:
240,204,68016,6,0,B|192:204|192:204|164:176|124:168,1,125.999996154785,6|0,0:0|0:0,0:0:0:0:
80,180,68349,1,8,0:0:0:0:
68,56,68516,2,0,B|20:64|4:108,2,83.9999974365235,0|0|2,0:0|0:0|0:0,0:0:0:0:
180,112,69016,1,2,0:0:0:0:
296,56,69183,6,2,B|331:50|344:87|380:81|393:119|429:113,1,146.999995513916,10|2,0:0|0:0,0:0:0:0:
480,104,69516,6,0,B|468:184|468:184|488:228|476:272,1,167.999994873047,4|0,0:3|0:0,0:0:0:0:
376,240,70016,1,0,0:0:0:0:
238,128,70183,1,2,0:0:0:0:
284,299,70349,1,10,0:0:0:0:
347,134,70516,1,0,0:0:0:0:
196,232,70683,6,0,B|152:264|152:264|148:304|112:324,1,125.999996154785,6|0,0:0|0:0,0:0:0:0:
64,320,71016,2,0,B|32:232,1,83.9999974365235,8|0,0:0|0:0,0:0:0:0:
112,164,71349,1,0,0:0:0:0:
40,64,71516,1,10,0:0:0:0:
172,60,71683,2,0,P|212:72|256:60,1,83.9999974365235,10|8,0:0|0:0,0:0:0:0:
384,36,72016,6,0,B|392:88|392:88|424:104|440:148,1,125.999996154785,10|0,0:0|0:0,0:0:0:0:
440,188,72349,2,0,P|416:224|412:264,1,83.9999974365235
488,336,72683,1,8,0:0:0:0:
364,348,72849,1,2,0:0:0:0:
264,284,73016,1,14,0:3:0:0:
164,328,73183,1,0,0:0:0:0:
80,256,73349,6,0,B|64:184|64:184|96:144|72:92,1,167.999994873047,6|0,0:0|0:0,0:0:0:0:
344,44,73849,2,0,B|351:91|351:91|390:132|390:132|398:196|398:196,1,167.999994873047,12|0,0:0|0:0,0:0:0:0:
224,144,74349,1,8,0:0:0:0:
256,272,74683,1,0,0:0:0:0:
256,272,74766,2,0,L|272:292,4,20.9999993591309,0|0|0|0|0,2:0|2:0|2:0|2:0|2:0,0:0:0:0:
300,320,75016,6,0,L|384:304,1,83.9999974365235,10|0,0:0|0:0,0:0:0:0:
432,292,75266,2,0,B|452:224|452:224|496:184,1,125.999996154785
96,96,76016,5,14,0:0:0:0:
278,162,76183,1,0,0:0:0:0:
91,215,76349,1,8,0:0:0:0:
210,61,76516,1,0,0:0:0:0:
204,256,76683,2,0,P|241:288|281:300,1,83.9999974365235,2|8,0:0|0:0,0:0:0:0:
324,300,76933,1,0,0:0:0:0:
368,272,77016,1,0,0:0:0:0:
392,228,77099,1,0,0:0:0:0:
400,180,77183,1,0,0:0:0:0:
392,132,77266,1,0,0:0:0:0:
372,92,77349,6,0,B|420:88|448:60,1,83.9999974365235,2|0,0:0|0:0,0:0:0:0:
500,56,77599,2,0,B|492:108|492:108|516:144|508:180,1,125.999996154785,8|0,0:0|0:0,0:0:0:0:
472,288,78016,5,0,0:0:0:0:
440,316,78099,1,0,0:0:0:0:
396,328,78183,1,0,0:0:0:0:
344,320,78266,1,0,0:0:0:0:
304,292,78349,1,8,0:0:0:0:
256,280,78433,1,0,0:0:0:0:
208,304,78516,1,0,0:0:0:0:
136,348,78683,5,10,0:0:0:0:
32,264,78849,1,0,0:0:0:0:
96,152,79016,1,0,0:0:0:0:
84,40,79183,6,0,B|168:48|168:48|200:88|240:96,1,167.999994873047,6|6,0:0|0:0,0:0:0:0:
344,32,79683,1,0,0:0:0:0:
360,164,79849,1,12,0:0:0:0:
432,296,80183,5,0,0:0:0:0:
396,280,80266,1,0,0:0:0:0:
352,284,80349,1,14,0:0:0:0:
316,312,80433,1,0,0:0:0:0:
276,336,80516,1,0,0:0:0:0:
240,308,80599,1,0,0:0:0:0:
200,288,80683,2,0,B|156:328|156:328|124:320|92:344,1,125.999996154785,2|0,0:0|0:0,0:0:0:0:
68,364,81016,2,0,P|60:320|32:288,1,83.9999974365235,8|0,0:0|0:0,0:0:0:0:
108,80,81349,5,6,0:0:0:0:
120,96,82016,1,10,0:0:0:0:
136,112,82683,1,6,0:0:0:0:
152,128,83349,1,10,0:0:0:0:
240,84,84016,6,0,L|280:66,1,41.9999987182618
334,59,84183,1,0,0:0:0:0:
375,69,84266,1,0,0:0:0:0:
407,96,84349,1,0,0:0:0:0:
422,139,84433,1,0,0:0:0:0:
428,183,84516,1,0,0:0:0:0:
399,227,84599,1,0,0:0:0:0:
360,256,84683,2,0,B|344:265|344:265|328:258|328:258|312:267|312:267|296:260|296:260|280:269|280:269|264:262|264:262|248:271,1,125.999996154785,8|0,0:0|0:0,0:0:0:0:
196,256,85016,2,0,P|200:300|176:332,1,83.9999974365235
68,272,85349,6,0,B|56:224|56:224|76:184|68:144,1,125.999996154785,10|0,0:0|0:0,0:0:0:0:
36,120,85683,1,0,0:0:0:0:
156,144,85849,1,10,0:0:0:0:
200,144,85933,1,8,0:0:0:0:
236,112,86016,5,8,0:0:0:0:
280,99,86099,1,8,0:0:0:0:
318,114,86183,1,8,0:0:0:0:
347,143,86266,1,8,0:0:0:0:
368,180,86349,1,8,0:0:0:0:
404,208,86433,1,8,0:0:0:0:
452,212,86516,2,0,L|496:188,2,41.9999987182618,10|10|14,0:0|0:0|0:0,0:0:0:0:
256,192,86766,12,2,88016,0:0:0:0:
88,160,88683,5,14,0:0:0:0:
109,199,88766,1,0,0:0:0:0:
153,217,88849,1,2,0:0:0:0:
205,212,88933,1,0,0:0:0:0:
260,192,89016,2,0,L|304:168,1,41.9999987182618,2|0,0:0|0:0,0:0:0:0:
368,200,89183,1,0,0:0:0:0:
360,224,89266,2,0,L|320:244,1,41.9999987182618,0|14,0:0|0:0,0:0:0:0:
256,192,89433,12,0,91933,0:0:0:0:
