osu file format v14

[General]
AudioFilename: Scattered+Rose.mp3
AudioLeadIn: 0
PreviewTime: 44016
Countdown: 0
SampleSet: Soft
StackLeniency: 0.7
Mode: 0
LetterboxInBreaks: 1
WidescreenStoryboard: 1

[Editor]
DistanceSpacing: 0.7
BeatDivisor: 4
GridSize: 4
TimelineZoom: 1.6

[Metadata]
Title:Scattered rose
TitleUnicode:Scattered rose
Artist:sakuzyo
ArtistUnicode:sakuzyo
Creator:Stirezet
Version:Hard
Source:BMS
Tags:
BeatmapID:612933
BeatmapSetID:269223

[Difficulty]
HPDrainRate:4
CircleSize:3.5
OverallDifficulty:5
ApproachRate:8
SliderMultiplier:1
SliderTickRate:1

[Events]
//Background and Video events
0,0,"Scattered.png",0,0
//Break Periods
//Storyboard Layer 0 (Background)
//Storyboard Layer 1 (Fail)
//Storyboard Layer 2 (Pass)
//Storyboard Layer 3 (Foreground)
//Storyboard Sound Samples

[TimingPoints]
1350,333.333333333333,4,2,1,70,1,0
1350,-100,4,2,1,50,0,0
6683,-83.3333333333333,4,2,1,70,0,0
9349,-100,4,2,0,50,0,0
10683,-83.3333333333333,4,1,1,60,0,0
11349,-83.3333333333333,4,1,2,60,0,0
12016,-83.3333333333333,4,1,2,60,0,1
12099,-83.3333333333333,4,1,2,60,0,0
15266,-83.3333333333333,4,1,2,30,0,0
15433,-83.3333333333333,4,1,2,60,0,0
15599,-83.3333333333333,4,1,2,30,0,0
15766,-83.3333333333333,4,1,2,60,0,0
22683,-83.3333333333333,4,1,2,60,0,1
22766,-83.3333333333333,4,1,2,60,0,0
25933,-83.3333333333333,4,1,2,30,0,0
26099,-83.3333333333333,4,1,2,60,0,0
26266,-83.3333333333333,4,1,2,30,0,0
26433,-83.3333333333333,4,1,2,60,0,0
33349,-83.3333333333333,4,2,2,70,0,0
38683,-100,4,2,0,50,0,0
40016,-100,4,1,1,40,0,0
40683,-100,4,1,2,60,0,0
41349,-83.3333333333333,4,1,1,50,0,0
42683,-83.3333333333333,4,1,1,60,0,0
43349,-55.5555555555556,4,2,2,60,0,0
43683,-55.5555555555556,4,1,0,60,0,0
44016,-83.3333333333333,4,1,3,60,0,1
44099,-83.3333333333333,4,1,2,60,0,0
54683,-83.3333333333333,4,1,2,60,0,1
54766,-83.3333333333333,4,1,2,60,0,0
57933,-83.3333333333333,4,1,2,30,0,0
58099,-83.3333333333333,4,1,2,60,0,0
58266,-83.3333333333333,4,1,2,30,0,0
58433,-83.3333333333333,4,1,2,60,0,0
65016,-71.4285714285714,4,1,2,60,0,0
65349,-83.3333333333333,4,1,3,70,0,1
69183,-71.4285714285714,4,1,3,70,0,1
69516,-83.3333333333333,4,1,3,70,0,1
75933,-83.3333333333333,4,1,3,70,0,0
76016,-83.3333333333333,4,1,2,60,0,1
76099,-83.3333333333333,4,1,2,60,0,0
79266,-83.3333333333333,4,1,2,30,0,0
79433,-83.3333333333333,4,1,2,60,0,0
79599,-83.3333333333333,4,1,2,30,0,0
79766,-83.3333333333333,4,1,2,60,0,0
86683,-100,4,2,1,70,0,0
88683,-83.3333333333333,4,1,2,70,0,0
89349,-100,4,2,0,40,0,1
89433,-100,4,2,0,40,0,0
90016,-100,4,2,0,60,0,0
90683,-100,4,2,0,80,0,0
91349,-100,4,2,0,100,0,0
91933,-100,4,2,0,20,0,0

[Colours]
Combo1 : 255,255,255
Combo2 : 188,188,188
Combo3 : 87,87,87
Combo4 : 162,255,255
Combo5 : 191,255,194

[HitObjects]
440,156,1350,6,0,P|472:236|412:325,1,200,2|2,0:0|0:0,0:0:0:0:
302,338,2349,1,0,0:0:0:0:
221,264,2683,2,0,P|250:206|220:128,2,150,2|2|2,0:0|0:0|0:0,0:0:0:0:
112,320,4016,6,0,B|68:256|68:256|106:201|48:145,1,200,0|2,0:0|0:0,0:0:0:0:
136,76,5016,1,0,0:0:0:0:
252,88,5349,1,2,0:0:0:0:
456,148,5849,2,0,P|436:99|397:65,2,100,2|2|4,0:0|0:0|1:0,0:0:0:0:
464,216,6683,6,0,B|452:272|416:284|416:284|324:248|284:332,1,239.999992675781,6|8,0:0|0:0,0:0:0:0:
84,348,8016,1,2,0:0:0:0:
64,220,8349,2,0,P|92:200|108:176,1,59.9999981689454,2|0,0:0|0:0,0:0:0:0:
96,112,8683,2,0,P|144:72|200:64,1,119.999996337891,8|2,0:0|0:0,0:0:0:0:
256,192,9349,12,12,10683,0:0:0:0:
160,84,11349,6,0,P|124:76|104:64,1,59.9999981689454,14|14,0:0|0:0,0:0:0:0:
60,200,11849,1,2,2:0:0:0:
60,200,12016,6,0,P|116:248|132:296,1,119.999996337891,14|8,0:0|0:0,0:0:0:0:
208,320,12516,1,2,0:0:0:0:
360,340,12849,2,0,P|396:324|412:308,1,59.9999981689454,8|0,0:0|0:0,0:0:0:0:
392,224,13183,1,2,0:0:0:0:
476,260,13349,6,0,P|480:200|448:148,1,119.999996337891,10|2,0:0|0:0,0:0:0:0:
352,140,13849,1,0,0:0:0:0:
368,56,14016,2,0,P|412:40|460:36,2,89.999997253418,8|2|8,0:0|0:0|0:0,0:0:0:0:
232,48,14683,6,0,P|232:112|196:156,1,119.999996337891,10|0,0:0|0:0,0:0:0:0:
152,84,15183,1,6,0:0:0:0:
28,120,15516,2,0,P|28:152|16:180,1,59.9999981689454,6|0,0:0|0:0,0:0:0:0:
36,256,15849,1,10,0:0:0:0:
196,328,16349,6,0,P|232:308|256:304,1,59.9999981689454,14|0,0:0|0:0,0:0:0:0:
340,308,16683,2,0,P|376:344|420:356,2,89.9999972534181,8|2|2,0:0|0:0|0:0,0:0:0:0:
368,224,17349,6,0,B|420:216|420:216|452:236|488:232,1,119.999996337891,6|8,0:0|0:0,0:0:0:0:
472,148,17849,1,2,0:0:0:0:
356,84,18183,2,0,P|328:64|296:56,1,59.9999981689454,8|8,0:0|0:0,0:0:0:0:
216,72,18516,1,0,0:0:0:0:
120,52,18683,6,0,P|124:120|96:168,1,119.999996337891,10|8,0:0|0:0,0:0:0:0:
80,248,19183,1,0,0:0:0:0:
88,336,19349,2,0,P|40:328|8:300,2,89.9999972534181,8|2|8,0:0|0:0|0:0,0:0:0:0:
168,292,20016,6,0,B|216:324|216:324|252:312|284:324,1,119.999996337891,10|8,0:0|0:0,0:0:0:0:
360,304,20516,1,0,0:0:0:0:
480,232,20849,2,0,P|468:208|468:176,1,59.9999981689454,8|0,0:0|0:0,0:0:0:0:
380,104,21349,2,0,B|367:104|367:104|353:95|353:95|336:94|336:94|322:86|322:86|306:85|306:85|292:77|292:77|275:76|275:76|265:68|265:68,1,119.999996337891,6|8,0:0|0:0,0:0:0:0:
180,68,21849,1,0,0:0:0:0:
72,144,22183,2,0,P|96:164|112:188,1,59.9999981689454,2|0,0:0|0:0,0:0:0:0:
28,220,22516,1,0,0:0:0:0:
40,304,22683,6,0,B|53:337|89:347|89:347|116:305|161:288|204:299|233:341,1,239.999992675781,14|8,0:0|0:0,0:0:0:0:
308,296,23516,2,0,P|340:280|368:276,1,59.9999981689454,2|0,0:0|0:0,0:0:0:0:
436,328,23849,1,0,0:0:0:0:
504,268,24016,6,0,P|508:208|472:160,1,119.999996337891,10|8,0:0|0:0,0:0:0:0:
408,112,24516,1,0,0:0:0:0:
396,28,24683,2,0,P|440:32|476:64,2,89.9999972534181,8|2|8,0:0|0:0|0:0,0:0:0:0:
312,68,25349,6,0,B|284:76|264:96|264:96|244:72|204:68,1,119.999996337891,10|0,0:0|0:0,0:0:0:0:
132,108,25849,2,0,P|152:132|176:148,1,59.9999981689454,6|0,0:0|0:0,0:0:0:0:
260,180,26183,1,6,0:0:0:0:
144,264,26516,1,12,0:0:0:0:
260,180,26849,5,0,0:0:0:0:
330,233,27016,1,14,0:0:0:0:
344,145,27183,1,0,0:0:0:0:
416,203,27349,2,0,P|456:157|463:125,2,89.9999972534181,8|2|8,0:0|0:0|0:0,0:0:0:0:
436,296,28016,6,0,B|420:324|392:340|392:340|372:304|324:284|292:296,1,179.999994506836,6|2,0:0|0:0,0:0:0:0:
216,344,28683,2,0,P|184:340|156:320,1,59.9999981689454,2|8,0:0|0:0,0:0:0:0:
128,240,29016,1,0,0:0:0:0:
92,136,29349,6,0,P|68:96|32:72,2,89.9999972534181,8|2|8,0:0|0:0|0:0,0:0:0:0:
184,112,30016,2,0,P|224:108|244:96,1,59.9999981689454,2|2,0:3|0:3,0:0:0:0:
312,52,30349,2,2,B|324:55|324:55|335:68|335:68|351:74|351:74|362:86|362:86|377:91|377:91|388:103|388:103|404:109|404:109|411:120|411:120,1,119.999996337891,10|0,0:3|0:0,0:0:0:0:
488,76,30849,6,0,P|500:116|500:140,1,59.9999981689454,2|0,0:0|0:0,0:0:0:0:
440,200,31183,1,0,0:0:0:0:
440,328,31516,2,0,P|408:332|380:348,1,59.9999981689454,8|0,0:0|0:0,0:0:0:0:
256,336,32016,2,0,P|196:328|164:276,1,119.999996337891,0|8,0:0|0:0,0:0:0:0:
248,248,32516,1,0,0:0:0:0:
184,188,32683,2,0,P|156:176|124:176,1,59.9999981689454,8|8,0:0|0:0,0:0:0:0:
64,232,33016,1,10,0:0:0:0:
148,332,33349,6,0,P|188:332|220:348,1,59.9999981689454,6|0,0:0|0:0,0:0:0:0:
288,356,33683,2,0,P|316:304|376:284,1,119.999996337891,8|2,0:0|0:0,0:0:0:0:
472,336,34349,2,0,P|492:312|504:276,1,59.9999981689454,8|2,0:0|0:0,0:0:0:0:
512,208,34683,2,0,P|504:148|464:100,1,119.999996337891,0|10,0:0|0:0,0:0:0:0:
400,192,35349,2,0,P|340:160|312:108,1,119.999996337891,6|8,0:0|0:0,0:0:0:0:
208,64,36016,6,0,B|171:53|145:70|145:70|165:112|154:158|116:185|61:187,1,239.999992675781,2|2,0:0|0:0,0:0:0:0:
48,308,37016,1,8,0:0:0:0:
188,352,37349,2,0,L|144:356,2,39.9999987792969,2|2|2,0:1|0:1|0:1,0:0:0:0:
244,344,37683,1,8,0:0:0:0:
368,348,38016,2,0,P|392:312|464:296,1,119.999996337891,6|8,0:0|0:0,0:0:0:0:
256,192,38683,12,12,40683,0:0:0:0:
112,160,41349,6,0,P|76:154|52:157,2,59.9999981689454,8|0|2,0:0|0:0|0:0,0:0:0:0:
80,236,41849,1,0,0:0:0:0:
155,280,42016,2,0,B|216:300|276:276,1,119.999996337891,2|2,0:0|0:0,0:0:0:0:
348,232,42516,1,0,0:0:0:0:
436,232,42683,6,0,B|428:292|428:292|452:320|456:348,2,119.999996337891,0|2|14,0:0|0:0|0:0,0:0:0:0:
496,164,43516,6,2,P|460:72|388:56,1,179.999994506836,14|6,1:0|2:0,0:0:0:0:
336,124,44016,6,2,P|308:140|276:144,1,59.9999981689454,14|0,0:0|0:0,0:0:0:0:
204,100,44349,1,8,0:0:0:0:
124,60,44516,2,0,P|68:84|44:136,1,119.999996337891,2|8,0:0|0:0,0:0:0:0:
132,148,45016,2,0,P|120:180|96:200,1,59.9999981689454,0|2,0:0|0:0,0:0:0:0:
24,248,45349,6,0,P|40:312|88:340,1,119.999996337891,10|2,0:0|0:0,0:0:0:0:
172,324,45849,1,0,0:0:0:0:
264,336,46016,2,0,P|312:356|352:356,2,89.9999972534181,8|2|8,0:0|0:0|0:0,0:0:0:0:
328,272,46683,6,0,B|380:280|380:280|396:252|436:244,1,119.999996337891,10|0,0:0|0:0,0:0:0:0:
512,208,47183,1,10,0:0:0:0:
480,100,47516,2,0,P|464:64|444:48,1,59.9999981689454,10|0,0:0|0:0,0:0:0:0:
368,40,47849,1,10,0:0:0:0:
196,64,48183,6,0,P|168:84|148:112,1,59.9999981689454,10|10,0:0|0:0,0:0:0:0:
120,180,48516,1,0,0:0:0:0:
80,256,48683,2,0,P|48:232|36:180,2,89.9999972534181,8|2|8,0:0|0:0|0:0,0:0:0:0:
64,344,49349,6,0,B|136:348|136:348|180:300|232:308,1,179.999994506836,6|2,0:0|0:0,0:0:0:0:
312,352,50016,1,2,0:0:0:0:
400,332,50183,2,0,P|436:328|460:316,1,59.9999981689454,8|0,0:0|0:0,0:0:0:0:
496,232,50516,1,0,0:0:0:0:
452,152,50683,6,0,P|452:104|476:72,2,89.9999972534181,8|2|8,0:0|0:0|0:0,0:0:0:0:
356,144,51349,2,0,P|332:124|304:116,1,59.9999981689454,8|0,0:0|0:0,0:0:0:0:
216,160,51683,2,2,B|207:161|207:161|200:155|200:155|191:156|191:156|185:150|185:150|176:152|176:152|170:145|170:145|161:147|161:147,1,59.9999981689454,6|0,0:3|0:0,0:0:0:0:
48,152,52016,6,0,L|28:92,2,59.9999981689454,8|0|0,0:0|0:0|0:0,0:0:0:0:
72,236,52516,2,0,B|88:288|88:288|132:300|148:328,1,119.999996337891,2|8,0:0|0:0,0:0:0:0:
256,264,53183,1,0,0:0:0:0:
256,264,53349,2,0,B|264:265|264:265|269:272|269:272|278:274|278:274|282:281|282:281|291:283|291:283|295:290|295:290|304:291|304:291|309:299|309:299|317:300|317:300|322:308|322:308|331:309|331:309|335:317|335:317|344:318|344:318|348:326|348:326,1,119.999996337891,6|0,0:0|0:0,0:0:0:0:
436,344,53849,2,0,B|452:264|452:264|412:220|432:172,1,179.999994506836,2|8,0:0|0:0,0:0:0:0:
484,104,54516,1,2,0:0:0:0:
424,44,54683,6,0,B|368:56|368:56|344:84|312:88,1,119.999996337891,14|8,0:0|0:0,0:0:0:0:
236,52,55183,1,2,0:0:0:0:
68,44,55516,2,0,P|84:72|88:100,1,59.9999981689454,8|0,0:0|0:0,0:0:0:0:
44,176,55849,1,0,0:0:0:0:
40,264,56016,6,0,B|88:280|88:280|116:256|152:256,1,119.999996337891,10|8,0:0|0:0,0:0:0:0:
148,340,56516,1,0,0:0:0:0:
236,352,56683,2,0,P|268:348|292:332,1,59.9999981689454,8|0,0:0|0:0,0:0:0:0:
344,268,57016,1,4,0:3:0:0:
484,264,57349,6,0,B|469:201|469:201|515:148|478:90,1,179.999994506836,10|6,0:0|0:0,0:0:0:0:
408,140,58016,1,0,0:0:0:0:
328,104,58183,2,0,B|304:84|264:88,1,59.9999981689454,6|0,0:0|0:0,0:0:0:0:
192,108,58516,1,12,0:0:0:0:
192,108,58849,5,0,0:0:0:0:
130,182,59015,1,14,0:0:0:0:
108,82,59182,1,0,0:0:0:0:
48,156,59349,2,0,P|15:132|3:80,2,89.9999972534181,8|2|8,0:0|0:0|0:0,0:0:0:0:
256,192,60016,12,10,62016,0:0:0:0:
84,288,62683,6,0,B|117:323|179:315|179:315|175:245|217:178|294:155|353:193,1,359.999989013672,6|8,0:0|0:0,0:0:0:0:
448,264,64016,2,0,B|412:304|412:304|368:304|348:328,2,119.999996337891,10|8|10,0:0|0:0|0:0,0:0:0:0:
472,180,64849,1,8,0:0:0:0:
424,104,65016,6,2,B|368:120|341:45|286:61,1,139.999995727539,6|14,0:0|0:0,0:0:0:0:
216,104,65516,6,0,P|196:128|168:140,1,59.9999981689454,0|12,0:0|0:0,0:0:0:0:
80,148,65849,2,0,P|40:84|-4:64,2,119.999996337891,10|0|8,0:0|0:0|0:0,0:0:0:0:
40,220,66683,6,0,B|68:276|68:276|52:304|56:336,1,119.999996337891,2|8,0:0|0:0,0:0:0:0:
148,320,67183,1,0,0:0:0:0:
236,336,67349,2,0,P|276:316|328:312,2,89.9999972534181,2|0|8,0:0|0:0|0:0,0:0:0:0:
208,252,68016,6,0,B|244:224|236:184|236:184|272:160,1,119.999996337891,6|8,0:0|0:0,0:0:0:0:
320,236,68516,2,0,B|360:232|376:212,1,59.9999981689454,0|2,0:0|0:0,0:0:0:0:
448,120,69016,1,0,0:0:0:0:
460,36,69183,6,2,B|404:19|372:79|317:62,1,139.999995727539,2|4,0:0|0:3,0:0:0:0:
168,104,69849,5,2,0:0:0:0:
88,80,70016,2,0,P|72:64|36:48,2,59.9999981689454,0|0|0,0:0|0:0|0:0,0:0:0:0:
108,164,70516,1,0,0:0:0:0:
28,208,70683,6,2,B|23:248|50:285|50:285|101:255|154:259|187:315,1,239.999992675781,14|2,0:0|0:0,0:0:0:0:
272,352,71516,2,0,P|312:340|324:324,1,59.9999981689454
260,264,71849,1,0,0:0:0:0:
336,216,72016,2,0,P|300:180|260:176,2,89.9999972534181,2|8|0,0:0|0:0|0:0,0:0:0:0:
424,228,72683,1,0,0:0:0:0:
472,124,73016,2,2,B|463:122|463:122|458:115|458:115|449:113|449:113|445:106|445:106|436:104|436:104|432:97|432:97|423:96|423:96,1,59.9999981689454,14|0,0:3|0:0,0:0:0:0:
344,56,73349,6,0,B|280:32|232:96|168:72,2,179.999994506836,2|8|10,0:0|0:0|0:0,0:0:0:0:
304,160,75016,6,0,P|268:192|224:199,1,89.9999972534181,10|0,0:0|0:0,0:0:0:0:
119,163,75516,1,8,0:0:0:0:
28,268,76016,6,0,B|28:320|80:336|80:336|104:292|168:264|228:300|240:352,1,299.999990844727,14|8,0:0|0:0,0:0:0:0:
336,336,77016,2,0,P|368:328|392:312,1,59.9999981689454
472,268,77349,6,0,B|472:304|472:304|492:328|484:356,2,89.9999972534181,8|2|8,0:0|0:0|0:0,0:0:0:0:
424,192,78016,2,0,B|424:156|424:156|404:132|412:104,2,89.9999972534181,8|2|8,0:0|0:0|0:0,0:0:0:0:
336,208,78683,6,0,B|276:160|276:160|276:100|232:72,1,179.999994506836,10|6,0:0|0:0,0:0:0:0:
184,148,79349,1,0,0:0:0:0:
100,128,79516,2,0,P|72:148|56:176,1,59.9999981689454,6|0,0:0|0:0,0:0:0:0:
40,252,79849,1,0,0:0:0:0:
40,252,80183,5,0,0:0:0:0:
100,328,80349,1,14,0:0:0:0:
192,352,80516,1,0,0:0:0:0:
284,340,80683,2,0,P|320:328|372:328,2,89.9999972534181,8|2|8,0:0|0:0|0:0,0:0:0:0:
256,192,81349,12,10,83349,0:0:0:0:
292,136,84016,6,0,P|260:152|228:152,1,59.9999981689454,6|0,0:0|0:0,0:0:0:0:
156,124,84349,2,0,P|128:104|100:96,1,59.9999981689454
28,128,84683,2,0,B|20:176|20:176|40:208|20:248,1,119.999996337891,2|8,0:0|0:0,0:0:0:0:
112,328,85349,6,0,B|156:332|156:332|188:312|228:316,1,119.999996337891,2|8,0:0|0:0,0:0:0:0:
316,344,85849,1,0,0:0:0:0:
404,340,86016,2,0,L|424:304,3,29.9999990844727,8|8|8|8,0:0|0:0|0:0|0:0,0:0:0:0:
424,268,86349,2,0,L|428:228,3,29.9999990844727,8|8|8|8,0:0|0:0|0:0|0:0,0:0:0:0:
416,192,86683,1,14,0:0:0:0:
256,192,86766,12,2,88016,0:0:0:0:
140,104,88683,6,0,B|184:92|184:92|204:56|252:48,1,119.999996337891,14|0,0:0|0:0,0:0:0:0:
268,144,89183,2,0,L|284:172,1,29.9999990844727
312,200,89349,1,14,0:0:0:0:
256,192,89516,12,0,91933,0:0:0:0:
