osu file format v14

[General]
AudioFilename: Rainbow Night Sky Highway.mp3
AudioLeadIn: 0
PreviewTime: 88511
Countdown: 0
SampleSet: Normal
StackLeniency: 0.7
Mode: 0
LetterboxInBreaks: 0
WidescreenStoryboard: 0

[Editor]
DistanceSpacing: 1.6
BeatDivisor: 2
GridSize: 4
TimelineZoom: 1

[Metadata]
Title:Rainbow Night Sky Highway
TitleUnicode:Rainbow Night Sky Highway
Artist:sakuzyo
ArtistUnicode:削除
Creator:Foreverends
Version:Insane
Source:Cytus
Tags:tellertheworld happy623 Kenterz cytus chapter 7 vii loom efry Jazz'n'Bass plugout plugout4 dnb -Teina-
BeatmapID:371334
BeatmapSetID:150497

[Difficulty]
HPDrainRate:7
CircleSize:4
OverallDifficulty:7
ApproachRate:9.3
SliderMultiplier:1.8
SliderTickRate:2

[Events]
//Background and Video events
0,0,"sky.jpg",0,0
//Break Periods
//Storyboard Layer 0 (Background)
//Storyboard Layer 1 (Fail)
//Storyboard Layer 2 (Pass)
//Storyboard Layer 3 (Foreground)
//Storyboard Layer 4 (Overlay)
//Storyboard Sound Samples

[TimingPoints]
1635,344.748333716387,4,2,1,80,1,0
3013,-100,4,2,0,80,0,0
3531,-100,4,2,1,80,0,0
4392,-100,4,2,0,80,0,0
5082,-66.6666666666667,4,2,1,80,0,0
5427,-66.6666666666667,4,2,6,80,0,0
5771,-100,4,2,1,80,0,0
8529,-100,4,3,1,40,0,0
9736,-100,4,2,0,80,0,0
11287,-100,4,2,2,80,0,0
12322,-133.333333333333,4,2,1,80,0,0
12580,-100,4,2,1,80,0,0
12666,-100,4,2,2,80,0,0
12839,-100,4,2,1,80,0,0
32662,-133.333333333333,4,2,1,80,0,0
32920,-100,4,2,1,80,0,0
33351,-100,4,2,0,80,0,0
33868,-200,4,2,1,80,0,0
34730,-100,4,2,1,80,0,0
60759,-100,4,2,2,80,0,0
61017,-100,4,2,1,80,0,0
66275,-200,4,2,1,80,0,0
67826,-200,4,2,0,80,0,0
67848,344.748333716387,4,2,1,80,1,0
67848,-200,4,1,1,80,0,1
68020,-83.3333333333333,4,1,1,80,0,1
83361,-50,4,1,1,80,0,1
83706,-83.3333333333333,4,1,1,80,0,1
88532,-83.3333333333333,4,1,1,80,0,0
88618,-83.3333333333333,4,1,1,80,0,1
89911,-100,4,1,1,80,0,0
100943,-100,4,2,2,80,0,0
101116,-100,4,1,1,80,0,0

[Colours]
Combo1 : 150,45,255
Combo2 : 255,47,47
Combo3 : 251,251,0
Combo4 : 128,255,0
Combo5 : 62,158,255

[HitObjects]
44,148,1635,6,0,B|104:164|104:164|152:124,1,90,2|0,0:0|0:0,0:0:0:0:
200,68,1979,1,2,0:0:0:0:
316,196,2152,2,0,B|256:212|256:212|208:172,2,90,0|2|0,0:0|0:0|0:0,0:0:0:0:
416,260,2669,1,0,0:0:0:0:
348,356,2841,2,2,L|368:376,1,22.5,8|0,0:0|0:0,0:0:0:0:
264,304,3013,5,2,0:0:0:0:
176,352,3186,1,0,0:0:0:0:
28,264,3358,5,0,0:0:0:0:
132,284,3531,2,0,B|128:248|128:248|136:216|136:216|120:120,1,135,8|0,0:0|0:0,0:0:0:0:
200,60,3875,2,0,L|252:76,1,45
336,136,4048,2,0,P|378:142|424:92,1,90
400,92,4306,1,0,0:0:0:0:
384,68,4392,5,2,0:0:0:0:
248,152,4565,1,0,0:0:0:0:
396,196,4737,5,2,0:0:0:0:
300,280,4910,1,0,0:0:0:0:
404,336,5082,5,0,0:0:0:0:
320,368,5254,2,2,B|288:388|288:388|216:376,1,67.5000025749208,0|0,0:0|0:0,0:0:0:0:
192,304,5427,2,2,B|180:264|180:264|220:140,1,135.000005149842,6|0,0:0|0:0,0:0:0:0:
180,92,5685,1,2,0:0:0:0:
180,92,5771,5,0,0:0:0:0:
56,44,5944,1,0,0:0:0:0:
180,92,6116,2,0,L|280:60,1,90,8|0,0:0|0:0,0:0:0:0:
56,44,6461,1,0,0:0:0:0:
68,184,6633,6,0,L|36:348,1,135,8|8,0:0|0:0,0:0:0:0:
252,360,7150,6,0,L|208:252,1,90
360,144,7495,1,0,0:0:0:0:
412,240,7668,2,0,P|408:288|378:323,1,90
272,220,8012,2,0,L|256:184,4,22.5
148,288,8357,1,8,0:0:0:0:
140,320,8443,1,0,0:0:0:0:
132,352,8529,6,0,L|212:340,1,78.75,2|2,0:0|0:0,0:0:0:0:
356,216,8874,1,2,0:0:0:0:
400,296,8960,6,0,B|476:312,1,60,2|2,0:0|0:0,0:0:0:0:
272,220,9190,6,0,L|244:152,1,60,8|8,0:0|0:0,0:0:0:0:
424,152,9391,6,0,L|452:92,1,56.25,8|0,0:0|0:0,0:0:0:0:
348,44,9564,1,0,0:0:0:0:
356,68,9650,1,0,0:0:0:0:
364,92,9736,1,2,0:0:0:0:
160,148,9908,5,0,0:0:0:0:
256,192,9995,12,0,11115,0:0:0:0:
160,148,11287,5,2,0:0:0:0:
352,228,11632,1,2,0:0:0:0:
188,352,11977,5,2,0:0:0:0:
352,228,12149,1,8,0:0:0:0:
160,148,12322,6,0,L|48:172,1,101.250003862381,8|0,0:0|0:0,0:0:0:0:
24,40,12666,6,0,L|124:72,1,90,6|0,0:0|0:0,0:0:0:0:
244,16,13011,1,8,0:0:0:0:
312,144,13184,2,0,L|372:128,1,45,2|0,0:0|0:0,0:0:0:0:
352,228,13356,2,0,P|309:238|240:200,1,90,0|0,0:0|0:0,0:0:0:0:
172,356,13701,1,10,0:0:0:0:
300,316,13873,5,0,0:0:0:0:
320,328,13959,1,0,0:0:0:0:
340,340,14045,1,0,0:0:0:0:
172,356,14218,1,0,0:0:0:0:
136,228,14390,2,0,L|24:260,1,90,8|0,0:0|0:0,0:0:0:0:
36,136,14649,2,0,L|56:84,1,45,8|0,0:0|0:0,0:0:0:0:
176,48,14821,2,0,L|192:90,1,45
288,232,15080,1,8,0:0:0:0:
136,228,15252,5,0,0:0:0:0:
136,228,15338,1,0,0:0:0:0:
136,228,15424,1,2,0:0:0:0:
248,300,15597,1,0,0:0:0:0:
128,360,15769,1,8,0:0:0:0:
312,372,15942,6,0,L|372:356,1,45,2|0,0:0|0:0,0:0:0:0:
432,268,16114,2,0,L|448:152,1,90,0|0,0:0|0:0,0:0:0:0:
476,360,16459,1,10,0:0:0:0:
336,280,16631,1,0,0:0:0:0:
312,372,16803,5,0,0:0:0:0:
252,232,16976,1,0,0:0:0:0:
156,352,17148,1,8,0:0:0:0:
32,260,17321,5,0,0:0:0:0:
164,188,17493,1,0,0:0:0:0:
156,352,17665,5,0,0:0:0:0:
116,260,17838,1,8,0:0:0:0:
76,168,18010,1,0,0:0:0:0:
188,52,18182,5,2,0:0:0:0:
240,204,18355,2,0,P|272:232|332:216,1,90,0|8,0:0|0:0,0:0:0:0:
416,124,18700,1,2,0:0:0:0:
396,112,18786,1,8,0:0:0:0:
376,100,18872,1,0,0:0:0:0:
356,88,18958,1,0,0:0:0:0:
336,76,19044,1,0,0:0:0:0:
224,124,19217,1,10,0:0:0:0:
120,52,19389,1,0,0:0:0:0:
140,228,19561,5,0,0:0:0:0:
204,120,19734,1,0,0:0:0:0:
100,52,19906,1,8,0:0:0:0:
32,156,20079,2,0,L|48:224,1,45
116,280,20251,2,0,L|100:336,1,45,8|8,0:0|0:0,0:0:0:0:
32,384,20423,1,0,0:0:0:0:
188,336,20596,1,8,0:0:0:0:
40,336,20768,5,0,0:0:0:0:
32,300,20854,1,0,0:0:0:0:
24,264,20940,1,2,0:0:0:0:
164,180,21113,1,0,0:0:0:0:
188,336,21285,2,0,P|249:359|296:324,1,90,8|2,0:0|0:0,0:0:0:0:
352,316,21544,2,0,L|376:264,1,45,0|8,0:0|0:0,0:0:0:0:
344,176,21716,2,0,L|368:124,1,45
144,20,21975,2,0,L|184:124,1,90,10|0,0:0|0:0,0:0:0:0:
136,260,22319,5,0,0:0:0:0:
64,316,22492,1,0,0:0:0:0:
8,244,22664,1,8,0:0:0:0:
80,188,22837,1,0,0:0:0:0:
208,328,23009,5,0,0:0:0:0:
344,360,23181,1,0,0:0:0:0:
444,272,23354,1,8,0:0:0:0:
444,272,23698,5,2,0:0:0:0:
288,156,23871,1,0,0:0:0:0:
412,160,24043,1,8,0:0:0:0:
244,252,24216,1,2,0:0:0:0:
236,264,24302,1,0,0:0:0:0:
228,276,24388,2,0,P|188:304|120:284,1,90,0|0,0:0|0:0,0:0:0:0:
84,76,24733,2,0,L|184:100,1,90,10|0,0:0|0:0,0:0:0:0:
356,44,25077,5,0,0:0:0:0:
248,24,25250,1,0,0:0:0:0:
280,128,25422,1,8,0:0:0:0:
456,88,25595,1,0,0:0:0:0:
456,88,25681,1,0,0:0:0:0:
456,88,25767,1,0,0:0:0:0:
456,88,25853,1,8,0:0:0:0:
456,88,25939,6,0,P|449:128|428:160,1,45
384,204,26112,2,0,P|396:256|456:300,1,90,8|0,0:0|0:0,0:0:0:0:
418,283,26370,1,0,0:0:0:0:
418,283,26456,5,2,0:0:0:0:
280,340,26629,1,0,0:0:0:0:
408,372,26801,1,8,0:0:0:0:
312,256,26974,2,0,P|288:252|236:264,1,45,2|0,0:0|0:0,0:0:0:0:
184,352,27146,2,0,P|160:360|120:336,1,45
72,256,27318,2,0,P|100:200|144:184,2,90,0|10|0,0:0|0:0|0:0,0:0:0:0:
160,276,27835,5,0,0:0:0:0:
208,128,28008,1,0,0:0:0:0:
64,76,28180,1,8,0:0:0:0:
212,44,28352,1,0,0:0:0:0:
244,52,28439,1,0,0:0:0:0:
276,60,28525,5,0,0:0:0:0:
412,12,28697,1,0,0:0:0:0:
320,180,28870,1,8,0:0:0:0:
456,132,29042,2,0,L|448:204,1,45
384,252,29214,6,0,P|397:304|440:340,1,90,2|0,0:0|0:0,0:0:0:0:
308,344,29559,2,0,L|192:328,1,90,8|2,0:0|0:0,0:0:0:0:
92,336,29818,2,0,P|123:345|148:344,1,45
164,220,29990,2,0,P|136:208|100:212,1,45
64,96,30249,1,10,0:0:0:0:
156,136,30421,1,0,0:0:0:0:
336,116,30593,5,0,0:0:0:0:
244,76,30766,1,0,0:0:0:0:
436,96,30938,5,8,0:0:0:0:
360,236,31110,1,0,0:0:0:0:
368,256,31197,1,0,0:0:0:0:
376,276,31283,1,0,0:0:0:0:
384,296,31369,1,0,0:0:0:0:
392,316,31455,1,0,0:0:0:0:
224,372,31628,1,8,0:0:0:0:
172,220,31800,1,8,0:0:0:0:
68,344,31972,5,0,0:0:0:0:
68,344,32059,1,8,0:0:0:0:
172,220,32231,5,8,0:0:0:0:
224,372,32403,5,8,0:0:0:0:
224,372,32489,1,0,0:0:0:0:
172,220,32662,6,0,L|196:96,1,101.250003862381
224,24,33007,2,0,L|260:68,1,45,8|8,0:0|0:0,0:0:0:0:
328,140,33179,2,8,L|392:124,1,45,8|8,0:0|0:0,0:0:0:0:
440,56,33351,5,2,0:0:0:0:
424,224,33524,1,0,0:0:0:0:
460,144,33696,1,0,0:0:0:0:
440,312,33868,2,0,P|484:360|512:356,1,90,8|0,0:0|0:0,0:0:0:0:
316,348,34386,2,0,L|212:368,1,90,0|2,0:0|0:0,0:0:0:0:
80,236,34903,5,0,0:0:0:0:
176,276,35075,1,8,0:0:0:0:
64,140,35247,1,0,0:0:0:0:
64,140,35334,1,0,0:0:0:0:
64,140,35420,1,0,0:0:0:0:
248,204,35592,5,0,0:0:0:0:
136,68,35765,1,8,0:0:0:0:
228,108,35937,1,0,0:0:0:0:
400,44,36109,6,0,P|356:20|288:36,1,90
348,192,36454,1,8,0:0:0:0:
468,140,36626,2,0,P|504:156|524:180,1,45
472,320,36799,2,0,P|456:288|456:256,1,45
348,192,36971,2,0,P|348:240|292:288,1,90,0|8,0:0|0:0,0:0:0:0:
104,248,37316,1,0,0:0:0:0:
264,208,37488,5,0,0:0:0:0:
140,332,37661,1,0,0:0:0:0:
188,168,37833,1,8,0:0:0:0:
300,296,38005,1,0,0:0:0:0:
316,312,38092,1,0,0:0:0:0:
336,320,38178,1,0,0:0:0:0:
360,320,38264,1,0,0:0:0:0:
380,312,38350,1,0,0:0:0:0:
460,124,38523,1,8,0:0:0:0:
348,192,38695,6,0,P|312:194|280:176,1,45
220,40,38867,2,0,P|248:20|332:44,2,90,0|0|8,0:0|0:0|0:0,0:0:0:0:
144,192,39384,6,0,L|168:252,1,45
32,336,39557,2,0,L|48:220,2,90,0|0|8,0:0|0:0|0:0,0:0:0:0:
200,372,40074,5,0,0:0:0:0:
220,360,40160,1,0,0:0:0:0:
240,348,40246,1,0,0:0:0:0:
440,372,40419,1,0,0:0:0:0:
352,276,40591,1,8,0:0:0:0:
388,136,40763,2,0,L|456:168,1,45
248,100,40936,2,0,L|180:132,1,45,0|0,0:0|0:0,0:0:0:0:
212,236,41108,2,0,P|168:268|104:256,1,90,0|8,0:0|0:0,0:0:0:0:
72,72,41453,5,0,0:0:0:0:
84,96,41539,1,0,0:0:0:0:
96,120,41625,1,0,0:0:0:0:
60,224,41798,1,0,0:0:0:0:
128,360,41970,1,8,0:0:0:0:
272,304,42142,1,0,0:0:0:0:
296,312,42229,1,0,0:0:0:0:
320,320,42315,1,8,0:0:0:0:
452,240,42487,1,0,0:0:0:0:
392,372,42660,1,8,0:0:0:0:
376,192,42832,6,0,L|380:132,1,45
296,40,43004,1,0,0:0:0:0:
220,132,43177,1,0,0:0:0:0:
108,96,43349,1,8,0:0:0:0:
72,208,43521,2,0,P|84:236|108:256,1,45
184,352,43694,2,0,P|197:337|208:296,1,45,8|0,0:0|0:0,0:0:0:0:
292,176,43866,2,0,L|308:296,1,90,0|8,0:0|0:0,0:0:0:0:
392,372,44211,5,0,0:0:0:0:
456,204,44383,1,0,0:0:0:0:
384,272,44556,1,0,0:0:0:0:
476,312,44728,1,8,0:0:0:0:
300,344,44900,5,0,0:0:0:0:
276,332,44987,1,0,0:0:0:0:
252,320,45073,1,0,0:0:0:0:
144,360,45245,5,2,0:0:0:0:
236,216,45418,1,8,0:0:0:0:
80,280,45590,1,10,0:0:0:0:
228,108,45762,5,0,0:0:0:0:
128,172,45935,1,0,0:0:0:0:
68,72,46107,1,8,0:0:0:0:
168,8,46279,1,0,0:0:0:0:
164,16,46366,1,0,0:0:0:0:
160,24,46452,1,0,0:0:0:0:
156,32,46538,1,0,0:0:0:0:
152,40,46624,1,0,0:0:0:0:
308,120,46797,1,8,0:0:0:0:
296,12,46969,1,0,0:0:0:0:
152,120,47141,6,0,P|116:164|76:168,1,90
136,296,47486,1,8,0:0:0:0:
224,160,47658,2,0,L|248:208,1,45
292,276,47831,2,0,L|320:336,1,45,8|0,0:0|0:0,0:0:0:0:
428,344,48003,2,0,P|452:296|420:232,2,90,0|8|0,0:0|0:0|0:0,0:0:0:0:
360,192,48520,6,0,P|408:152|456:156,1,90
512,184,48865,1,8,0:0:0:0:
428,344,49037,1,0,0:0:0:0:
404,352,49124,1,0,0:0:0:0:
380,360,49210,1,8,0:0:0:0:
356,344,49296,1,0,0:0:0:0:
336,324,49382,1,0,0:0:0:0:
472,268,49555,5,8,0:0:0:0:
360,192,49727,1,0,0:0:0:0:
504,92,49899,1,0,0:0:0:0:
472,268,50072,1,0,0:0:0:0:
396,84,50244,2,0,P|351:68|300:92,1,90,8|0,0:0|0:0,0:0:0:0:
248,252,50589,5,0,0:0:0:0:
44,196,50761,1,0,0:0:0:0:
124,112,50934,1,8,0:0:0:0:
148,228,51106,2,0,L|112:300,1,45,0|0,0:0|0:0,0:0:0:0:
200,360,51278,6,0,P|256:372|304:348,1,90,0|0,0:0|0:0,0:0:0:0:
384,188,51623,1,8,0:0:0:0:
364,328,51795,1,0,0:0:0:0:
364,328,51882,1,0,0:0:0:0:
364,328,51968,1,0,0:0:0:0:
248,156,52140,5,0,0:0:0:0:
140,240,52313,1,8,0:0:0:0:
132,104,52485,1,0,0:0:0:0:
248,156,52657,6,0,P|296:168|332:140,1,90
360,52,53002,1,8,0:0:0:0:
196,28,53174,2,0,L|216:96,1,45
152,196,53347,2,0,L|136:256,1,45
188,340,53519,1,0,0:0:0:0:
356,272,53691,1,8,0:0:0:0:
292,360,53864,5,0,0:0:0:0:
252,244,54036,1,0,0:0:0:0:
448,308,54209,5,0,0:0:0:0:
408,192,54381,1,8,0:0:0:0:
292,360,54553,2,0,B|204:384|204:384|104:336,1,180
80,168,55070,1,8,0:0:0:0:
100,256,55243,1,0,0:0:0:0:
24,332,55415,5,0,0:0:0:0:
188,256,55588,1,8,0:0:0:0:
12,228,55760,1,0,0:0:0:0:
12,228,56105,5,8,0:0:0:0:
188,256,56449,5,0,0:0:0:0:
12,228,56622,1,8,0:0:0:0:
140,348,56794,5,0,0:0:0:0:
316,316,56967,5,12,0:0:0:0:
40,148,57484,5,12,0:0:0:0:
356,224,58001,5,12,0:0:0:0:
184,272,58173,5,0,0:0:0:0:
144,172,58346,1,2,0:0:0:0:
244,132,58518,1,8,0:0:0:0:
280,232,58690,1,2,0:0:0:0:
444,288,58863,5,2,0:0:0:0:
352,144,59035,1,0,0:0:0:0:
492,48,59207,2,0,L|488:156,1,90,8|0,0:0|0:0,0:0:0:0:
444,288,59552,5,6,0:0:0:0:
220,344,59725,5,14,0:0:0:0:
420,192,60069,5,12,0:0:0:0:
196,256,60414,6,4,L|164:248,4,22.5,4|4|4|4|4,0:0|0:0|0:0|0:0|0:0,0:0:0:0:
320,360,60759,6,0,B|360:368|360:368|412:356|412:356|484:372,1,135,4|0,0:0|0:0,0:0:0:0:
452,364,61104,1,0,0:0:0:0:
452,364,61190,1,0,0:0:0:0:
452,364,61276,1,8,0:0:0:0:
420,192,61448,1,0,0:0:0:0:
384,288,61621,5,0,0:0:0:0:
240,192,61793,1,0,0:0:0:0:
296,108,61965,1,8,0:0:0:0:
284,288,62138,1,0,0:0:0:0:
112,340,62310,5,6,0:0:0:0:
332,364,62483,5,12,0:0:0:0:
92,244,62827,1,0,0:0:0:0:
92,244,62914,1,0,0:0:0:0:
92,244,63000,5,12,0:0:0:0:
388,204,63517,6,4,L|400:176,4,22.5,4|4|4|4|4,0:0|0:0|0:0|0:0|0:0,0:0:0:0:
232,340,63862,1,0,0:0:0:0:
224,316,63948,1,0,0:0:0:0:
216,292,64034,1,8,0:0:0:0:
240,116,64206,1,0,0:0:0:0:
308,216,64379,5,0,0:0:0:0:
148,192,64551,1,8,0:0:0:0:
288,192,64723,1,0,0:0:0:0:
128,168,64896,1,8,0:0:0:0:
36,340,65068,5,0,0:0:0:0:
200,316,65241,1,8,0:0:0:0:
56,368,65413,1,0,0:0:0:0:
188,272,65585,1,8,0:0:0:0:
348,348,65758,5,8,0:0:0:0:
372,164,65930,1,0,0:0:0:0:
376,328,66102,1,0,0:0:0:0:
332,144,66275,6,0,P|313:84|336:72,2,90,2|2|2,0:0|0:0|0:0,0:0:0:0:
432,252,67137,2,0,L|488:268,1,45
300,284,67481,2,0,L|208:340,1,90,0|2,0:0|2:2,0:0:0:0:
64,228,68020,5,0,0:0:0:0:
120,320,68192,1,0,0:0:0:0:
116,136,68365,1,0,0:0:0:0:
116,136,68451,1,0,0:0:0:0:
116,136,68537,5,8,0:0:0:0:
288,200,68709,1,0,0:0:0:0:
172,60,68882,1,8,0:0:0:0:
208,240,69054,1,0,0:0:0:0:
204,268,69140,1,8,0:0:0:0:
200,296,69226,5,0,0:0:0:0:
376,344,69399,1,8,0:0:0:0:
196,380,69571,1,0,0:0:0:0:
340,268,69744,2,0,L|416:236,1,53.9999983520508
444,160,69916,2,0,B|452:120|452:120|448:92|448:92|460:12,1,107.999996704102,8|2,0:0|0:0,0:0:0:0:
440,32,70175,1,8,0:0:0:0:
424,12,70261,1,2,0:0:0:0:
276,104,70433,1,8,0:0:0:0:
352,260,70605,5,2,0:0:0:0:
204,348,70778,2,0,L|120:336,1,53.9999983520508,0|8,0:0|0:0,0:0:0:0:
92,224,70950,6,0,L|108:264,5,26.9999991760254,2|2|2|2|2|2,0:0|0:0|0:0|0:0|0:0|0:0,0:0:0:0:
112,128,71209,2,0,P|130:108|144:72,1,53.9999983520508,2|2,0:0|0:0,0:0:0:0:
280,24,71467,5,8,0:0:0:0:
240,180,71640,1,8,0:0:0:0:
248,204,71726,1,8,0:0:0:0:
256,228,71812,1,8,0:0:0:0:
264,252,71898,1,8,0:0:0:0:
268,296,71984,5,2,0:0:0:0:
300,328,72071,1,8,0:0:0:0:
436,204,72243,5,0,0:0:0:0:
408,192,72329,1,2,0:0:0:0:
356,16,72502,1,8,0:0:0:0:
468,76,72674,5,0,0:0:0:0:
292,120,72846,2,0,L|228:108,1,53.9999983520508,2|0,0:0|0:0,0:0:0:0:
88,304,73019,2,0,L|200:276,1,107.999996704102,8|0,0:0|0:0,0:0:0:0:
124,136,73277,2,0,L|56:120,1,53.9999983520508,8|0,0:0|0:0,0:0:0:0:
200,200,73536,5,2,0:0:0:0:
200,200,73622,1,2,0:0:0:0:
80,40,73794,5,8,0:0:0:0:
80,40,73881,1,8,0:0:0:0:
32,144,74053,5,0,0:0:0:0:
212,80,74225,1,8,0:0:0:0:
100,224,74398,1,8,0:0:0:0:
240,344,74570,1,0,0:0:0:0:
240,344,74656,1,8,0:0:0:0:
240,344,74742,6,0,P|274:342|312:320,1,53.9999983520508,2|2,0:0|0:0,0:0:0:0:
424,236,74915,2,8,L|364:224,1,53.9999983520508
268,128,75087,2,0,P|255:100|252:48,1,53.9999983520508,2|8,0:0|0:0,0:0:0:0:
432,20,75260,2,0,P|426:46|415:70,1,53.9999983520508
348,120,75432,5,0,0:0:0:0:
356,152,75518,1,0,0:0:0:0:
376,180,75604,1,8,0:0:0:0:
196,280,75777,5,0,0:0:0:0:
204,248,75863,1,0,0:0:0:0:
212,216,75949,1,8,0:0:0:0:
96,76,76121,6,0,P|86:96|60:120,1,53.9999983520508
12,216,76294,2,0,P|13:246|40:284,1,53.9999983520508
96,360,76466,2,0,P|128:348|180:356,1,53.9999983520508
248,356,76639,5,0,0:0:0:0:
280,364,76725,1,0,0:0:0:0:
312,360,76811,1,8,0:0:0:0:
124,236,76983,1,8,0:0:0:0:
328,264,77156,5,8,0:0:0:0:
352,236,77242,1,8,0:0:0:0:
356,200,77328,1,8,0:0:0:0:
340,168,77414,1,8,0:0:0:0:
304,152,77500,5,0,0:0:0:0:
268,164,77587,1,8,0:0:0:0:
244,192,77673,1,0,0:0:0:0:
208,196,77759,1,0,0:0:0:0:
176,184,77845,1,8,0:0:0:0:
76,60,78018,5,0,0:0:0:0:
104,36,78104,1,0,0:0:0:0:
144,32,78190,6,0,B|172:44|172:44|228:28,1,53.9999983520508,8|8,0:0|0:0,0:0:0:0:
288,84,78362,2,0,B|340:68|340:68|424:104,1,107.999996704102,0|8,0:0|0:0,0:0:0:0:
424,100,78621,5,0,0:0:0:0:
460,92,78707,1,0,0:0:0:0:
484,64,78793,1,8,0:0:0:0:
480,28,78879,5,4,0:0:0:0:
468,168,79052,1,4,0:0:0:0:
456,300,79224,1,4,0:0:0:0:
456,300,79569,6,0,L|496:352,1,53.9999983520508,8|0,0:0|0:0,0:0:0:0:
360,228,79914,5,8,0:0:0:0:
320,208,80000,1,8,0:0:0:0:
276,216,80086,1,8,0:0:0:0:
252,252,80172,1,8,0:0:0:0:
260,296,80258,1,2,0:0:0:0:
100,344,80431,5,8,0:0:0:0:
120,312,80517,1,2,0:0:0:0:
120,276,80603,1,2,0:0:0:0:
104,240,80689,1,2,0:0:0:0:
80,212,80776,1,2,0:0:0:0:
72,176,80862,1,2,0:0:0:0:
92,144,80948,1,8,0:0:0:0:
240,16,81120,6,0,B|232:32|232:32|231:42|231:42|216:88,1,53.9999983520508,0|8,0:0|0:0,0:0:0:0:
292,172,81293,2,0,P|340:208|404:172,1,107.999996704102,0|8,0:0|0:0,0:0:0:0:
320,348,81637,5,0,0:0:0:0:
304,312,81724,1,0,0:0:0:0:
272,296,81810,1,0,0:0:0:0:
232,300,81896,1,8,0:0:0:0:
212,332,81982,6,0,L|224:372,5,26.9999991760254,0|0|0|0|0|0,0:0|0:0|0:0|0:0|0:0|0:0,0:0:0:0:
172,328,82241,2,0,L|156:288,1,26.9999991760254
96,236,82499,5,8,0:0:0:0:
208,148,82672,1,8,0:0:0:0:
232,180,82758,1,0,0:0:0:0:
268,188,82844,1,0,0:0:0:0:
304,172,82930,2,0,P|333:156|380:160,1,53.9999983520508,2|2,0:0|0:0,0:0:0:0:
464,332,83189,6,0,P|435:348|388:344,1,53.9999983520508,8|0,0:0|0:0,0:0:0:0:
344,292,83361,6,0,B|300:288|300:288|248:332,1,90
196,368,83534,1,8,0:0:0:0:
20,344,83706,5,2,0:0:0:0:
96,236,83878,2,0,L|104:272,4,26.9999991760254,0|0|0|0|8,0:0|0:0|0:0|0:0|0:0,0:0:0:0:
172,92,84223,1,0,0:0:0:0:
180,128,84309,1,8,0:0:0:0:
188,164,84395,6,0,P|216:192|272:192,1,53.9999983520508,2|0,0:0|0:0,0:0:0:0:
336,196,84568,2,0,P|364:168|364:112,1,53.9999983520508,2|0,0:0|0:0,0:0:0:0:
348,56,84740,1,0,0:0:0:0:
324,24,84826,1,0,0:0:0:0:
288,16,84913,2,0,P|252:32|196:24,1,53.9999983520508,8|0,0:0|0:0,0:0:0:0:
128,24,85085,5,0,0:0:0:0:
84,16,85171,1,8,0:0:0:0:
44,36,85257,1,8,0:0:0:0:
24,76,85343,1,8,0:0:0:0:
32,120,85430,5,8,0:0:0:0:
68,144,85516,1,8,0:0:0:0:
84,184,85602,1,8,0:0:0:0:
68,224,85688,1,8,0:0:0:0:
32,244,85774,5,0,0:0:0:0:
20,264,85861,1,2,0:0:0:0:
16,284,85947,1,8,0:0:0:0:
20,304,86033,1,8,0:0:0:0:
52,344,86119,6,0,P|67:353|120:348,1,53.9999983520508,2|8,0:0|0:0,0:0:0:0:
176,256,86292,2,0,P|191:246|244:252,1,53.9999983520508,2|2,0:0|0:0,0:0:0:0:
312,344,86464,6,0,B|364:364|364:364|424:344,1,107.999996704102,2|8,0:0|0:0,0:0:0:0:
432,324,86722,1,0,0:0:0:0:
440,296,86809,5,8,0:0:0:0:
432,260,86895,1,0,0:0:0:0:
400,236,86981,1,8,0:0:0:0:
364,232,87067,1,0,0:0:0:0:
332,248,87153,1,2,0:0:0:0:
256,104,87326,1,2,0:0:0:0:
184,308,87498,5,8,0:0:0:0:
156,324,87584,1,0,0:0:0:0:
124,328,87671,1,0,0:0:0:0:
96,316,87757,1,8,0:0:0:0:
80,288,87843,1,0,0:0:0:0:
50,118,88015,5,8,0:0:0:0:
80,88,88101,1,0,0:0:0:0:
120,88,88188,2,0,P|136:124|130:163,1,53.9999983520508,8|8,0:0|0:0,0:0:0:0:
260,64,88360,2,0,P|244:28|250:-11,1,53.9999983520508,8|8,0:0|0:0,0:0:0:0:
420,4,88532,5,0,0:0:0:0:
416,32,88619,1,2,0:0:0:0:
412,60,88705,1,2,0:0:0:0:
408,92,88791,1,2,0:0:0:0:
368,120,88877,5,2,0:0:0:0:
368,168,88963,1,2,0:0:0:0:
400,204,89050,1,2,0:0:0:0:
448,204,89136,1,2,0:0:0:0:
492,184,89222,6,0,L|468:276,1,53.9999983520508,2|2,0:0|0:0,0:0:0:0:
352,352,89394,2,0,L|336:292,1,53.9999983520508,2|2,0:0|0:0,0:0:0:0:
216,184,89567,2,8,P|216:216|188:272,1,53.9999983520508,8|8,0:0|0:0,0:0:0:0:
80,332,89739,2,0,P|64:304|64:272,1,53.9999983520508,8|8,0:0|0:0,0:0:0:0:
80,168,89911,5,2,0:0:0:0:
204,48,90084,1,0,0:0:0:0:
40,96,90256,1,8,0:0:0:0:
40,96,90601,5,0,0:0:0:0:
132,240,90773,1,2,0:0:0:0:
8,360,90946,1,8,0:0:0:0:
112,328,91118,1,0,0:0:0:0:
208,376,91290,5,2,0:0:0:0:
352,268,91463,1,0,0:0:0:0:
192,184,91635,1,8,0:0:0:0:
208,376,91808,1,0,0:0:0:0:
208,376,91894,1,8,0:0:0:0:
208,376,91980,1,0,0:0:0:0:
384,348,92152,5,2,0:0:0:0:
236,248,92325,1,8,0:0:0:0:
392,156,92497,1,0,0:0:0:0:
384,348,92669,5,2,0:0:0:0:
308,140,92842,1,2,0:0:0:0:
160,292,93014,1,8,0:0:0:0:
352,268,93187,6,0,P|378:251|424:252,1,45,0|8,0:0|0:0,0:0:0:0:
308,140,93359,2,0,P|305:115|292:84,1,56.25,0|8,0:0|0:0,0:0:0:0:
236,248,93531,2,0,P|192:272|136:236,1,90,0|8,0:0|0:0,0:0:0:0:
68,136,93876,1,0,0:0:0:0:
196,52,94048,6,0,L|180:184,1,90,2|0,0:0|0:0,0:0:0:0:
84,256,94393,1,8,0:0:0:0:
192,364,94565,1,0,0:0:0:0:
192,364,94652,1,8,0:0:0:0:
192,364,94738,5,2,0:0:0:0:
340,324,94910,1,2,0:0:0:0:
304,176,95083,1,8,0:0:0:0:
160,228,95255,1,2,0:0:0:0:
340,324,95427,6,0,L|436:292,1,90,2|0,0:0|0:0,0:0:0:0:
500,336,95772,1,8,0:0:0:0:
400,212,95944,1,0,0:0:0:0:
408,184,96031,1,8,0:0:0:0:
416,156,96117,1,0,0:0:0:0:
424,132,96203,1,0,0:0:0:0:
432,104,96289,1,2,0:0:0:0:
312,144,96462,1,8,0:0:0:0:
408,8,96634,1,0,0:0:0:0:
284,56,96806,6,0,L|168:40,1,90
108,128,97151,5,8,0:0:0:0:
188,212,97323,1,0,0:0:0:0:
196,244,97410,1,0,0:0:0:0:
188,276,97496,1,0,0:0:0:0:
116,344,97668,1,2,0:0:0:0:
272,312,97841,1,8,0:0:0:0:
116,344,98013,1,0,0:0:0:0:
336,368,98185,6,0,P|380:380|440:340,1,90,2|2,0:0|0:0,0:0:0:0:
432,160,98530,1,8,0:0:0:0:
368,228,98702,2,0,L|380:308,1,45,0|8,0:0|0:0,0:0:0:0:
256,224,98875,2,0,L|272:120,1,90,0|2,0:0|0:0,0:0:0:0:
116,40,99220,1,8,0:0:0:0:
176,128,99392,1,0,0:0:0:0:
92,196,99564,6,0,P|32:198|-8:148,1,90
156,288,99909,1,8,0:0:0:0:
256,224,100081,1,0,0:0:0:0:
280,212,100168,1,8,0:0:0:0:
308,216,100254,1,0,0:0:0:0:
332,228,100340,1,8,0:0:0:0:
344,252,100426,1,0,0:0:0:0:
316,356,100599,1,8,0:0:0:0:
156,288,100771,1,8,0:0:0:0:
224,132,100943,6,0,P|240:100|224:32,1,90,6|0,0:0|0:0,0:0:0:0:
144,12,101288,1,8,0:0:0:0:
128,160,101460,1,0,0:0:0:0:
116,192,101547,2,0,P|88:212|16:184,1,90,8|8,0:0|0:0,0:0:0:0:
8,196,101805,1,2,0:0:0:0:
60,324,101978,1,8,0:0:0:0:
196,284,102150,1,0,0:0:0:0:
360,240,102322,5,2,0:0:0:0:
240,204,102495,1,0,0:0:0:0:
208,324,102667,1,8,0:0:0:0:
328,356,102839,2,0,L|424:336,1,90,0|8,0:0|0:0,0:0:0:0:
416,152,103184,1,2,0:0:0:0:
360,240,103357,6,0,P|336:255|288:252,1,45,8|8,0:0|0:0,0:0:0:0:
240,204,103529,2,0,P|224:188|224:148,1,45,8|8,0:0|0:0,0:0:0:0:
248,72,103701,5,2,0:0:0:0:
500,128,103874,5,12,0:0:0:0:
176,140,104391,5,12,0:0:0:0:
312,328,104736,6,0,L|380:348,1,45
456,260,104908,2,0,B|416:248|416:248|364:260|364:260|312:244,1,135,8|8,0:0|0:0,0:0:0:0:
272,176,105253,2,0,L|260:120,2,45,2|0|8,0:0|0:0|0:0,0:0:0:0:
232,352,105597,5,0,0:0:0:0:
204,368,105684,1,8,0:0:0:0:
172,368,105770,1,2,0:0:0:0:
72,240,105942,1,2,0:0:0:0:
232,252,106115,5,8,0:0:0:0:
280,268,106201,1,8,0:0:0:0:
328,252,106287,1,8,0:0:0:0:
356,212,106373,1,8,0:0:0:0:
356,164,106459,5,4,0:0:0:0:
164,60,106804,1,4,0:0:0:0:
368,80,107149,5,4,0:0:0:0:
152,144,107494,1,0,0:0:0:0:
400,288,107838,5,0,0:0:0:0:
112,232,108183,1,0,0:0:0:0:
392,204,108528,5,0,0:0:0:0:
120,316,108873,1,2,0:0:0:0:
268,348,109045,1,0,0:0:0:0:
344,208,109217,5,2,0:0:0:0:
176,296,109390,1,2,0:0:0:0:
352,296,109562,1,2,0:0:0:0:
168,216,109734,1,2,0:0:0:0:
340,120,109907,5,2,0:0:0:0:
372,96,109993,1,2,0:0:0:0:
404,72,110079,1,2,0:0:0:0:
436,48,110165,1,2,0:0:0:0:
400,28,110252,6,0,L|336:12,1,45
260,120,110424,2,0,P|228:136|208:136,1,45
128,44,110596,2,0,P|99:26|28:48,1,90,6|0,0:0|0:0,0:0:0:0:
0,116,110941,1,2,0:0:0:0:
44,192,111113,5,0,0:0:0:0:
256,360,111458,1,0,0:0:0:0:
468,192,111803,1,0,0:0:0:0:
448,196,111889,1,0,0:0:0:0:
424,200,111975,5,4,0:0:0:0:
