osu file format v14

[General]
AudioFilename: audio.mp3
AudioLeadIn: 0
PreviewTime: 89882
Countdown: 0
SampleSet: None
StackLeniency: 0.7
Mode: 3
LetterboxInBreaks: 0
SpecialStyle: 0
WidescreenStoryboard: 1

[Editor]
Bookmarks: 12641,22469,22986,32900,38848,51434,56779,67813,84365,85744,100917,111951
DistanceSpacing: 0.5
BeatDivisor: 4
GridSize: 32
TimelineZoom: 1.6

[Metadata]
Title:Rainbow Night Sky Highway
TitleUnicode:Rainbow Night Sky Highway
Artist:sakuzyo
ArtistUnicode:削除
Creator:Asherz007
Version:jk's Hard
Source:Cytus
Tags:chapter 7 vii efry jazz'n'bass bms identity7 plugout4 dnb Raveille jkkd SoldatRacer Fallen Blossom
BeatmapID:1480628
BeatmapSetID:699171

[Difficulty]
HPDrainRate:8
CircleSize:4
OverallDifficulty:8
ApproachRate:5
SliderMultiplier:1.4
SliderTickRate:1

[Events]
//Background and Video events
0,0,"rnsh_alt.jpg",0,0
//Break Periods
//Storyboard Layer 0 (Background)
//Storyboard Layer 1 (Fail)
//Storyboard Layer 2 (Pass)
//Storyboard Layer 3 (Foreground)
//Storyboard Sound Samples

[TimingPoints]
1607,344.827586206897,4,3,1,80,1,0
89882,-100,4,3,1,80,0,1
111951,-100,4,3,1,80,0,0

[HitObjects]
192,192,1607,5,4,0:0:0:0:
448,192,1607,1,0,0:0:0:0:
64,192,1779,1,0,0:0:0:0:
192,192,1865,1,0,0:0:0:0:
448,192,1951,1,0,0:0:0:0:
320,192,2296,1,0,0:0:0:0:
64,192,2425,1,0,0:0:0:0:
192,192,2641,1,0,0:0:0:0:
320,192,2770,1,8,0:0:0:65:
64,192,2900,1,8,0:0:0:65:
320,192,3115,1,0,0:0:0:0:
64,192,3503,1,2,0:0:0:40:
192,192,3503,1,0,0:0:0:0:
192,192,4020,1,0,0:0:0:0:
448,192,4193,1,0,0:0:0:0:
64,192,4365,1,2,0:0:0:0:
320,192,4365,1,0,0:0:0:0:
192,192,4538,1,0,0:0:0:0:
320,192,5227,128,0,5572:0:0:0:0:
448,192,5227,128,0,5572:0:0:0:0:
64,192,5572,1,8,0:0:0:33:
192,192,5658,1,8,0:0:0:33:
448,192,6089,1,8,0:0:0:0:
64,192,6290,1,2,0:0:0:0:
192,192,6290,1,0,0:0:0:0:
448,192,6434,1,0,0:0:0:0:
192,192,6549,1,2,0:0:0:0:
320,192,6549,1,0,0:0:0:0:
320,192,6865,1,2,0:0:0:0:
448,192,6865,1,0,0:0:0:0:
64,192,7124,128,0,8331:0:0:0:0:
192,192,7900,1,0,0:0:0:0:
448,192,8331,1,8,0:0:0:33:
320,192,8417,1,8,0:0:0:33:
64,192,8503,1,8,0:0:0:60:
192,192,8503,1,0,0:0:0:0:
320,192,8618,1,8,0:0:0:60:
448,192,8618,1,0,0:0:0:0:
64,192,8819,1,2,0:0:0:30:
448,192,8934,1,2,0:0:0:34:
192,192,9020,1,2,0:0:0:38:
320,192,9135,1,2,0:0:0:42:
64,192,9250,1,2,0:0:0:46:
320,192,9451,1,2,0:0:0:50:
64,192,9710,1,2,0:0:0:0:
192,192,9710,1,0,0:0:0:0:
448,192,9882,128,0,11262:0:0:0:0:
64,192,10400,1,0,0:0:0:0:
320,192,10831,1,0,0:0:0:0:
64,192,11262,1,2,0:0:0:45:
64,192,11607,1,2,0:0:0:33:
64,192,11951,1,2,0:0:0:33:
320,192,12124,1,2,0:0:0:0:
448,192,12124,1,0,0:0:0:0:
64,192,12296,1,8,0:0:0:0:
192,192,12296,1,0,0:0:0:0:
448,192,12296,1,0,0:0:0:0:
64,192,12641,1,2,0:0:0:0:
320,192,12641,1,4,0:0:0:0:
192,192,12813,1,2,0:0:0:0:
320,192,12986,1,8,0:0:0:0:
448,192,12986,1,0,0:0:0:0:
64,192,13158,1,0,0:0:0:0:
192,192,13244,1,0,0:0:0:0:
320,192,13331,1,0,0:0:0:0:
192,192,13503,1,2,0:0:0:0:
448,192,13503,1,0,0:0:0:0:
64,192,13675,1,8,0:0:0:0:
320,192,13675,1,0,0:0:0:0:
192,192,13848,1,0,0:0:0:0:
320,192,14020,1,2,0:0:0:0:
448,192,14020,1,0,0:0:0:0:
64,192,14193,1,2,0:0:0:0:
192,192,14365,1,8,0:0:0:0:
448,192,14365,1,0,0:0:0:0:
64,192,14538,1,0,0:0:0:0:
448,192,14624,1,0,0:0:0:0:
320,192,14710,1,0,0:0:0:0:
64,192,14882,1,2,0:0:0:0:
192,192,14882,1,0,0:0:0:0:
320,192,15055,1,8,0:0:0:0:
448,192,15055,1,0,0:0:0:0:
192,192,15227,1,0,0:0:0:0:
64,192,15400,1,2,0:0:0:0:
448,192,15400,1,0,0:0:0:0:
320,192,15572,1,2,0:0:0:0:
64,192,15744,1,8,0:0:0:0:
192,192,15744,1,0,0:0:0:0:
320,192,15917,1,0,0:0:0:0:
448,192,16003,1,0,0:0:0:0:
192,192,16089,1,0,0:0:0:0:
64,192,16262,1,2,0:0:0:0:
320,192,16262,1,0,0:0:0:0:
192,192,16434,1,8,0:0:0:0:
448,192,16434,1,0,0:0:0:0:
320,192,16607,1,0,0:0:0:0:
64,192,16779,1,2,0:0:0:0:
192,192,16779,1,0,0:0:0:0:
320,192,16951,1,2,0:0:0:0:
448,192,16951,1,0,0:0:0:0:
64,192,17124,128,8,17296:0:0:0:0:
192,192,17124,1,0,0:0:0:0:
448,192,17296,128,0,17469:0:0:0:0:
64,192,17469,128,2,17641:0:0:0:0:
320,192,17641,128,2,17813:0:0:0:0:
192,192,17813,128,8,17986:0:0:0:0:
448,192,17986,128,0,18158:0:0:0:0:
64,192,18158,1,2,0:0:0:0:
320,192,18158,1,0,0:0:0:0:
192,192,18331,1,2,0:0:0:0:
320,192,18503,1,8,0:0:0:0:
448,192,18503,1,0,0:0:0:0:
64,192,18675,1,0,0:0:0:0:
192,192,18762,1,0,0:0:0:0:
448,192,18848,1,0,0:0:0:0:
64,192,19020,1,2,0:0:0:0:
320,192,19020,1,0,0:0:0:0:
192,192,19193,1,8,0:0:0:0:
448,192,19193,1,0,0:0:0:0:
320,192,19365,1,0,0:0:0:0:
64,192,19538,1,2,0:0:0:0:
192,192,19538,1,0,0:0:0:0:
320,192,19710,1,2,0:0:0:0:
448,192,19710,1,0,0:0:0:0:
64,192,19882,128,8,20227:0:0:0:0:
320,192,20227,128,0,20400:0:0:0:0:
448,192,20400,128,2,20572:0:0:0:0:
192,192,20572,128,8,20744:0:0:0:0:
320,192,20744,128,0,20917:0:0:0:0:
64,192,20917,1,2,0:0:0:0:
448,192,20917,1,0,0:0:0:0:
192,192,21089,1,2,0:0:0:0:
320,192,21262,1,8,0:0:0:0:
448,192,21262,1,0,0:0:0:0:
64,192,21434,1,0,0:0:0:0:
192,192,21520,1,0,0:0:0:0:
320,192,21607,1,0,0:0:0:0:
192,192,21779,1,2,0:0:0:0:
448,192,21779,1,0,0:0:0:0:
64,192,21951,1,8,0:0:0:0:
320,192,21951,1,0,0:0:0:0:
192,192,22124,1,0,0:0:0:0:
448,192,22124,128,0,22296:0:0:0:0:
320,192,22296,128,2,22469:0:0:0:0:
64,192,22469,128,2,22641:0:0:0:0:
448,192,22641,128,8,22813:0:0:0:0:
192,192,22813,128,0,23158:0:0:0:0:
320,192,22986,1,2,0:0:0:0:
64,192,23158,1,2,0:0:0:0:
320,192,23331,128,8,23503:0:0:0:0:
448,192,23503,1,0,0:0:0:0:
64,192,23675,1,2,0:0:0:0:
192,192,23675,1,0,0:0:0:0:
320,192,23848,1,2,0:0:0:0:
192,192,24020,1,8,0:0:0:0:
448,192,24020,1,0,0:0:0:0:
64,192,24193,1,0,0:0:0:0:
448,192,24279,1,0,0:0:0:0:
320,192,24365,1,0,0:0:0:0:
64,192,24538,1,2,0:0:0:0:
192,192,24538,1,0,0:0:0:0:
320,192,24710,1,8,0:0:0:0:
448,192,24710,1,0,0:0:0:0:
192,192,24882,1,0,0:0:0:0:
64,192,25055,1,2,0:0:0:0:
320,192,25055,1,0,0:0:0:0:
448,192,25227,1,2,0:0:0:0:
64,192,25400,1,8,0:0:0:0:
192,192,25400,1,0,0:0:0:0:
448,192,25572,1,0,0:0:0:0:
320,192,25658,1,0,0:0:0:0:
64,192,25744,1,0,0:0:0:0:
192,192,25917,1,2,0:0:0:0:
448,192,25917,1,0,0:0:0:0:
64,192,26089,1,8,0:0:0:0:
320,192,26089,1,0,0:0:0:0:
192,192,26262,1,0,0:0:0:0:
320,192,26434,1,2,0:0:0:0:
448,192,26434,1,0,0:0:0:0:
64,192,26607,1,2,0:0:0:0:
192,192,26779,1,8,0:0:0:0:
448,192,26779,1,0,0:0:0:0:
320,192,26951,1,0,0:0:0:0:
64,192,27038,1,0,0:0:0:0:
448,192,27124,1,0,0:0:0:0:
64,192,27296,1,2,0:0:0:0:
192,192,27296,1,0,0:0:0:0:
320,192,27469,1,8,0:0:0:0:
448,192,27469,1,0,0:0:0:0:
192,192,27641,1,0,0:0:0:0:
64,192,27813,1,2,0:0:0:0:
320,192,27813,1,0,0:0:0:0:
192,192,27986,1,2,0:0:0:0:
448,192,27986,1,0,0:0:0:0:
64,192,28158,1,8,0:0:0:0:
320,192,28158,128,0,28331:0:0:0:0:
448,192,28331,128,0,28503:0:0:0:0:
64,192,28503,128,2,28675:0:0:0:0:
320,192,28675,128,2,28848:0:0:0:0:
192,192,28848,128,8,29020:0:0:0:0:
448,192,29020,128,0,29193:0:0:0:0:
64,192,29193,1,2,0:0:0:0:
320,192,29193,1,0,0:0:0:0:
192,192,29365,1,2,0:0:0:0:
320,192,29538,1,8,0:0:0:0:
448,192,29538,1,0,0:0:0:0:
64,192,29710,1,0,0:0:0:0:
192,192,29796,1,0,0:0:0:0:
320,192,29882,1,0,0:0:0:0:
192,192,30055,1,2,0:0:0:0:
448,192,30055,1,0,0:0:0:0:
64,192,30227,1,8,0:0:0:0:
320,192,30227,1,0,0:0:0:0:
192,192,30400,1,0,0:0:0:0:
320,192,30572,1,2,0:0:0:0:
448,192,30572,1,0,0:0:0:0:
64,192,30744,1,2,0:0:0:0:
192,192,30744,1,0,0:0:0:0:
448,192,30917,128,8,31262:0:0:0:0:
64,192,31262,128,0,31434:0:0:0:0:
192,192,31434,128,2,31607:0:0:0:0:
448,192,31607,128,8,31779:0:0:0:0:
320,192,31779,128,8,31951:0:0:0:0:
64,192,31951,1,2,0:0:0:0:
192,192,31951,1,0,0:0:0:0:
320,192,32038,1,8,0:0:0:0:
448,192,32038,1,0,0:0:0:0:
320,192,32210,1,8,0:0:0:0:
448,192,32210,1,0,0:0:0:0:
192,192,32469,1,2,0:0:0:0:
448,192,32469,1,0,0:0:0:0:
64,192,32641,1,8,0:0:0:0:
320,192,32641,1,0,0:0:0:0:
192,192,32813,1,2,0:0:0:0:
64,192,32986,1,8,0:0:0:0:
448,192,32986,128,0,33331:0:0:0:0:
320,192,33158,128,8,33331:0:0:0:0:
64,192,33331,128,2,33503:0:0:0:0:
192,192,33503,128,0,33675:0:0:0:0:
448,192,33675,128,0,33848:0:0:0:0:
320,192,33848,128,0,34193:0:0:0:0:
64,192,34193,128,0,34365:0:0:0:0:
448,192,34365,128,0,34710:0:0:0:0:
64,192,34710,1,2,0:0:0:0:
320,192,34710,1,4,0:0:0:0:
192,192,34882,1,2,0:0:0:0:
320,192,35055,1,8,0:0:0:0:
448,192,35055,1,0,0:0:0:0:
64,192,35227,1,0,0:0:0:0:
192,192,35313,1,0,0:0:0:0:
320,192,35400,1,0,0:0:0:0:
192,192,35572,1,2,0:0:0:0:
448,192,35572,1,0,0:0:0:0:
64,192,35744,1,8,0:0:0:0:
320,192,35744,1,0,0:0:0:0:
192,192,35917,1,0,0:0:0:0:
320,192,36089,1,2,0:0:0:0:
448,192,36089,1,0,0:0:0:0:
64,192,36262,1,2,0:0:0:0:
192,192,36434,1,8,0:0:0:0:
448,192,36434,1,0,0:0:0:0:
320,192,36607,1,0,0:0:0:0:
192,192,36693,1,0,0:0:0:0:
448,192,36779,1,0,0:0:0:0:
64,192,36951,1,2,0:0:0:0:
192,192,36951,1,0,0:0:0:0:
320,192,37124,1,8,0:0:0:0:
448,192,37124,1,0,0:0:0:0:
192,192,37296,1,0,0:0:0:0:
64,192,37469,1,2,0:0:0:0:
320,192,37469,1,0,0:0:0:0:
448,192,37641,1,2,0:0:0:0:
192,192,37813,1,8,0:0:0:0:
320,192,37813,1,0,0:0:0:0:
64,192,37986,1,0,0:0:0:0:
192,192,38072,1,0,0:0:0:0:
320,192,38158,1,0,0:0:0:0:
192,192,38331,1,2,0:0:0:0:
448,192,38331,1,0,0:0:0:0:
64,192,38503,1,8,0:0:0:0:
320,192,38503,1,0,0:0:0:0:
192,192,38675,1,0,0:0:0:0:
320,192,38848,1,2,0:0:0:0:
448,192,38848,1,0,0:0:0:0:
320,192,39020,1,2,0:0:0:0:
448,192,39020,1,0,0:0:0:0:
64,192,39193,1,8,0:0:0:0:
192,192,39193,1,0,0:0:0:0:
320,192,39365,1,0,0:0:0:0:
192,192,39538,1,2,0:0:0:0:
448,192,39538,1,0,0:0:0:0:
192,192,39710,1,2,0:0:0:0:
448,192,39710,1,0,0:0:0:0:
64,192,39882,1,8,0:0:0:0:
320,192,39882,1,0,0:0:0:0:
192,192,40055,1,0,0:0:0:0:
320,192,40227,1,2,0:0:0:0:
448,192,40227,1,0,0:0:0:0:
64,192,40400,1,2,0:0:0:0:
192,192,40572,1,8,0:0:0:0:
448,192,40572,1,0,0:0:0:0:
320,192,40744,1,0,0:0:0:0:
192,192,40831,1,0,0:0:0:0:
448,192,40917,1,0,0:0:0:0:
64,192,41089,1,2,0:0:0:0:
192,192,41089,1,0,0:0:0:0:
320,192,41262,1,8,0:0:0:0:
448,192,41262,1,0,0:0:0:0:
192,192,41434,1,0,0:0:0:0:
64,192,41607,1,2,0:0:0:0:
320,192,41607,1,0,0:0:0:0:
448,192,41779,1,2,0:0:0:0:
192,192,41951,1,8,0:0:0:0:
320,192,41951,1,0,0:0:0:0:
64,192,42124,1,0,0:0:0:0:
192,192,42210,1,0,0:0:0:0:
320,192,42296,1,0,0:0:0:0:
192,192,42469,1,2,0:0:0:0:
448,192,42469,1,0,0:0:0:0:
64,192,42641,1,8,0:0:0:0:
320,192,42641,1,0,0:0:0:0:
192,192,42813,1,0,0:0:0:0:
320,192,42986,1,2,0:0:0:0:
448,192,42986,1,0,0:0:0:0:
64,192,43158,1,2,0:0:0:0:
192,192,43331,1,8,0:0:0:0:
448,192,43331,1,0,0:0:0:0:
320,192,43503,1,0,0:0:0:0:
192,192,43589,1,0,0:0:0:0:
448,192,43675,1,0,0:0:0:0:
64,192,43848,1,2,0:0:0:0:
192,192,43848,1,0,0:0:0:0:
320,192,44020,1,8,0:0:0:0:
448,192,44020,1,0,0:0:0:0:
64,192,44193,1,0,0:0:0:0:
192,192,44365,1,2,0:0:0:0:
448,192,44365,1,0,0:0:0:0:
320,192,44538,1,2,0:0:0:0:
64,192,44710,1,8,0:0:0:0:
192,192,44710,1,0,0:0:0:0:
448,192,44882,1,0,0:0:0:0:
320,192,44969,1,0,0:0:0:0:
192,192,45055,1,0,0:0:0:0:
448,192,45227,1,2,0:0:0:0:
320,192,45227,1,0,0:0:0:0:
192,192,45400,1,8,0:0:0:0:
64,192,45400,1,0,0:0:0:0:
192,192,45572,1,8,0:0:0:0:
64,192,45572,1,0,0:0:0:0:
320,192,45744,1,2,0:0:0:0:
448,192,45744,1,0,0:0:0:0:
64,192,45917,1,2,0:0:0:0:
192,192,46089,1,8,0:0:0:0:
448,192,46089,1,0,0:0:0:0:
320,192,46262,1,0,0:0:0:0:
192,192,46348,1,0,0:0:0:0:
64,192,46434,1,0,0:0:0:0:
320,192,46607,1,2,0:0:0:0:
448,192,46607,1,0,0:0:0:0:
64,192,46779,1,8,0:0:0:0:
192,192,46779,1,0,0:0:0:0:
320,192,46951,1,0,0:0:0:0:
192,192,47124,1,2,0:0:0:0:
448,192,47124,1,0,0:0:0:0:
64,192,47296,1,2,0:0:0:0:
320,192,47469,1,8,0:0:0:0:
448,192,47469,1,0,0:0:0:0:
192,192,47641,1,0,0:0:0:0:
64,192,47727,1,0,0:0:0:0:
448,192,47813,1,0,0:0:0:0:
64,192,47986,1,2,0:0:0:0:
320,192,47986,1,0,0:0:0:0:
192,192,48158,1,8,0:0:0:0:
448,192,48158,1,0,0:0:0:0:
320,192,48331,1,0,0:0:0:0:
64,192,48503,1,2,0:0:0:0:
192,192,48503,1,0,0:0:0:0:
448,192,48675,1,2,0:0:0:0:
64,192,48848,1,8,0:0:0:0:
320,192,48848,1,0,0:0:0:0:
192,192,49020,1,0,0:0:0:0:
448,192,49107,1,0,0:0:0:0:
320,192,49193,1,0,0:0:0:0:
64,192,49365,1,2,0:0:0:0:
192,192,49365,1,0,0:0:0:0:
320,192,49538,1,8,0:0:0:0:
448,192,49538,1,0,0:0:0:0:
192,192,49710,1,0,0:0:0:0:
64,192,49882,1,2,0:0:0:0:
320,192,49882,1,0,0:0:0:0:
64,192,50055,1,2,0:0:0:0:
320,192,50055,1,0,0:0:0:0:
192,192,50227,1,8,0:0:0:0:
448,192,50227,1,0,0:0:0:0:
320,192,50400,1,0,0:0:0:0:
64,192,50572,1,2,0:0:0:0:
192,192,50572,1,0,0:0:0:0:
64,192,50744,1,2,0:0:0:0:
192,192,50744,1,0,0:0:0:0:
320,192,50917,1,8,0:0:0:0:
448,192,50917,1,0,0:0:0:0:
192,192,51089,1,0,0:0:0:0:
64,192,51262,1,2,0:0:0:0:
320,192,51262,1,0,0:0:0:0:
192,192,51434,1,2,0:0:0:0:
320,192,51607,1,8,0:0:0:0:
448,192,51607,1,0,0:0:0:0:
64,192,51779,1,0,0:0:0:0:
192,192,51865,1,0,0:0:0:0:
320,192,51951,1,0,0:0:0:0:
192,192,52124,1,2,0:0:0:0:
448,192,52124,1,0,0:0:0:0:
64,192,52296,1,8,0:0:0:0:
320,192,52296,1,0,0:0:0:0:
192,192,52469,1,0,0:0:0:0:
320,192,52641,1,2,0:0:0:0:
448,192,52641,1,0,0:0:0:0:
192,192,52813,1,2,0:0:0:0:
64,192,52986,1,8,0:0:0:0:
448,192,52986,1,0,0:0:0:0:
192,192,53158,1,0,0:0:0:0:
320,192,53244,1,0,0:0:0:0:
448,192,53331,1,0,0:0:0:0:
64,192,53503,1,2,0:0:0:0:
192,192,53503,1,0,0:0:0:0:
320,192,53675,1,8,0:0:0:0:
448,192,53675,1,0,0:0:0:0:
192,192,53848,1,0,0:0:0:0:
64,192,54020,1,2,0:0:0:0:
320,192,54020,1,0,0:0:0:0:
448,192,54193,1,2,0:0:0:0:
192,192,54365,1,8,0:0:0:0:
320,192,54365,1,0,0:0:0:0:
64,192,54538,1,0,0:0:0:0:
192,192,54624,1,0,0:0:0:0:
320,192,54710,1,0,0:0:0:0:
192,192,54882,1,2,0:0:0:0:
448,192,54882,1,0,0:0:0:0:
64,192,55055,1,8,0:0:0:0:
320,192,55055,1,0,0:0:0:0:
192,192,55227,1,0,0:0:0:0:
64,192,55400,1,2,0:0:0:0:
448,192,55400,128,0,56089:0:0:0:0:
320,192,55572,1,2,0:0:0:0:
192,192,55744,1,2,0:0:0:0:
64,192,56089,1,8,0:0:0:0:
320,192,56089,128,0,56779:0:0:0:0:
192,192,56434,1,2,0:0:0:0:
64,192,56607,1,8,0:0:0:0:
448,192,56607,1,0,0:0:0:0:
192,192,56779,1,2,0:0:0:0:
64,192,56951,128,8,57038:0:0:0:0:
320,192,56951,128,0,57038:0:0:0:0:
448,192,56951,128,0,57038:0:0:0:0:
64,192,57469,128,8,57555:0:0:0:0:
192,192,57469,128,0,57555:0:0:0:0:
448,192,57469,128,0,57555:0:0:0:0:
320,192,57986,1,0,0:0:0:0:
192,192,58158,1,2,0:0:0:0:
448,192,58158,1,0,0:0:0:0:
192,192,58331,1,2,0:0:0:0:
448,192,58331,1,0,0:0:0:0:
64,192,58503,1,8,0:0:0:0:
320,192,58503,1,0,0:0:0:0:
192,192,58675,1,0,0:0:0:0:
448,192,58848,1,0,0:0:0:0:
64,192,59020,1,2,0:0:0:0:
192,192,59020,1,0,0:0:0:0:
320,192,59193,1,8,0:0:0:0:
448,192,59193,1,0,0:0:0:0:
192,192,59365,1,0,0:0:0:0:
64,192,59538,1,2,0:0:0:0:
320,192,59538,1,0,0:0:0:0:
64,192,59710,128,8,59796:0:0:0:0:
192,192,59710,128,0,59796:0:0:0:0:
448,192,59710,128,0,59796:0:0:0:0:
192,192,60055,128,8,60141:0:0:0:0:
320,192,60055,128,0,60141:0:0:0:0:
448,192,60055,128,0,60141:0:0:0:0:
64,192,60400,1,8,0:0:0:40:
192,192,60443,1,8,0:0:0:40:
320,192,60486,1,8,0:0:0:40:
448,192,60529,1,8,0:0:0:40:
64,192,60744,1,2,0:0:0:0:
320,192,60744,1,0,0:0:0:0:
192,192,61089,1,2,0:0:0:0:
64,192,61175,1,2,0:0:0:0:
320,192,61262,1,8,0:0:0:0:
448,192,61262,1,0,0:0:0:0:
192,192,61434,1,0,0:0:0:0:
64,192,61607,1,2,0:0:0:0:
320,192,61607,1,0,0:0:0:0:
64,192,61779,1,2,0:0:0:0:
320,192,61779,1,0,0:0:0:0:
192,192,61951,1,8,0:0:0:0:
448,192,61951,1,0,0:0:0:0:
320,192,62124,1,0,0:0:0:0:
64,192,62296,1,2,0:0:0:0:
192,192,62296,1,0,0:0:0:0:
192,192,62469,128,8,62555:0:0:0:0:
320,192,62469,128,0,62555:0:0:0:0:
448,192,62469,128,0,62555:0:0:0:0:
64,192,62986,128,8,63072:0:0:0:0:
192,192,62986,128,0,63072:0:0:0:0:
448,192,62986,128,0,63072:0:0:0:0:
320,192,63503,1,8,0:0:0:40:
448,192,63546,1,8,0:0:0:40:
192,192,63589,1,8,0:0:0:40:
64,192,63632,1,8,0:0:0:40:
320,192,63848,1,2,0:0:0:0:
448,192,63934,1,2,0:0:0:0:
64,192,64020,1,8,0:0:0:0:
192,192,64020,1,0,0:0:0:0:
320,192,64193,1,0,0:0:0:0:
192,192,64279,1,0,0:0:0:0:
64,192,64365,1,0,0:0:0:0:
192,192,64538,1,2,0:0:0:0:
448,192,64538,1,0,0:0:0:0:
64,192,64710,1,8,0:0:0:0:
320,192,64710,1,0,0:0:0:0:
448,192,64882,1,0,0:0:0:0:
64,192,65055,1,2,0:0:0:0:
192,192,65055,1,0,0:0:0:0:
320,192,65227,1,2,0:0:0:0:
192,192,65400,1,8,0:0:0:0:
448,192,65400,1,0,0:0:0:0:
64,192,65572,1,0,0:0:0:0:
320,192,65744,1,8,0:0:0:0:
448,192,65744,1,0,0:0:0:0:
192,192,65917,1,0,0:0:0:0:
64,192,66089,1,2,0:0:0:0:
320,192,66089,1,0,0:0:0:0:
192,192,66262,1,8,0:0:0:0:
448,192,66262,128,0,66951:0:0:0:0:
320,192,66607,1,0,0:0:0:0:
64,192,66951,1,0,0:0:0:0:
192,192,66951,128,0,67813:0:0:0:0:
320,192,67813,1,2,0:0:0:0:
448,192,67813,1,0,0:0:0:0:
64,192,67986,1,2,0:0:0:0:
192,192,67986,1,0,0:0:0:0:
320,192,68158,1,2,0:0:0:0:
448,192,68158,1,0,0:0:0:0:
192,192,68331,1,2,0:0:0:40:
64,192,68417,1,0,0:0:0:0:
320,192,68503,1,8,0:0:0:0:
448,192,68503,1,0,0:0:0:0:
192,192,68675,1,0,0:0:0:0:
192,192,68848,1,8,0:0:0:0:
320,192,69020,1,2,0:0:0:0:
448,192,69020,1,0,0:0:0:0:
64,192,69107,1,8,0:0:0:0:
192,192,69107,1,0,0:0:0:0:
320,192,69193,1,2,0:0:0:0:
448,192,69193,1,0,0:0:0:0:
64,192,69365,1,8,0:0:0:0:
192,192,69451,1,0,0:0:0:0:
320,192,69538,1,2,0:0:0:0:
448,192,69538,1,0,0:0:0:0:
192,192,69710,1,2,0:0:0:0:
448,192,69796,1,2,0:0:0:0:
64,192,69882,1,8,0:0:0:0:
320,192,69882,1,0,0:0:0:0:
64,192,70227,1,2,0:0:0:0:
192,192,70227,1,0,0:0:0:0:
320,192,70400,1,8,0:0:0:0:
448,192,70400,1,0,0:0:0:0:
64,192,70572,1,2,0:0:0:0:
320,192,70572,1,0,0:0:0:0:
192,192,70744,1,2,0:0:0:0:
448,192,70744,1,0,0:0:0:0:
320,192,70831,1,8,0:0:0:0:
64,192,70917,128,2,71003:0:0:0:40:
192,192,71003,128,2,71089:0:0:0:40:
448,192,71089,128,2,71175:0:0:0:40:
320,192,71175,128,2,71262:0:0:0:40:
64,192,71262,1,2,0:0:0:40:
320,192,71434,1,8,0:0:0:0:
448,192,71434,1,0,0:0:0:0:
192,192,71607,1,0,0:0:0:0:
64,192,71693,1,0,0:0:0:0:
448,192,71779,1,0,0:0:0:0:
320,192,71865,1,0,0:0:0:0:
64,192,71951,1,2,0:0:0:0:
192,192,71951,1,0,0:0:0:0:
448,192,72038,1,8,0:0:0:0:
448,192,72210,1,8,0:0:0:0:
64,192,72296,1,2,0:0:0:0:
192,192,72296,1,0,0:0:0:0:
320,192,72469,1,8,0:0:0:0:
448,192,72469,1,0,0:0:0:0:
64,192,72641,1,2,0:0:0:0:
448,192,72813,1,2,0:0:0:40:
320,192,72857,1,2,0:0:0:40:
192,192,72900,1,2,0:0:0:40:
64,192,72943,1,2,0:0:0:40:
448,192,72986,1,8,0:0:0:0:
320,192,73158,1,0,0:0:0:0:
64,192,73331,1,2,0:0:0:0:
192,192,73331,1,0,0:0:0:0:
448,192,73503,1,2,0:0:0:0:
64,192,73589,1,2,0:0:0:0:
320,192,73589,1,0,0:0:0:0:
448,192,73848,128,8,74020:0:0:0:0:
64,192,74020,1,2,0:0:0:0:
192,192,74020,1,0,0:0:0:0:
320,192,74193,1,8,0:0:0:0:
448,192,74193,1,0,0:0:0:0:
64,192,74365,1,8,0:0:0:0:
192,192,74365,1,0,0:0:0:0:
320,192,74538,1,2,0:0:0:0:
448,192,74624,1,8,0:0:0:0:
64,192,74710,1,2,0:0:0:0:
192,192,74710,1,0,0:0:0:0:
320,192,74796,1,2,0:0:0:0:
192,192,74882,1,8,0:0:0:0:
448,192,74882,1,0,0:0:0:0:
64,192,74969,1,8,0:0:0:0:
320,192,75055,1,2,0:0:0:0:
448,192,75055,1,0,0:0:0:0:
192,192,75141,1,8,0:0:0:0:
64,192,75227,1,2,0:0:0:0:
320,192,75227,1,0,0:0:0:0:
448,192,75313,1,2,0:0:0:0:
320,192,75572,1,8,0:0:0:0:
448,192,75572,1,0,0:0:0:0:
192,192,75744,1,2,0:0:0:0:
64,192,75831,1,2,0:0:0:0:
320,192,75917,1,8,0:0:0:0:
448,192,75917,1,0,0:0:0:0:
64,192,76089,1,2,0:0:0:0:
192,192,76089,1,0,0:0:0:0:
320,192,76175,1,0,0:0:0:0:
448,192,76262,1,0,0:0:0:0:
64,192,76348,1,0,0:0:0:0:
320,192,76434,1,2,0:0:0:0:
448,192,76434,1,0,0:0:0:0:
192,192,76520,1,0,0:0:0:0:
64,192,76607,1,0,0:0:0:0:
448,192,76693,1,0,0:0:0:0:
64,192,76779,1,8,0:0:0:0:
320,192,76779,1,0,0:0:0:0:
64,192,76951,1,8,0:0:0:0:
320,192,76951,1,0,0:0:0:0:
448,192,77124,1,8,0:0:0:40:
320,192,77167,1,8,0:0:0:40:
64,192,77210,1,8,0:0:0:40:
192,192,77253,1,8,0:0:0:40:
448,192,77296,1,8,0:0:0:0:
320,192,77382,1,8,0:0:0:0:
64,192,77469,1,2,0:0:0:0:
192,192,77469,1,0,0:0:0:0:
448,192,77555,1,8,0:0:0:0:
64,192,77641,1,2,0:0:0:0:
192,192,77641,1,0,0:0:0:0:
320,192,77727,1,2,0:0:0:0:
448,192,77727,1,0,0:0:0:0:
192,192,77813,1,8,0:0:0:0:
320,192,77986,1,0,0:0:0:0:
448,192,78072,1,0,0:0:0:0:
64,192,78158,128,8,78331:0:0:0:0:
192,192,78331,1,2,0:0:0:0:
64,192,78503,1,8,0:0:0:0:
320,192,78503,1,0,0:0:0:0:
192,192,78675,1,2,0:0:0:0:
64,192,78762,1,8,0:0:0:0:
320,192,78848,1,2,0:0:0:0:
448,192,78848,1,4,0:0:0:0:
64,192,79020,1,2,0:0:0:0:
192,192,79020,1,0,0:0:0:0:
320,192,79193,1,2,0:0:0:0:
448,192,79193,1,0,0:0:0:0:
192,192,79538,128,8,79710:0:0:0:0:
448,192,79538,1,0,0:0:0:0:
64,192,79710,1,2,0:0:0:0:
320,192,79882,1,8,0:0:0:0:
448,192,79882,1,0,0:0:0:0:
192,192,79969,1,8,0:0:0:0:
192,192,80141,1,8,0:0:0:0:
320,192,80227,1,2,0:0:0:0:
448,192,80227,1,0,0:0:0:0:
64,192,80400,1,8,0:0:0:0:
192,192,80486,1,2,0:0:0:0:
448,192,80572,1,2,0:0:0:0:
320,192,80658,1,2,0:0:0:0:
64,192,80744,1,2,0:0:0:0:
192,192,80831,1,2,0:0:0:0:
320,192,80917,1,8,0:0:0:0:
448,192,80917,1,0,0:0:0:0:
64,192,81089,128,0,81262:0:0:0:0:
192,192,81262,1,2,0:0:0:0:
448,192,81262,1,0,0:0:0:0:
320,192,81434,1,8,0:0:0:0:
64,192,81607,1,2,0:0:0:0:
320,192,81693,1,2,0:0:0:0:
192,192,81779,1,2,0:0:0:0:
448,192,81865,1,8,0:0:0:0:
64,192,81951,128,2,82038:0:0:0:40:
192,192,82038,128,2,82124:0:0:0:40:
448,192,82124,128,2,82210:0:0:0:40:
320,192,82210,128,2,82296:0:0:0:40:
64,192,82296,1,2,0:0:0:40:
320,192,82469,1,8,0:0:0:0:
448,192,82469,1,0,0:0:0:0:
192,192,82641,1,0,0:0:0:0:
448,192,82813,1,2,0:0:0:0:
320,192,82900,1,2,0:0:0:0:
64,192,82986,1,2,0:0:0:0:
192,192,82986,1,0,0:0:0:0:
448,192,83158,1,8,0:0:0:0:
64,192,83244,1,8,0:0:0:0:
320,192,83244,1,0,0:0:0:0:
192,192,83503,1,8,0:0:0:0:
320,192,83675,1,2,0:0:0:0:
448,192,83675,1,0,0:0:0:0:
64,192,83848,1,2,0:0:0:40:
192,192,83891,1,2,0:0:0:40:
320,192,83934,1,2,0:0:0:40:
448,192,83977,1,2,0:0:0:40:
64,192,84020,1,8,0:0:0:0:
192,192,84365,1,2,0:0:0:0:
448,192,84365,1,0,0:0:0:0:
320,192,84538,1,2,0:0:0:0:
64,192,84624,1,2,0:0:0:0:
192,192,84624,1,0,0:0:0:0:
192,192,84882,128,8,85055:0:0:0:0:
448,192,84882,1,0,0:0:0:0:
64,192,85055,1,0,0:0:0:0:
320,192,85141,1,8,0:0:0:0:
448,192,85227,1,8,0:0:0:0:
64,192,85313,1,8,0:0:0:0:
320,192,85400,1,8,0:0:0:0:
192,192,85486,1,8,0:0:0:0:
448,192,85572,1,0,0:0:0:0:
192,192,85744,1,8,0:0:0:0:
64,192,85831,1,2,0:0:0:0:
320,192,85917,1,8,0:0:0:0:
192,192,86003,1,8,0:0:0:0:
448,192,86089,1,2,0:0:0:0:
320,192,86175,1,8,0:0:0:0:
64,192,86262,1,2,0:0:0:0:
192,192,86262,1,0,0:0:0:0:
320,192,86434,1,2,0:0:0:0:
448,192,86434,1,0,0:0:0:0:
64,192,86607,1,0,0:0:0:0:
192,192,86693,1,2,0:0:0:0:
320,192,86779,1,8,0:0:0:0:
448,192,86779,1,0,0:0:0:0:
64,192,86865,1,2,0:0:0:0:
320,192,86951,1,8,0:0:0:0:
448,192,86951,1,0,0:0:0:0:
64,192,87038,1,2,0:0:0:0:
192,192,87124,1,2,0:0:0:0:
448,192,87124,1,0,0:0:0:0:
192,192,87296,1,2,0:0:0:0:
448,192,87296,1,0,0:0:0:0:
64,192,87469,1,8,0:0:0:0:
320,192,87469,1,0,0:0:0:0:
192,192,87555,1,2,0:0:0:0:
448,192,87641,1,2,0:0:0:0:
64,192,87727,1,8,0:0:0:0:
192,192,87727,1,0,0:0:0:0:
320,192,87813,1,2,0:0:0:0:
64,192,87986,1,8,0:0:0:0:
192,192,87986,1,0,0:0:0:0:
448,192,88158,1,8,0:0:0:40:
320,192,88201,1,8,0:0:0:40:
192,192,88244,1,8,0:0:0:40:
64,192,88288,1,8,0:0:0:40:
192,192,88503,1,2,0:0:0:0:
320,192,88503,128,0,89193:0:0:0:0:
448,192,88503,1,0,0:0:0:0:
64,192,88848,1,2,0:0:0:0:
448,192,88848,128,0,89193:0:0:0:0:
192,192,89193,1,2,0:0:0:0:
64,192,89279,1,2,0:0:0:0:
448,192,89365,1,2,0:0:0:0:
320,192,89451,1,2,0:0:0:0:
192,192,89538,1,2,0:0:0:0:
64,192,89624,1,2,0:0:0:0:
448,192,89710,1,2,0:0:0:0:
320,192,89796,1,2,0:0:0:0:
64,192,89882,1,4,0:0:0:0:
192,192,89882,1,2,0:0:0:0:
320,192,90055,1,2,0:0:0:0:
192,192,90227,1,8,0:0:0:0:
448,192,90227,1,0,0:0:0:0:
64,192,90400,1,0,0:0:0:0:
320,192,90486,1,0,0:0:0:0:
192,192,90572,1,0,0:0:0:0:
320,192,90744,1,2,0:0:0:0:
448,192,90744,1,0,0:0:0:0:
64,192,90917,1,8,0:0:0:0:
192,192,90917,1,0,0:0:0:0:
448,192,91089,1,0,0:0:0:0:
64,192,91262,1,2,0:0:0:0:
320,192,91262,1,0,0:0:0:0:
192,192,91434,1,2,0:0:0:0:
320,192,91607,1,8,0:0:0:0:
448,192,91607,1,0,0:0:0:0:
64,192,91779,1,0,0:0:0:0:
192,192,91865,1,0,0:0:0:0:
320,192,91951,1,0,0:0:0:0:
192,192,92124,1,2,0:0:0:0:
448,192,92124,1,0,0:0:0:0:
64,192,92296,1,8,0:0:0:0:
320,192,92296,1,0,0:0:0:0:
192,192,92469,1,0,0:0:0:0:
320,192,92641,1,2,0:0:0:0:
448,192,92641,1,0,0:0:0:0:
64,192,92813,1,2,0:0:0:0:
192,192,92986,1,8,0:0:0:0:
448,192,92986,1,0,0:0:0:0:
320,192,93158,1,0,0:0:0:0:
192,192,93244,1,0,0:0:0:0:
448,192,93331,1,0,0:0:0:0:
64,192,93503,1,2,0:0:0:0:
192,192,93503,1,0,0:0:0:0:
320,192,93675,1,8,0:0:0:0:
448,192,93675,1,0,0:0:0:0:
64,192,93848,1,0,0:0:0:0:
192,192,94020,1,2,0:0:0:0:
448,192,94020,1,0,0:0:0:0:
192,192,94193,1,2,0:0:0:0:
448,192,94193,1,0,0:0:0:0:
64,192,94365,1,8,0:0:0:0:
320,192,94365,1,0,0:0:0:0:
192,192,94538,1,0,0:0:0:0:
320,192,94710,1,2,0:0:0:0:
448,192,94710,1,0,0:0:0:0:
320,192,94882,1,2,0:0:0:0:
448,192,94882,1,0,0:0:0:0:
64,192,95055,1,8,0:0:0:0:
192,192,95055,1,0,0:0:0:0:
448,192,95227,1,0,0:0:0:0:
64,192,95400,1,2,0:0:0:0:
320,192,95400,1,0,0:0:0:0:
192,192,95572,1,2,0:0:0:0:
320,192,95744,1,8,0:0:0:0:
448,192,95744,1,0,0:0:0:0:
192,192,95917,1,0,0:0:0:0:
64,192,96003,1,0,0:0:0:0:
320,192,96089,1,0,0:0:0:0:
192,192,96262,1,2,0:0:0:0:
448,192,96262,1,0,0:0:0:0:
64,192,96434,1,8,0:0:0:0:
320,192,96434,1,0,0:0:0:0:
192,192,96607,1,0,0:0:0:0:
320,192,96779,1,2,0:0:0:0:
448,192,96779,1,0,0:0:0:0:
64,192,96951,1,2,0:0:0:0:
192,192,97124,1,8,0:0:0:0:
320,192,97124,1,0,0:0:0:0:
448,192,97296,1,0,0:0:0:0:
64,192,97382,1,0,0:0:0:0:
192,192,97469,1,0,0:0:0:0:
320,192,97641,1,2,0:0:0:0:
448,192,97641,1,0,0:0:0:0:
64,192,97813,1,8,0:0:0:0:
192,192,97813,1,0,0:0:0:0:
448,192,97986,1,0,0:0:0:0:
64,192,98158,1,2,0:0:0:0:
320,192,98158,1,0,0:0:0:0:
192,192,98331,1,2,0:0:0:0:
320,192,98503,1,8,0:0:0:0:
448,192,98503,1,0,0:0:0:0:
64,192,98675,1,0,0:0:0:0:
192,192,98762,1,0,0:0:0:0:
448,192,98848,1,0,0:0:0:0:
64,192,99020,1,2,0:0:0:0:
320,192,99020,1,0,0:0:0:0:
192,192,99193,1,8,0:0:0:0:
448,192,99193,1,0,0:0:0:0:
320,192,99365,1,0,0:0:0:0:
64,192,99538,1,2,0:0:0:0:
192,192,99538,1,0,0:0:0:0:
448,192,99710,1,2,0:0:0:0:
64,192,99882,1,8,0:0:0:0:
320,192,99882,1,0,0:0:0:0:
192,192,100055,1,0,0:0:0:0:
448,192,100141,1,0,0:0:0:0:
320,192,100227,1,0,0:0:0:0:
64,192,100400,1,2,0:0:0:0:
192,192,100400,1,0,0:0:0:0:
320,192,100572,1,8,0:0:0:0:
448,192,100572,1,0,0:0:0:0:
320,192,100744,1,8,0:0:0:0:
448,192,100744,1,0,0:0:0:0:
64,192,100917,1,2,0:0:0:0:
192,192,100917,1,4,0:0:0:0:
320,192,101089,1,2,0:0:0:0:
192,192,101262,1,8,0:0:0:0:
448,192,101262,1,0,0:0:0:0:
64,192,101434,1,0,0:0:0:0:
448,192,101520,1,0,0:0:0:0:
320,192,101607,1,0,0:0:0:0:
64,192,101779,1,2,0:0:0:0:
192,192,101779,1,0,0:0:0:0:
320,192,101951,1,8,0:0:0:0:
448,192,101951,1,0,0:0:0:0:
192,192,102124,1,0,0:0:0:0:
64,192,102296,1,2,0:0:0:0:
320,192,102296,1,0,0:0:0:0:
448,192,102469,1,2,0:0:0:0:
64,192,102641,1,8,0:0:0:0:
192,192,102641,1,0,0:0:0:0:
320,192,102813,1,0,0:0:0:0:
192,192,102986,1,8,0:0:0:0:
448,192,102986,1,0,0:0:0:0:
64,192,103158,1,2,0:0:0:0:
320,192,103158,1,0,0:0:0:0:
448,192,103331,1,8,0:0:0:0:
320,192,103417,1,8,0:0:0:0:
64,192,103503,1,8,0:0:0:0:
192,192,103589,1,8,0:0:0:0:
320,192,103675,1,2,0:0:0:0:
448,192,103675,1,0,0:0:0:0:
64,192,103848,128,8,103934:0:0:0:0:
192,192,103848,128,0,103934:0:0:0:0:
320,192,103848,128,0,103934:0:0:0:0:
64,192,104365,128,8,104451:0:0:0:0:
320,192,104365,128,0,104451:0:0:0:0:
448,192,104365,128,0,104451:0:0:0:0:
64,192,104710,1,8,0:0:0:40:
192,192,104753,1,8,0:0:0:40:
448,192,104796,1,8,0:0:0:40:
320,192,104839,1,8,0:0:0:40:
64,192,104882,1,2,0:0:0:0:
192,192,104882,1,0,0:0:0:0:
192,192,105227,1,2,0:0:0:0:
64,192,105313,1,2,0:0:0:0:
320,192,105400,1,8,0:0:0:0:
448,192,105400,1,4,0:0:0:60:
192,192,105744,1,2,0:0:0:0:
448,192,105744,1,0,0:0:0:0:
192,192,105917,1,2,0:0:0:0:
448,192,105917,1,0,0:0:0:0:
320,192,106089,1,8,0:0:0:0:
64,192,106175,1,8,0:0:0:0:
448,192,106262,1,8,0:0:0:0:
192,192,106348,1,8,0:0:0:0:
320,192,106434,1,2,0:0:0:0:
448,192,106434,1,4,0:0:0:0:
64,192,106693,1,0,0:0:0:0:
192,192,106779,1,2,0:0:0:0:
448,192,106779,1,0,0:0:0:0:
320,192,107038,1,0,0:0:0:0:
64,192,107124,1,2,0:0:0:0:
192,192,107124,1,0,0:0:0:0:
448,192,107382,1,0,0:0:0:0:
64,192,107469,1,2,0:0:0:0:
320,192,107469,1,0,0:0:0:0:
192,192,107727,1,0,0:0:0:0:
320,192,107813,1,2,0:0:0:0:
448,192,107813,1,0,0:0:0:0:
64,192,108072,1,0,0:0:0:0:
192,192,108158,1,2,0:0:0:0:
448,192,108158,1,0,0:0:0:0:
320,192,108417,1,0,0:0:0:0:
64,192,108503,1,2,0:0:0:0:
192,192,108503,1,0,0:0:0:0:
448,192,108762,1,0,0:0:0:0:
64,192,108848,1,2,0:0:0:0:
320,192,108848,1,0,0:0:0:0:
192,192,109107,1,0,0:0:0:0:
320,192,109193,1,2,0:0:0:0:
448,192,109193,1,0,0:0:0:0:
64,192,109365,1,2,0:0:0:0:
320,192,109365,1,0,0:0:0:0:
192,192,109538,1,2,0:0:0:0:
448,192,109538,1,0,0:0:0:0:
64,192,109710,1,2,0:0:0:0:
192,192,109710,1,0,0:0:0:0:
320,192,109882,1,2,0:0:0:0:
448,192,109882,1,0,0:0:0:0:
192,192,109969,1,2,0:0:0:0:
64,192,110055,1,2,0:0:0:0:
448,192,110141,1,2,0:0:0:0:
192,192,110227,1,2,0:0:0:0:
320,192,110227,1,0,0:0:0:0:
64,192,110313,1,2,0:0:0:0:
448,192,110400,1,2,0:0:0:0:
320,192,110486,1,2,0:0:0:0:
64,192,110572,1,2,0:0:0:0:
192,192,110572,128,0,110917:0:0:0:0:
64,192,110917,128,2,111607:0:0:0:0:
320,192,110917,128,0,111262:0:0:0:0:
448,192,111262,128,0,111607:0:0:0:0:
320,192,111607,128,8,111951:0:0:0:0:
64,192,111951,1,4,0:0:0:0:
192,192,111951,1,2,0:0:0:0:
