osu file format v14

[General]
AudioFilename: audio.mp3
AudioLeadIn: 0
PreviewTime: 89882
Countdown: 0
SampleSet: None
StackLeniency: 0.7
Mode: 3
LetterboxInBreaks: 0
SpecialStyle: 0
WidescreenStoryboard: 1

[Editor]
DistanceSpacing: 0.5
BeatDivisor: 4
GridSize: 32
TimelineZoom: 0.9999998

[Metadata]
Title:Rainbow Night Sky Highway
TitleUnicode:Rainbow Night Sky Highway
Artist:sakuzyo
ArtistUnicode:削除
Creator:Asherz007
Version:Rave's Easy
Source:Cytus
Tags:chapter 7 vii efry jazz'n'bass bms identity7 plugout4 dnb Raveille jkkd SoldatRacer Fallen Blossom
BeatmapID:1480630
BeatmapSetID:699171

[Difficulty]
HPDrainRate:7
CircleSize:4
OverallDifficulty:7
ApproachRate:5
SliderMultiplier:1.4
SliderTickRate:1

[Events]
//Background and Video events
0,0,"rnsh_alt.jpg",0,0
//Break Periods
//Storyboard Layer 0 (Background)
//Storyboard Layer 1 (Fail)
//Storyboard Layer 2 (Pass)
//Storyboard Layer 3 (Foreground)
//Storyboard Sound Samples

[TimingPoints]
1607,344.827586206897,4,3,1,80,1,0
89882,-100,4,3,1,80,0,1
111951,-100,4,3,1,80,0,0

[HitObjects]
64,192,1607,128,4,2296:0:0:0:0:
320,192,2813,1,0,0:0:0:0:
192,192,2986,1,0,0:0:0:0:
448,192,3503,1,2,0:0:0:40:
320,192,4020,1,0,0:0:0:0:
64,192,4365,1,2,0:0:0:0:
320,192,5227,128,0,5572:0:0:0:0:
64,192,5572,128,8,5744:0:0:0:33:
448,192,6089,1,8,0:0:0:0:
64,192,6262,1,0,0:0:0:0:
320,192,6434,128,0,6779:0:0:0:0:
64,192,8331,128,8,8503:0:0:0:33:
320,192,8503,128,8,9710:0:0:0:60:
64,192,9710,1,2,0:0:0:0:
192,192,9882,1,0,0:0:0:0:
64,192,11262,1,2,0:0:0:45:
448,192,11607,1,2,0:0:0:33:
64,192,11951,1,2,0:0:0:33:
192,192,12124,1,2,0:0:0:0:
448,192,12296,1,8,0:0:0:0:
64,192,12296,1,0,0:0:0:0:
320,192,12641,1,6,0:0:0:0:
64,192,12813,1,2,0:0:0:0:
448,192,12986,1,8,0:0:0:0:
64,192,13503,1,2,0:0:0:0:
448,192,13675,1,8,0:0:0:0:
192,192,14020,1,2,0:0:0:0:
448,192,14193,1,2,0:0:0:0:
64,192,14365,1,8,0:0:0:0:
448,192,14882,1,2,0:0:0:0:
64,192,15055,1,8,0:0:0:0:
320,192,15400,1,2,0:0:0:0:
192,192,15572,1,2,0:0:0:0:
448,192,15744,1,8,0:0:0:0:
192,192,16262,1,2,0:0:0:0:
448,192,16434,1,8,0:0:0:0:
192,192,16779,1,2,0:0:0:0:
320,192,16951,1,2,0:0:0:0:
64,192,17124,1,8,0:0:0:0:
192,192,17296,1,0,0:0:0:0:
320,192,17469,1,2,0:0:0:0:
448,192,17641,1,2,0:0:0:0:
64,192,17813,1,8,0:0:0:0:
320,192,17986,1,0,0:0:0:0:
192,192,18158,1,2,0:0:0:0:
448,192,18331,1,2,0:0:0:0:
64,192,18503,1,8,0:0:0:0:
448,192,19020,1,2,0:0:0:0:
64,192,19193,1,8,0:0:0:0:
448,192,19538,1,2,0:0:0:0:
64,192,19710,1,2,0:0:0:0:
320,192,19882,1,8,0:0:0:0:
64,192,20400,1,2,0:0:0:0:
320,192,20572,1,8,0:0:0:0:
64,192,20917,1,2,0:0:0:0:
448,192,21089,1,2,0:0:0:0:
192,192,21262,1,8,0:0:0:0:
448,192,21779,1,2,0:0:0:0:
192,192,21951,1,8,0:0:0:0:
448,192,22296,1,2,0:0:0:0:
192,192,22469,1,2,0:0:0:0:
320,192,22641,1,8,0:0:0:0:
448,192,22813,1,0,0:0:0:0:
64,192,22986,1,2,0:0:0:0:
320,192,23158,1,2,0:0:0:0:
192,192,23331,1,8,0:0:0:0:
448,192,23675,1,2,0:0:0:0:
64,192,23848,1,2,0:0:0:0:
448,192,24020,1,8,0:0:0:0:
64,192,24538,1,2,0:0:0:0:
448,192,24710,1,8,0:0:0:0:
64,192,25055,1,2,0:0:0:0:
320,192,25227,1,2,0:0:0:0:
192,192,25400,1,8,0:0:0:0:
320,192,25917,1,2,0:0:0:0:
192,192,26089,1,8,0:0:0:0:
64,192,26434,1,2,0:0:0:0:
448,192,26607,1,2,0:0:0:0:
64,192,26779,1,8,0:0:0:0:
448,192,27296,1,2,0:0:0:0:
64,192,27469,1,8,0:0:0:0:
192,192,27813,1,2,0:0:0:0:
64,192,27986,1,2,0:0:0:0:
320,192,28158,1,8,0:0:0:0:
448,192,28331,1,0,0:0:0:0:
192,192,28503,1,2,0:0:0:0:
320,192,28675,1,2,0:0:0:0:
192,192,28848,1,8,0:0:0:0:
64,192,29020,1,0,0:0:0:0:
448,192,29193,1,2,0:0:0:0:
192,192,29365,1,2,0:0:0:0:
64,192,29538,1,8,0:0:0:0:
192,192,30055,1,2,0:0:0:0:
64,192,30227,1,8,0:0:0:0:
64,192,30572,1,2,0:0:0:0:
320,192,30744,1,2,0:0:0:0:
448,192,30917,1,8,0:0:0:0:
320,192,31434,1,2,0:0:0:0:
448,192,31607,1,8,0:0:0:0:
448,192,31779,1,8,0:0:0:0:
192,192,31951,128,2,32641:0:0:0:0:
64,192,32641,128,8,32986:0:0:0:0:
448,192,32986,128,8,33331:0:0:0:0:
192,192,33331,128,2,34710:0:0:0:0:
320,192,34710,1,6,0:0:0:0:
64,192,34882,1,2,0:0:0:0:
320,192,35055,1,8,0:0:0:0:
64,192,35572,1,2,0:0:0:0:
320,192,35744,1,8,0:0:0:0:
448,192,35917,1,0,0:0:0:0:
192,192,36089,1,2,0:0:0:0:
448,192,36262,1,2,0:0:0:0:
192,192,36434,1,8,0:0:0:0:
448,192,36951,1,2,0:0:0:0:
192,192,37124,1,8,0:0:0:0:
320,192,37296,1,0,0:0:0:0:
64,192,37469,1,2,0:0:0:0:
320,192,37641,1,2,0:0:0:0:
64,192,37813,1,8,0:0:0:0:
320,192,38331,1,2,0:0:0:0:
64,192,38503,1,8,0:0:0:0:
192,192,38675,1,0,0:0:0:0:
448,192,38848,1,2,0:0:0:0:
192,192,39020,1,2,0:0:0:0:
448,192,39193,1,8,0:0:0:0:
64,192,39365,1,0,0:0:0:0:
192,192,39538,1,2,0:0:0:0:
448,192,39710,1,2,0:0:0:0:
192,192,39882,1,8,0:0:0:0:
64,192,40055,1,0,0:0:0:0:
320,192,40227,1,2,0:0:0:0:
192,192,40400,1,2,0:0:0:0:
64,192,40572,1,8,0:0:0:0:
192,192,41089,1,2,0:0:0:0:
64,192,41262,1,8,0:0:0:0:
448,192,41434,1,0,0:0:0:0:
192,192,41607,1,2,0:0:0:0:
320,192,41779,1,2,0:0:0:0:
448,192,41951,1,8,0:0:0:0:
64,192,42296,1,0,0:0:0:0:
320,192,42469,1,2,0:0:0:0:
448,192,42641,1,8,0:0:0:0:
64,192,42813,1,0,0:0:0:0:
320,192,42986,1,2,0:0:0:0:
192,192,43158,1,2,0:0:0:0:
448,192,43331,1,8,0:0:0:0:
192,192,43848,1,2,0:0:0:0:
448,192,44020,1,8,0:0:0:0:
320,192,44193,1,0,0:0:0:0:
64,192,44365,1,2,0:0:0:0:
448,192,44538,1,2,0:0:0:0:
192,192,44710,1,8,0:0:0:0:
448,192,45055,1,0,0:0:0:0:
64,192,45227,1,2,0:0:0:0:
320,192,45400,1,8,0:0:0:0:
320,192,45572,1,8,0:0:0:0:
448,192,45744,1,2,0:0:0:0:
192,192,45917,1,2,0:0:0:0:
64,192,46089,1,8,0:0:0:0:
192,192,46607,1,2,0:0:0:0:
64,192,46779,1,8,0:0:0:0:
448,192,46951,1,0,0:0:0:0:
64,192,47124,1,2,0:0:0:0:
320,192,47296,1,2,0:0:0:0:
448,192,47469,1,8,0:0:0:0:
320,192,47986,1,2,0:0:0:0:
448,192,48158,1,8,0:0:0:0:
64,192,48331,1,0,0:0:0:0:
192,192,48503,1,2,0:0:0:0:
448,192,48675,1,2,0:0:0:0:
320,192,48848,1,8,0:0:0:0:
448,192,49365,1,2,0:0:0:0:
320,192,49538,1,8,0:0:0:0:
192,192,49710,1,0,0:0:0:0:
320,192,49882,1,2,0:0:0:0:
64,192,50055,1,2,0:0:0:0:
192,192,50227,1,8,0:0:0:0:
320,192,50400,1,0,0:0:0:0:
448,192,50572,1,2,0:0:0:0:
320,192,50744,1,2,0:0:0:0:
64,192,50917,1,8,0:0:0:0:
192,192,51089,1,0,0:0:0:0:
448,192,51262,1,2,0:0:0:0:
192,192,51434,1,2,0:0:0:0:
320,192,51607,1,8,0:0:0:0:
192,192,52124,1,2,0:0:0:0:
320,192,52296,1,8,0:0:0:0:
448,192,52469,1,0,0:0:0:0:
64,192,52641,1,2,0:0:0:0:
320,192,52813,1,2,0:0:0:0:
192,192,52986,1,8,0:0:0:0:
320,192,53503,1,2,0:0:0:0:
192,192,53675,1,8,0:0:0:0:
64,192,53848,1,0,0:0:0:0:
448,192,54020,1,2,0:0:0:0:
64,192,54193,1,2,0:0:0:0:
320,192,54365,1,8,0:0:0:0:
448,192,54538,1,0,0:0:0:0:
64,192,54882,1,2,0:0:0:0:
320,192,55055,1,8,0:0:0:0:
64,192,55400,1,2,0:0:0:0:
448,192,55572,1,2,0:0:0:0:
64,192,55744,1,2,0:0:0:0:
320,192,55917,1,0,0:0:0:0:
192,192,56089,1,8,0:0:0:0:
320,192,56434,1,2,0:0:0:0:
192,192,56607,1,8,0:0:0:0:
320,192,56779,1,2,0:0:0:0:
64,192,56951,1,8,0:0:0:0:
448,192,56951,1,0,0:0:0:0:
64,192,57469,1,8,0:0:0:0:
448,192,57469,1,0,0:0:0:0:
192,192,57986,1,0,0:0:0:0:
320,192,57986,1,0,0:0:0:0:
64,192,58158,1,2,0:0:0:0:
448,192,58331,1,2,0:0:0:0:
64,192,58503,1,8,0:0:0:0:
448,192,58848,1,0,0:0:0:0:
192,192,59020,1,2,0:0:0:0:
320,192,59193,1,8,0:0:0:0:
192,192,59538,1,2,0:0:0:0:
320,192,59538,1,0,0:0:0:0:
64,192,59710,1,8,0:0:0:0:
448,192,59710,1,0,0:0:0:0:
64,192,60055,1,8,0:0:0:0:
448,192,60055,1,0,0:0:0:0:
192,192,60400,128,8,60572:0:0:0:40:
320,192,60400,128,0,60572:0:0:0:0:
64,192,60744,1,2,0:0:0:0:
448,192,60744,1,0,0:0:0:0:
64,192,61089,128,2,61262:0:0:0:0:
448,192,61262,1,8,0:0:0:0:
320,192,61607,1,2,0:0:0:0:
192,192,61779,1,2,0:0:0:0:
64,192,61951,1,8,0:0:0:0:
448,192,62124,1,0,0:0:0:0:
192,192,62296,1,2,0:0:0:0:
320,192,62296,1,0,0:0:0:0:
64,192,62469,1,8,0:0:0:0:
448,192,62469,1,0,0:0:0:0:
64,192,62986,1,8,0:0:0:0:
448,192,62986,1,0,0:0:0:0:
320,192,63503,128,8,63675:0:0:0:40:
448,192,63503,128,0,63675:0:0:0:0:
64,192,63848,128,2,64020:0:0:0:0:
320,192,64020,1,8,0:0:0:0:
192,192,64193,1,0,0:0:0:0:
448,192,64365,1,0,0:0:0:0:
320,192,64538,1,2,0:0:0:0:
64,192,64710,1,8,0:0:0:0:
192,192,64882,1,0,0:0:0:0:
448,192,65055,1,2,0:0:0:0:
192,192,65227,1,2,0:0:0:0:
64,192,65400,1,8,0:0:0:0:
320,192,65744,1,8,0:0:0:0:
64,192,66089,1,2,0:0:0:0:
320,192,66262,1,8,0:0:0:0:
448,192,66607,1,0,0:0:0:0:
448,192,66951,1,0,0:0:0:0:
448,192,67813,1,2,0:0:0:0:
64,192,67986,1,2,0:0:0:0:
448,192,68158,1,2,0:0:0:0:
64,192,68331,1,2,0:0:0:40:
320,192,68503,1,8,0:0:0:0:
192,192,68848,1,8,0:0:0:0:
320,192,69020,1,2,0:0:0:0:
64,192,69193,1,2,0:0:0:0:
192,192,69365,1,8,0:0:0:0:
448,192,69538,1,2,0:0:0:0:
64,192,69710,128,2,69882:0:0:0:0:
320,192,69882,1,8,0:0:0:0:
64,192,70227,1,2,0:0:0:0:
448,192,70400,1,8,0:0:0:0:
192,192,70572,1,2,0:0:0:0:
320,192,70744,128,2,70917:0:0:0:0:
192,192,70917,128,2,71262:0:0:0:40:
320,192,71434,1,8,0:0:0:0:
64,192,71607,1,0,0:0:0:0:
64,192,71779,1,0,0:0:0:0:
448,192,71951,128,2,72296:0:0:0:0:
64,192,72296,1,2,0:0:0:0:
192,192,72469,1,8,0:0:0:0:
320,192,72641,1,2,0:0:0:0:
448,192,72813,128,2,72986:0:0:0:40:
64,192,72986,128,8,73331:0:0:0:0:
192,192,73331,1,2,0:0:0:0:
448,192,73503,128,2,73848:0:0:0:0:
64,192,73848,1,8,0:0:0:0:
192,192,74020,1,2,0:0:0:0:
448,192,74193,1,8,0:0:0:0:
320,192,74365,128,8,74710:0:0:0:0:
64,192,74710,128,2,75400:0:0:0:0:
448,192,75400,128,0,75572:0:0:0:0:
192,192,75572,1,8,0:0:0:0:
320,192,75744,1,2,0:0:0:0:
64,192,75917,1,8,0:0:0:0:
192,192,76089,128,2,76434:0:0:0:0:
448,192,76434,128,2,76779:0:0:0:0:
192,192,76779,1,8,0:0:0:0:
192,192,76951,1,8,0:0:0:0:
64,192,77124,128,8,77469:0:0:0:40:
320,192,77469,128,2,77813:0:0:0:0:
64,192,77813,1,8,0:0:0:0:
448,192,77986,1,0,0:0:0:0:
64,192,78158,128,8,78331:0:0:0:0:
192,192,78331,1,2,0:0:0:0:
320,192,78503,1,8,0:0:0:0:
448,192,78675,128,2,78848:0:0:0:0:
64,192,78848,1,2,0:0:0:0:
192,192,78848,1,4,0:0:0:0:
320,192,79193,1,2,0:0:0:0:
448,192,79193,1,0,0:0:0:0:
64,192,79538,1,8,0:0:0:0:
448,192,79710,1,2,0:0:0:0:
192,192,79882,128,8,80227:0:0:0:0:
448,192,80227,1,2,0:0:0:0:
64,192,80400,128,8,80917:0:0:0:0:
448,192,80917,1,8,0:0:0:0:
192,192,81089,128,0,81262:0:0:0:0:
320,192,81262,1,2,0:0:0:0:
64,192,81434,1,8,0:0:0:0:
192,192,81607,128,2,81951:0:0:0:0:
320,192,81951,128,2,82296:0:0:0:40:
192,192,82469,1,8,0:0:0:0:
448,192,82641,1,0,0:0:0:0:
64,192,82813,128,2,82986:0:0:0:0:
320,192,82986,1,2,0:0:0:0:
192,192,83158,128,8,83331:0:0:0:0:
448,192,83331,128,0,83503:0:0:0:0:
64,192,83503,1,8,0:0:0:0:
192,192,83675,1,2,0:0:0:0:
320,192,83848,128,2,84020:0:0:0:40:
448,192,84020,1,8,0:0:0:0:
64,192,84193,1,0,0:0:0:0:
320,192,84365,1,2,0:0:0:0:
192,192,84538,128,2,84710:0:0:0:0:
64,192,84882,1,8,0:0:0:0:
320,192,85055,128,0,85400:0:0:0:0:
192,192,85400,128,8,85744:0:0:0:0:
64,192,85744,128,8,86262:0:0:0:0:
192,192,86262,1,2,0:0:0:0:
320,192,86434,1,2,0:0:0:0:
448,192,86607,128,0,87124:0:0:0:0:
64,192,87124,1,2,0:0:0:0:
192,192,87296,1,2,0:0:0:0:
320,192,87469,128,8,87813:0:0:0:0:
64,192,87813,1,2,0:0:0:0:
192,192,87986,128,8,88331:0:0:0:0:
448,192,88331,1,8,0:0:0:0:
64,192,88503,128,2,89193:0:0:0:0:
320,192,88503,1,0,0:0:0:0:
192,192,88848,128,2,89193:0:0:0:0:
448,192,89193,128,2,89882:0:0:0:0:
320,192,89538,128,2,89882:0:0:0:0:
64,192,89882,1,6,0:0:0:0:
192,192,90055,1,2,0:0:0:0:
320,192,90227,1,8,0:0:0:0:
192,192,90744,1,2,0:0:0:0:
320,192,90917,1,8,0:0:0:0:
64,192,91089,1,0,0:0:0:0:
448,192,91262,1,2,0:0:0:0:
320,192,91434,1,2,0:0:0:0:
192,192,91607,1,8,0:0:0:0:
320,192,92124,1,2,0:0:0:0:
192,192,92296,1,8,0:0:0:0:
448,192,92469,1,0,0:0:0:0:
192,192,92641,1,2,0:0:0:0:
320,192,92813,1,2,0:0:0:0:
64,192,92986,1,8,0:0:0:0:
448,192,93503,1,2,0:0:0:0:
64,192,93675,1,8,0:0:0:0:
192,192,93848,1,0,0:0:0:0:
320,192,94020,1,2,0:0:0:0:
64,192,94193,1,2,0:0:0:0:
448,192,94365,1,8,0:0:0:0:
192,192,94710,1,2,0:0:0:0:
64,192,94882,1,2,0:0:0:0:
448,192,95055,1,8,0:0:0:0:
320,192,95227,1,0,0:0:0:0:
192,192,95400,1,2,0:0:0:0:
320,192,95572,1,2,0:0:0:0:
64,192,95744,1,8,0:0:0:0:
320,192,96262,1,2,0:0:0:0:
64,192,96434,1,8,0:0:0:0:
320,192,96779,1,2,0:0:0:0:
192,192,96951,1,2,0:0:0:0:
448,192,97124,1,8,0:0:0:0:
64,192,97469,1,0,0:0:0:0:
192,192,97641,1,2,0:0:0:0:
448,192,97813,1,8,0:0:0:0:
192,192,97986,1,0,0:0:0:0:
320,192,98158,1,2,0:0:0:0:
64,192,98331,1,2,0:0:0:0:
448,192,98503,1,8,0:0:0:0:
64,192,99020,1,2,0:0:0:0:
448,192,99193,1,8,0:0:0:0:
192,192,99538,1,2,0:0:0:0:
448,192,99710,1,2,0:0:0:0:
64,192,99882,1,8,0:0:0:0:
192,192,100227,1,0,0:0:0:0:
448,192,100400,1,2,0:0:0:0:
64,192,100572,1,8,0:0:0:0:
320,192,100744,1,8,0:0:0:0:
192,192,100917,1,2,0:0:0:0:
448,192,100917,1,4,0:0:0:0:
64,192,101089,1,2,0:0:0:0:
192,192,101262,1,8,0:0:0:0:
448,192,101262,1,0,0:0:0:0:
64,192,101779,1,2,0:0:0:0:
448,192,101951,1,8,0:0:0:0:
320,192,102124,1,0,0:0:0:0:
192,192,102296,1,2,0:0:0:0:
320,192,102469,1,2,0:0:0:0:
192,192,102641,1,8,0:0:0:0:
320,192,102986,1,8,0:0:0:0:
192,192,103158,1,2,0:0:0:0:
320,192,103331,128,8,103675:0:0:0:0:
64,192,103848,1,8,0:0:0:0:
192,192,103848,1,0,0:0:0:0:
320,192,104365,1,8,0:0:0:0:
448,192,104365,1,0,0:0:0:0:
64,192,104710,128,8,104882:0:0:0:40:
448,192,104882,1,2,0:0:0:0:
192,192,105227,1,2,0:0:0:0:
64,192,105400,1,12,0:0:0:0:
448,192,105400,1,0,0:0:0:0:
320,192,105744,1,2,0:0:0:0:
192,192,105917,1,2,0:0:0:0:
320,192,106089,128,8,106434:0:0:0:0:
64,192,106434,1,6,0:0:0:0:
64,192,106779,1,2,0:0:0:0:
192,192,107124,1,2,0:0:0:0:
192,192,107469,1,2,0:0:0:0:
320,192,107813,1,2,0:0:0:0:
320,192,108158,1,2,0:0:0:0:
448,192,108503,1,2,0:0:0:0:
448,192,108848,1,2,0:0:0:0:
64,192,109193,1,2,0:0:0:0:
448,192,109365,1,2,0:0:0:0:
64,192,109538,1,2,0:0:0:0:
448,192,109710,1,2,0:0:0:0:
192,192,109882,128,2,110572:0:0:0:0:
320,192,110572,1,2,0:0:0:0:
64,192,110744,1,0,0:0:0:0:
448,192,110917,1,2,0:0:0:0:
320,192,111089,1,8,0:0:0:0:
64,192,111262,1,0,0:0:0:0:
192,192,111434,1,2,0:0:0:0:
448,192,111607,1,8,0:0:0:0:
192,192,111779,1,0,0:0:0:0:
64,192,111951,1,2,0:0:0:0:
448,192,111951,1,4,0:0:0:0:
