osu file format v14

[General]
AudioFilename: audio.mp3
AudioLeadIn: 0
PreviewTime: 65017
Countdown: 0
SampleSet: Soft
StackLeniency: 0.7
Mode: 3
LetterboxInBreaks: 0
SpecialStyle: 0
WidescreenStoryboard: 0

[Editor]
Bookmarks: 11675,23226,43760,65579,84670,86113,92049,106648,117557,124295,127183,137450,138092,147718,149001,168092,169536,179803
DistanceSpacing: 0.8
BeatDivisor: 4
GridSize: 4
TimelineZoom: 1.900006

[Metadata]
Title:Magical Musical Master
TitleUnicode:Magical Musical Master
Artist:sakuzyo
ArtistUnicode:削除
Creator:Yumyum-
Version:HD
Source:
Tags:SCCD-0002 Comiket 90 Pop Candy Wonderland Instrumental
BeatmapID:1278755
BeatmapSetID:605242

[Difficulty]
HPDrainRate:7.5
CircleSize:4
OverallDifficulty:7.5
ApproachRate:5
SliderMultiplier:1.4
SliderTickRate:1

[Events]
//Background and Video events
0,0,"56.png",0,0
//Break Periods
//Storyboard Layer 0 (Background)
//Storyboard Layer 1 (Fail)
//Storyboard Layer 2 (Pass)
//Storyboard Layer 3 (Foreground)
//Storyboard Sound Samples

[TimingPoints]
1408,320.855614973262,4,2,0,40,1,0
23226,-100,4,2,0,40,0,1
43760,-100,4,2,0,40,0,0
61768,-133.333333333333,4,2,0,40,0,0
61849,-66.6666666666667,4,2,0,40,0,0
61969,-100,4,2,0,40,0,0
62250,-133.333333333333,4,2,0,40,0,0
62330,-66.6666666666667,4,2,0,40,0,0
62450,-100,4,2,0,40,0,0
62731,-133.333333333333,4,2,0,40,0,0
62811,-66.6666666666667,4,2,0,40,0,0
62932,-100,4,2,0,40,0,0
63212,-133.333333333333,4,2,0,40,0,0
63293,-66.6666666666667,4,2,0,40,0,0
63413,-100,4,2,0,40,0,0
63694,-133.333333333333,4,2,0,40,0,0
63734,-66.6666666666667,4,2,0,40,0,0
63774,-100,4,2,0,40,0,0
64014,-133.333333333333,4,2,0,40,0,0
64095,-66.6666666666667,4,2,0,40,0,0
64215,-100,4,2,0,40,0,0
65579,-100,4,2,0,40,0,1
84670,-100,4,2,0,40,0,0
104121,-133.333333333333,4,2,0,40,0,0
104202,-66.6666666666667,4,2,0,40,0,0
104322,-100,4,2,0,40,0,0
104603,-133.333333333333,4,2,0,40,0,0
104683,-66.6666666666667,4,2,0,40,0,0
104803,-100,4,2,0,40,0,0
105084,-133.333333333333,4,2,0,40,0,0
105164,-66.6666666666667,4,2,0,40,0,0
105285,-100,4,2,0,40,0,0
105565,-133.333333333333,4,2,0,40,0,0
105645,-66.6666666666667,4,2,0,40,0,0
105766,-100,4,2,0,40,0,0
106047,-133.333333333333,4,2,0,40,0,0
106087,-66.6666666666667,4,2,0,40,0,0
106127,-100,4,2,0,40,0,0
106648,-100,4,2,0,40,0,1
127183,-100,4,2,0,40,0,0
127262,-100,4,2,0,10,0,0
128466,-100,4,2,0,20,0,0
129108,-100,4,2,0,30,0,0
129750,-100,4,2,0,40,0,0
149001,-100,4,2,0,40,0,1
168092,-100,4,2,0,40,0,0

[HitObjects]
64,192,1408,5,0,0:0:0:0:
448,192,1408,1,0,0:0:0:0:
320,192,1568,1,0,0:0:0:0:
192,192,1728,1,0,0:0:0:0:
448,192,1889,1,0,0:0:0:0:
64,192,2049,1,0,0:0:0:0:
320,192,2210,1,0,0:0:0:0:
448,192,2370,1,0,0:0:0:0:
64,192,2530,1,0,0:0:0:0:
192,192,2691,1,0,0:0:0:0:
448,192,2851,1,0,0:0:0:0:
192,192,3012,1,0,0:0:0:0:
320,192,3172,1,0,0:0:0:0:
64,192,3333,1,0,0:0:0:0:
192,192,3493,1,0,0:0:0:0:
448,192,3653,1,0,0:0:0:0:
64,192,3814,1,0,0:0:0:0:
64,192,3974,1,0,0:0:0:0:
320,192,3974,1,0,0:0:0:0:
448,192,4135,1,0,0:0:0:0:
320,192,4295,1,0,0:0:0:0:
192,192,4456,1,0,0:0:0:0:
448,192,4616,1,0,0:0:0:0:
320,192,4776,1,0,0:0:0:0:
64,192,4937,1,0,0:0:0:0:
192,192,5097,1,0,0:0:0:0:
320,192,5258,1,0,0:0:0:0:
64,192,5418,1,0,0:0:0:0:
192,192,5579,1,0,0:0:0:0:
448,192,5739,1,0,0:0:0:0:
320,192,5899,1,0,0:0:0:0:
64,192,6060,1,0,0:0:0:0:
192,192,6220,1,0,0:0:0:0:
64,192,6381,1,0,0:0:0:0:
64,192,6541,1,0,0:0:0:0:
448,192,6541,1,0,0:0:0:0:
192,192,6702,1,0,0:0:0:0:
320,192,6862,1,0,0:0:0:0:
64,192,7022,1,0,0:0:0:0:
192,192,7183,1,0,0:0:0:0:
448,192,7343,1,0,0:0:0:0:
64,192,7504,1,0,0:0:0:0:
192,192,7664,1,0,0:0:0:0:
320,192,7825,1,0,0:0:0:0:
64,192,7985,1,0,0:0:0:0:
448,192,8145,1,0,0:0:0:0:
192,192,8306,1,0,0:0:0:0:
448,192,8466,1,0,0:0:0:0:
320,192,8627,1,0,0:0:0:0:
448,192,8787,1,0,0:0:0:0:
64,192,8948,1,0,0:0:0:0:
448,192,9108,1,0,0:0:0:0:
64,192,9108,1,0,0:0:0:0:
320,192,9268,1,0,0:0:0:0:
192,192,9429,1,0,0:0:0:0:
448,192,9589,1,0,0:0:0:0:
192,192,9750,1,0,0:0:0:0:
320,192,9910,1,0,0:0:0:0:
64,192,10071,1,0,0:0:0:0:
192,192,10231,1,0,0:0:0:0:
320,192,10391,1,0,0:0:0:0:
64,192,10552,1,0,0:0:0:0:
320,192,10712,1,0,0:0:0:0:
192,192,10873,1,0,0:0:0:0:
320,192,11033,1,0,0:0:0:0:
448,192,11194,1,0,0:0:0:0:
320,192,11354,1,0,0:0:0:0:
64,192,11514,128,0,11675:0:0:0:0:
320,192,11675,1,0,0:0:0:0:
448,192,11675,1,0,0:0:0:0:
192,192,11835,1,0,0:0:0:0:
64,192,11996,1,0,0:0:0:0:
320,192,12156,1,0,0:0:0:0:
192,192,12317,1,0,0:0:0:0:
448,192,12477,1,0,0:0:0:0:
64,192,12637,1,0,0:0:0:0:
192,192,12798,1,0,0:0:0:0:
320,192,12958,1,0,0:0:0:0:
64,192,13119,1,0,0:0:0:0:
448,192,13279,1,0,0:0:0:0:
320,192,13440,1,0,0:0:0:0:
192,192,13600,1,0,0:0:0:0:
448,192,13760,1,0,0:0:0:0:
64,192,13921,1,0,0:0:0:0:
192,192,14081,1,0,0:0:0:0:
320,192,14242,1,0,0:0:0:0:
64,192,14242,1,0,0:0:0:0:
448,192,14402,1,0,0:0:0:0:
320,192,14563,1,0,0:0:0:0:
192,192,14723,1,0,0:0:0:0:
64,192,14883,1,0,0:0:0:0:
320,192,15044,1,0,0:0:0:0:
192,192,15204,1,0,0:0:0:0:
64,192,15365,1,0,0:0:0:0:
64,192,15525,1,0,0:0:0:0:
192,192,15686,1,0,0:0:0:0:
320,192,15846,1,0,0:0:0:0:
448,192,16006,1,0,0:0:0:0:
64,192,16167,128,0,16327:0:0:0:0:
320,192,16327,1,0,0:0:0:0:
448,192,16408,1,0,0:0:0:0:
320,192,16488,1,0,0:0:0:0:
64,192,16648,1,0,0:0:0:0:
192,192,16809,1,0,0:0:0:0:
448,192,16809,1,0,0:0:0:0:
64,192,17129,1,0,0:0:0:0:
192,192,17129,1,0,0:0:0:0:
320,192,17450,1,0,0:0:0:0:
448,192,17450,1,0,0:0:0:0:
64,192,17771,1,0,0:0:0:0:
192,192,17932,1,0,0:0:0:0:
320,192,18092,1,0,0:0:0:0:
448,192,18092,1,0,0:0:0:0:
64,192,18413,1,0,0:0:0:0:
320,192,18413,1,0,0:0:0:0:
192,192,18734,1,0,0:0:0:0:
448,192,18734,1,0,0:0:0:0:
320,192,19055,1,0,0:0:0:0:
192,192,19215,1,0,0:0:0:0:
64,192,19375,1,0,0:0:0:0:
448,192,19375,1,0,0:0:0:0:
192,192,19696,1,0,0:0:0:0:
320,192,19696,1,0,0:0:0:0:
64,192,20017,1,0,0:0:0:0:
448,192,20017,1,0,0:0:0:0:
320,192,20178,1,0,0:0:0:0:
192,192,20338,1,0,0:0:0:0:
64,192,20498,1,0,0:0:0:0:
64,192,20659,1,0,0:0:0:0:
192,192,20819,1,0,0:0:0:0:
320,192,20980,1,0,0:0:0:0:
64,192,21140,128,0,21301:0:0:0:0:
448,192,21301,1,0,0:0:0:0:
320,192,21461,1,0,0:0:0:0:
192,192,21541,1,0,0:0:0:0:
64,192,21621,1,0,0:0:0:0:
192,192,21782,1,0,0:0:0:0:
64,192,21942,1,0,0:0:0:0:
448,192,21942,1,0,0:0:0:0:
320,192,21942,128,0,22103:0:0:0:0:
192,192,22103,128,0,22263:0:0:0:0:
448,192,22263,128,0,22424:0:0:0:0:
64,192,22424,128,0,22584:0:0:0:0:
192,192,22584,128,0,22744:0:0:0:0:
448,192,22744,128,0,22905:0:0:0:0:
192,192,22905,128,0,23065:0:0:0:0:
320,192,23065,128,0,23226:0:0:0:0:
64,192,23226,128,0,23547:0:0:0:0:
192,192,23226,1,0,0:0:0:0:
320,192,23547,1,0,0:0:0:0:
448,192,23547,1,0,0:0:0:0:
192,192,23707,1,0,0:0:0:0:
64,192,23867,1,0,0:0:0:0:
448,192,23867,128,0,24830:0:0:0:0:
192,192,24188,1,0,0:0:0:0:
320,192,24188,1,0,0:0:0:0:
320,192,24509,1,0,0:0:0:0:
64,192,24509,1,0,0:0:0:0:
64,192,24830,1,0,0:0:0:0:
192,192,24830,1,0,0:0:0:0:
320,192,24990,1,0,0:0:0:0:
192,192,25071,1,0,0:0:0:0:
64,192,25151,1,0,0:0:0:0:
448,192,25151,1,0,0:0:0:0:
320,192,25311,1,0,0:0:0:0:
192,192,25472,1,0,0:0:0:0:
64,192,25472,1,0,0:0:0:0:
448,192,25632,1,0,0:0:0:0:
320,192,25793,1,0,0:0:0:0:
192,192,25793,1,0,0:0:0:0:
64,192,25953,1,0,0:0:0:0:
192,192,26113,1,0,0:0:0:0:
448,192,26113,1,0,0:0:0:0:
320,192,26274,1,0,0:0:0:0:
448,192,26434,1,0,0:0:0:0:
64,192,26434,128,0,27397:0:0:0:0:
192,192,26755,1,0,0:0:0:0:
320,192,26755,1,0,0:0:0:0:
320,192,27076,1,0,0:0:0:0:
448,192,27076,1,0,0:0:0:0:
192,192,27397,1,0,0:0:0:0:
448,192,27397,1,0,0:0:0:0:
320,192,27557,1,0,0:0:0:0:
64,192,27718,1,0,0:0:0:0:
448,192,27718,128,0,28359:0:0:0:0:
64,192,28039,1,0,0:0:0:0:
192,192,28039,1,0,0:0:0:0:
64,192,28359,128,0,28680:0:0:0:0:
192,192,28359,1,0,0:0:0:0:
448,192,28680,1,0,0:0:0:0:
320,192,28680,1,0,0:0:0:0:
192,192,28841,1,0,0:0:0:0:
192,192,29001,1,0,0:0:0:0:
320,192,29001,128,0,29964:0:0:0:0:
64,192,29322,1,0,0:0:0:0:
448,192,29322,1,0,0:0:0:0:
192,192,29643,1,0,0:0:0:0:
64,192,29643,1,0,0:0:0:0:
192,192,29964,1,0,0:0:0:0:
448,192,29964,1,0,0:0:0:0:
64,192,30124,1,0,0:0:0:0:
192,192,30204,1,0,0:0:0:0:
320,192,30285,1,0,0:0:0:0:
448,192,30285,1,0,0:0:0:0:
192,192,30445,1,0,0:0:0:0:
448,192,30605,1,0,0:0:0:0:
64,192,30605,1,0,0:0:0:0:
320,192,30766,1,0,0:0:0:0:
192,192,30926,1,0,0:0:0:0:
64,192,30926,1,0,0:0:0:0:
448,192,31087,1,0,0:0:0:0:
192,192,31247,1,0,0:0:0:0:
320,192,31247,1,0,0:0:0:0:
448,192,31407,1,0,0:0:0:0:
64,192,31568,128,0,32530:0:0:0:0:
192,192,31568,1,0,0:0:0:0:
320,192,31889,1,0,0:0:0:0:
448,192,31889,1,0,0:0:0:0:
192,192,32210,1,0,0:0:0:0:
320,192,32210,1,0,0:0:0:0:
320,192,32530,1,0,0:0:0:0:
448,192,32530,1,0,0:0:0:0:
192,192,32691,1,0,0:0:0:0:
320,192,32771,1,0,0:0:0:0:
448,192,32851,1,0,0:0:0:0:
320,192,33012,1,0,0:0:0:0:
192,192,33172,1,0,0:0:0:0:
448,192,33172,1,0,0:0:0:0:
64,192,33333,1,0,0:0:0:0:
192,192,33493,1,0,0:0:0:0:
320,192,33493,128,0,33814:0:0:0:0:
64,192,33814,1,0,0:0:0:0:
448,192,33814,1,0,0:0:0:0:
192,192,33974,1,0,0:0:0:0:
64,192,34135,1,0,0:0:0:0:
320,192,34135,1,0,0:0:0:0:
448,192,34295,1,0,0:0:0:0:
192,192,34456,1,0,0:0:0:0:
448,192,34456,1,0,0:0:0:0:
192,192,34776,128,0,35097:0:0:0:0:
320,192,34776,1,0,0:0:0:0:
448,192,35097,1,0,0:0:0:0:
64,192,35097,1,0,0:0:0:0:
320,192,35258,1,0,0:0:0:0:
448,192,35418,1,0,0:0:0:0:
192,192,35418,1,0,0:0:0:0:
64,192,35579,1,0,0:0:0:0:
448,192,35739,1,0,0:0:0:0:
64,192,35739,1,0,0:0:0:0:
448,192,36060,128,0,36381:0:0:0:0:
320,192,36060,1,0,0:0:0:0:
320,192,36381,1,0,0:0:0:0:
64,192,36381,1,0,0:0:0:0:
192,192,36541,128,0,36862:0:0:0:0:
320,192,36702,1,0,0:0:0:0:
448,192,36702,1,0,0:0:0:0:
64,192,36862,1,0,0:0:0:0:
320,192,37022,1,0,0:0:0:0:
448,192,37022,1,0,0:0:0:0:
64,192,37183,128,0,37504:0:0:0:0:
448,192,37343,1,0,0:0:0:0:
192,192,37343,1,0,0:0:0:0:
320,192,37504,1,0,0:0:0:0:
448,192,37664,1,0,0:0:0:0:
192,192,37664,1,0,0:0:0:0:
320,192,37825,1,0,0:0:0:0:
192,192,37985,1,0,0:0:0:0:
64,192,37985,1,0,0:0:0:0:
320,192,38145,1,0,0:0:0:0:
64,192,38306,1,0,0:0:0:0:
448,192,38306,1,0,0:0:0:0:
320,192,38466,1,0,0:0:0:0:
64,192,38627,128,0,39910:0:0:0:0:
192,192,38627,1,0,0:0:0:0:
320,192,38948,1,0,0:0:0:0:
448,192,38948,1,0,0:0:0:0:
320,192,39268,1,0,0:0:0:0:
192,192,39268,1,0,0:0:0:0:
320,192,39589,1,0,0:0:0:0:
448,192,39589,1,0,0:0:0:0:
192,192,39910,1,0,0:0:0:0:
320,192,39910,1,0,0:0:0:0:
64,192,40231,1,0,0:0:0:0:
448,192,40231,1,0,0:0:0:0:
192,192,40391,1,0,0:0:0:0:
64,192,40552,1,0,0:0:0:0:
448,192,40552,1,0,0:0:0:0:
320,192,40712,1,0,0:0:0:0:
192,192,40873,128,0,41194:0:0:0:0:
64,192,40873,1,0,0:0:0:0:
448,192,40873,1,0,0:0:0:0:
320,192,41033,1,0,0:0:0:0:
64,192,41194,128,0,41835:0:0:0:0:
448,192,41194,1,0,0:0:0:0:
320,192,41354,1,0,0:0:0:0:
192,192,41514,1,0,0:0:0:0:
448,192,41514,1,0,0:0:0:0:
320,192,41675,1,0,0:0:0:0:
448,192,41835,128,0,42477:0:0:0:0:
192,192,41835,1,0,0:0:0:0:
320,192,41996,1,0,0:0:0:0:
64,192,42156,1,0,0:0:0:0:
192,192,42156,1,0,0:0:0:0:
192,192,42317,1,0,0:0:0:0:
64,192,42477,1,0,0:0:0:0:
320,192,42477,1,0,0:0:0:0:
192,192,42557,1,0,0:0:0:0:
320,192,42637,1,0,0:0:0:0:
448,192,42718,1,0,0:0:0:0:
64,192,42798,1,0,0:0:0:0:
192,192,42878,1,0,0:0:0:0:
320,192,42958,1,0,0:0:0:0:
448,192,43039,1,0,0:0:0:0:
64,192,43119,1,0,0:0:0:0:
192,192,43199,1,0,0:0:0:0:
320,192,43279,128,0,43440:0:0:0:0:
64,192,43359,1,0,0:0:0:0:
192,192,43440,1,0,0:0:0:0:
448,192,43520,1,0,0:0:0:0:
320,192,43600,1,0,0:0:0:0:
192,192,43680,1,0,0:0:0:0:
64,192,43760,1,0,0:0:0:0:
448,192,43760,128,0,44402:0:0:0:0:
320,192,44081,1,0,0:0:0:0:
192,192,44242,1,0,0:0:0:0:
64,192,44402,1,0,0:0:0:0:
320,192,44402,1,0,0:0:0:0:
192,192,44563,1,0,0:0:0:0:
320,192,44723,1,0,0:0:0:0:
192,192,44883,1,0,0:0:0:0:
448,192,44883,1,0,0:0:0:0:
64,192,45044,1,0,0:0:0:0:
320,192,45044,128,0,45686:0:0:0:0:
64,192,45365,1,0,0:0:0:0:
192,192,45525,1,0,0:0:0:0:
64,192,45686,1,0,0:0:0:0:
448,192,45686,1,0,0:0:0:0:
192,192,45846,1,0,0:0:0:0:
320,192,46006,1,0,0:0:0:0:
192,192,46167,1,0,0:0:0:0:
448,192,46327,128,0,46969:0:0:0:0:
320,192,46327,1,0,0:0:0:0:
192,192,46648,1,0,0:0:0:0:
64,192,46969,1,0,0:0:0:0:
320,192,46969,1,0,0:0:0:0:
64,192,47290,1,0,0:0:0:0:
192,192,47450,1,0,0:0:0:0:
320,192,47450,1,0,0:0:0:0:
448,192,47611,1,0,0:0:0:0:
64,192,47611,128,0,48252:0:0:0:0:
320,192,47771,1,0,0:0:0:0:
192,192,47932,1,0,0:0:0:0:
448,192,47932,1,0,0:0:0:0:
320,192,48092,1,0,0:0:0:0:
192,192,48252,1,0,0:0:0:0:
448,192,48252,1,0,0:0:0:0:
320,192,48413,1,0,0:0:0:0:
64,192,48573,1,0,0:0:0:0:
192,192,48573,1,0,0:0:0:0:
448,192,48734,1,0,0:0:0:0:
320,192,48894,128,0,49536:0:0:0:0:
192,192,48894,1,0,0:0:0:0:
64,192,49215,1,0,0:0:0:0:
448,192,49375,1,0,0:0:0:0:
192,192,49536,1,0,0:0:0:0:
64,192,49536,1,0,0:0:0:0:
448,192,49696,1,0,0:0:0:0:
64,192,49857,1,0,0:0:0:0:
192,192,50017,1,0,0:0:0:0:
448,192,50017,1,0,0:0:0:0:
64,192,50178,128,0,50819:0:0:0:0:
320,192,50178,1,0,0:0:0:0:
192,192,50498,1,0,0:0:0:0:
448,192,50659,1,0,0:0:0:0:
320,192,50659,1,0,0:0:0:0:
192,192,50819,1,0,0:0:0:0:
320,192,50819,1,0,0:0:0:0:
448,192,50980,1,0,0:0:0:0:
320,192,51140,1,0,0:0:0:0:
192,192,51301,1,0,0:0:0:0:
64,192,51461,128,0,52103:0:0:0:0:
448,192,51461,1,0,0:0:0:0:
192,192,51782,1,0,0:0:0:0:
320,192,52103,1,0,0:0:0:0:
448,192,52103,1,0,0:0:0:0:
448,192,52424,1,0,0:0:0:0:
192,192,52584,1,0,0:0:0:0:
320,192,52584,1,0,0:0:0:0:
192,192,52744,1,0,0:0:0:0:
64,192,52744,128,0,53386:0:0:0:0:
320,192,53065,1,0,0:0:0:0:
448,192,53065,1,0,0:0:0:0:
320,192,53386,1,0,0:0:0:0:
192,192,53386,1,0,0:0:0:0:
448,192,53547,1,0,0:0:0:0:
192,192,53707,1,0,0:0:0:0:
320,192,53707,1,0,0:0:0:0:
64,192,53867,1,0,0:0:0:0:
448,192,54028,128,0,54670:0:0:0:0:
320,192,54028,1,0,0:0:0:0:
64,192,54349,1,0,0:0:0:0:
320,192,54509,1,0,0:0:0:0:
192,192,54670,1,0,0:0:0:0:
64,192,54670,1,0,0:0:0:0:
320,192,54830,1,0,0:0:0:0:
448,192,54990,1,0,0:0:0:0:
64,192,55151,1,0,0:0:0:0:
320,192,55151,1,0,0:0:0:0:
448,192,55311,128,0,55953:0:0:0:0:
192,192,55311,1,0,0:0:0:0:
320,192,55632,1,0,0:0:0:0:
64,192,55793,1,0,0:0:0:0:
192,192,55793,1,0,0:0:0:0:
192,192,55953,1,0,0:0:0:0:
320,192,55953,1,0,0:0:0:0:
64,192,56113,1,0,0:0:0:0:
192,192,56274,1,0,0:0:0:0:
320,192,56434,1,0,0:0:0:0:
64,192,56595,128,0,57236:0:0:0:0:
448,192,56595,1,0,0:0:0:0:
320,192,56916,1,0,0:0:0:0:
192,192,57236,1,0,0:0:0:0:
448,192,57236,1,0,0:0:0:0:
320,192,57557,1,0,0:0:0:0:
192,192,57718,1,0,0:0:0:0:
64,192,57718,1,0,0:0:0:0:
320,192,57878,1,0,0:0:0:0:
448,192,57878,128,0,58520:0:0:0:0:
192,192,58039,1,0,0:0:0:0:
64,192,58199,1,0,0:0:0:0:
192,192,58199,1,0,0:0:0:0:
320,192,58359,1,0,0:0:0:0:
192,192,58520,1,0,0:0:0:0:
64,192,58520,1,0,0:0:0:0:
320,192,58680,1,0,0:0:0:0:
448,192,58841,1,0,0:0:0:0:
192,192,58841,1,0,0:0:0:0:
320,192,59001,1,0,0:0:0:0:
64,192,59162,128,0,59803:0:0:0:0:
448,192,59162,1,0,0:0:0:0:
320,192,59482,1,0,0:0:0:0:
192,192,59643,1,0,0:0:0:0:
320,192,59803,1,0,0:0:0:0:
448,192,59803,1,0,0:0:0:0:
192,192,59964,1,0,0:0:0:0:
64,192,60124,1,0,0:0:0:0:
192,192,60285,1,0,0:0:0:0:
320,192,60285,1,0,0:0:0:0:
448,192,60445,128,0,61087:0:0:0:0:
64,192,60445,1,0,0:0:0:0:
192,192,60766,1,0,0:0:0:0:
320,192,60926,1,0,0:0:0:0:
64,192,60926,1,0,0:0:0:0:
192,192,61087,1,0,0:0:0:0:
320,192,61087,1,0,0:0:0:0:
64,192,61247,1,0,0:0:0:0:
448,192,61407,1,0,0:0:0:0:
320,192,61568,1,0,0:0:0:0:
64,192,61728,128,0,62049:0:0:0:0:
448,192,61728,128,0,62049:0:0:0:0:
192,192,62049,1,0,0:0:0:0:
320,192,62049,1,0,0:0:0:0:
320,192,62210,128,0,62530:0:0:0:0:
192,192,62210,128,0,62530:0:0:0:0:
64,192,62530,1,0,0:0:0:0:
448,192,62530,1,0,0:0:0:0:
64,192,62691,128,0,63012:0:0:0:0:
192,192,62691,128,0,63012:0:0:0:0:
320,192,63012,1,0,0:0:0:0:
448,192,63012,1,0,0:0:0:0:
320,192,63172,128,0,63493:0:0:0:0:
448,192,63172,128,0,63493:0:0:0:0:
192,192,63493,1,0,0:0:0:0:
64,192,63493,1,0,0:0:0:0:
64,192,63653,128,0,63814:0:0:0:0:
192,192,63653,128,0,63814:0:0:0:0:
320,192,63814,1,0,0:0:0:0:
448,192,63814,1,0,0:0:0:0:
320,192,63974,128,0,64295:0:0:0:0:
192,192,63974,128,0,64295:0:0:0:0:
448,192,64295,128,0,64456:0:0:0:0:
64,192,64295,1,0,0:0:0:0:
192,192,64456,128,0,64616:0:0:0:0:
320,192,64616,128,0,64776:0:0:0:0:
64,192,64776,128,0,64937:0:0:0:0:
448,192,64937,128,0,65097:0:0:0:0:
64,192,65097,1,0,0:0:0:0:
192,192,65258,1,0,0:0:0:0:
320,192,65418,1,0,0:0:0:0:
448,192,65579,1,0,0:0:0:0:
64,192,65579,128,0,65899:0:0:0:0:
320,192,65739,1,0,0:0:0:0:
192,192,65899,1,0,0:0:0:0:
448,192,65899,1,0,0:0:0:0:
320,192,66060,1,0,0:0:0:0:
64,192,66220,1,0,0:0:0:0:
320,192,66220,1,0,0:0:0:0:
192,192,66381,1,0,0:0:0:0:
448,192,66541,1,0,0:0:0:0:
64,192,66541,1,0,0:0:0:0:
192,192,66702,128,0,66862:0:0:0:0:
64,192,66862,1,0,0:0:0:0:
448,192,66862,1,0,0:0:0:0:
320,192,67022,1,0,0:0:0:0:
192,192,67183,1,0,0:0:0:0:
448,192,67183,1,0,0:0:0:0:
64,192,67343,1,0,0:0:0:0:
192,192,67504,1,0,0:0:0:0:
320,192,67504,1,0,0:0:0:0:
448,192,67664,1,0,0:0:0:0:
320,192,67744,1,0,0:0:0:0:
192,192,67825,1,0,0:0:0:0:
64,192,67825,1,0,0:0:0:0:
320,192,67985,1,0,0:0:0:0:
64,192,68145,1,0,0:0:0:0:
448,192,68145,1,0,0:0:0:0:
192,192,68306,1,0,0:0:0:0:
320,192,68466,1,0,0:0:0:0:
448,192,68466,1,0,0:0:0:0:
192,192,68627,1,0,0:0:0:0:
448,192,68787,1,0,0:0:0:0:
64,192,68787,1,0,0:0:0:0:
192,192,68948,1,0,0:0:0:0:
448,192,69108,1,0,0:0:0:0:
320,192,69108,1,0,0:0:0:0:
192,192,69268,1,0,0:0:0:0:
64,192,69429,1,0,0:0:0:0:
448,192,69429,1,0,0:0:0:0:
320,192,69589,128,0,69910:0:0:0:0:
64,192,69750,1,0,0:0:0:0:
192,192,69750,1,0,0:0:0:0:
448,192,69910,1,0,0:0:0:0:
64,192,70071,1,0,0:0:0:0:
320,192,70071,1,0,0:0:0:0:
192,192,70231,1,0,0:0:0:0:
448,192,70391,1,0,0:0:0:0:
320,192,70391,1,0,0:0:0:0:
192,192,70552,1,0,0:0:0:0:
448,192,70712,128,0,71033:0:0:0:0:
64,192,70712,1,0,0:0:0:0:
320,192,70873,1,0,0:0:0:0:
64,192,71033,1,0,0:0:0:0:
192,192,71033,1,0,0:0:0:0:
320,192,71194,1,0,0:0:0:0:
320,192,71354,1,0,0:0:0:0:
192,192,71354,1,0,0:0:0:0:
64,192,71514,1,0,0:0:0:0:
448,192,71675,1,0,0:0:0:0:
320,192,71675,1,0,0:0:0:0:
192,192,71835,128,0,72156:0:0:0:0:
64,192,71996,1,0,0:0:0:0:
448,192,71996,1,0,0:0:0:0:
320,192,72156,1,0,0:0:0:0:
448,192,72317,1,0,0:0:0:0:
64,192,72317,1,0,0:0:0:0:
192,192,72477,1,0,0:0:0:0:
320,192,72637,1,0,0:0:0:0:
448,192,72637,1,0,0:0:0:0:
64,192,72798,1,0,0:0:0:0:
192,192,72878,1,0,0:0:0:0:
320,192,72958,1,0,0:0:0:0:
448,192,72958,1,0,0:0:0:0:
192,192,73119,1,0,0:0:0:0:
448,192,73279,128,0,73600:0:0:0:0:
64,192,73279,1,0,0:0:0:0:
192,192,73440,1,0,0:0:0:0:
64,192,73600,128,0,73921:0:0:0:0:
320,192,73600,1,0,0:0:0:0:
192,192,73760,1,0,0:0:0:0:
448,192,73921,1,0,0:0:0:0:
192,192,74081,1,0,0:0:0:0:
320,192,74242,1,0,0:0:0:0:
64,192,74242,1,0,0:0:0:0:
448,192,74402,128,0,74563:0:0:0:0:
64,192,74563,1,0,0:0:0:0:
320,192,74563,1,0,0:0:0:0:
192,192,74723,128,0,74883:0:0:0:0:
448,192,74883,1,0,0:0:0:0:
320,192,74883,1,0,0:0:0:0:
64,192,75044,1,0,0:0:0:0:
192,192,75204,1,0,0:0:0:0:
448,192,75204,1,0,0:0:0:0:
320,192,75365,1,0,0:0:0:0:
192,192,75525,1,0,0:0:0:0:
448,192,75525,1,0,0:0:0:0:
64,192,75686,1,0,0:0:0:0:
448,192,75846,128,0,76167:0:0:0:0:
320,192,75846,1,0,0:0:0:0:
192,192,76006,1,0,0:0:0:0:
64,192,76167,1,0,0:0:0:0:
320,192,76167,1,0,0:0:0:0:
192,192,76327,1,0,0:0:0:0:
192,192,76488,1,0,0:0:0:0:
448,192,76488,1,0,0:0:0:0:
320,192,76648,1,0,0:0:0:0:
192,192,76809,1,0,0:0:0:0:
64,192,76809,1,0,0:0:0:0:
448,192,76969,128,0,77290:0:0:0:0:
320,192,77129,1,0,0:0:0:0:
64,192,77129,1,0,0:0:0:0:
192,192,77290,1,0,0:0:0:0:
64,192,77450,1,0,0:0:0:0:
320,192,77450,1,0,0:0:0:0:
192,192,77611,1,0,0:0:0:0:
448,192,77771,1,0,0:0:0:0:
64,192,77771,1,0,0:0:0:0:
320,192,77932,1,0,0:0:0:0:
192,192,78012,1,0,0:0:0:0:
64,192,78092,1,0,0:0:0:0:
448,192,78092,1,0,0:0:0:0:
320,192,78252,1,0,0:0:0:0:
64,192,78413,1,0,0:0:0:0:
192,192,78413,1,0,0:0:0:0:
320,192,78573,1,0,0:0:0:0:
192,192,78734,1,0,0:0:0:0:
448,192,78734,1,0,0:0:0:0:
64,192,78894,1,0,0:0:0:0:
448,192,79055,1,0,0:0:0:0:
320,192,79055,1,0,0:0:0:0:
192,192,79215,1,0,0:0:0:0:
64,192,79375,1,0,0:0:0:0:
448,192,79375,128,0,79536:0:0:0:0:
320,192,79536,128,0,79696:0:0:0:0:
64,192,79696,1,0,0:0:0:0:
192,192,79696,1,0,0:0:0:0:
448,192,79857,128,0,80178:0:0:0:0:
64,192,80017,1,0,0:0:0:0:
320,192,80017,1,0,0:0:0:0:
192,192,80178,1,0,0:0:0:0:
64,192,80338,1,0,0:0:0:0:
320,192,80338,1,0,0:0:0:0:
448,192,80498,1,0,0:0:0:0:
320,192,80659,1,0,0:0:0:0:
192,192,80659,1,0,0:0:0:0:
64,192,80819,1,0,0:0:0:0:
320,192,80980,128,0,81301:0:0:0:0:
192,192,80980,1,0,0:0:0:0:
448,192,81140,1,0,0:0:0:0:
192,192,81301,1,0,0:0:0:0:
64,192,81301,1,0,0:0:0:0:
448,192,81461,1,0,0:0:0:0:
320,192,81621,1,0,0:0:0:0:
64,192,81621,1,0,0:0:0:0:
192,192,81782,1,0,0:0:0:0:
320,192,81942,1,0,0:0:0:0:
448,192,81942,1,0,0:0:0:0:
64,192,82103,128,0,82263:0:0:0:0:
192,192,82263,1,0,0:0:0:0:
320,192,82263,1,0,0:0:0:0:
448,192,82424,1,0,0:0:0:0:
64,192,82584,1,0,0:0:0:0:
320,192,82584,1,0,0:0:0:0:
192,192,82744,1,0,0:0:0:0:
448,192,82905,1,0,0:0:0:0:
320,192,82905,1,0,0:0:0:0:
64,192,83065,1,0,0:0:0:0:
192,192,83145,1,0,0:0:0:0:
320,192,83226,1,0,0:0:0:0:
64,192,83226,1,0,0:0:0:0:
448,192,83386,1,0,0:0:0:0:
320,192,83547,1,0,0:0:0:0:
64,192,83547,1,0,0:0:0:0:
192,192,83707,1,0,0:0:0:0:
320,192,83867,1,0,0:0:0:0:
448,192,83867,1,0,0:0:0:0:
64,192,84028,1,0,0:0:0:0:
320,192,84188,1,0,0:0:0:0:
192,192,84188,1,0,0:0:0:0:
448,192,84349,1,0,0:0:0:0:
320,192,84509,1,0,0:0:0:0:
64,192,84509,1,0,0:0:0:0:
448,192,84670,128,0,84830:0:0:0:0:
192,192,84990,128,0,85311:0:0:0:0:
64,192,84990,1,0,0:0:0:0:
320,192,85311,1,0,0:0:0:0:
448,192,85311,1,0,0:0:0:0:
192,192,85472,1,0,0:0:0:0:
320,192,85472,1,0,0:0:0:0:
448,192,85632,1,0,0:0:0:0:
64,192,85793,5,0,0:0:0:0:
192,192,85953,1,0,0:0:0:0:
320,192,86113,1,0,0:0:0:0:
448,192,86113,128,0,86755:0:0:0:0:
320,192,86434,1,0,0:0:0:0:
64,192,86434,1,0,0:0:0:0:
192,192,86595,1,0,0:0:0:0:
192,192,86755,1,0,0:0:0:0:
320,192,86755,1,0,0:0:0:0:
64,192,86916,1,0,0:0:0:0:
192,192,87076,1,0,0:0:0:0:
448,192,87076,1,0,0:0:0:0:
320,192,87236,1,0,0:0:0:0:
64,192,87236,1,0,0:0:0:0:
192,192,87397,1,0,0:0:0:0:
448,192,87397,128,0,88039:0:0:0:0:
192,192,87718,1,0,0:0:0:0:
320,192,87718,1,0,0:0:0:0:
192,192,87878,1,0,0:0:0:0:
64,192,87878,1,0,0:0:0:0:
192,192,88039,1,0,0:0:0:0:
320,192,88039,1,0,0:0:0:0:
64,192,88199,1,0,0:0:0:0:
320,192,88359,1,0,0:0:0:0:
448,192,88359,1,0,0:0:0:0:
192,192,88520,1,0,0:0:0:0:
448,192,88680,1,0,0:0:0:0:
64,192,88680,128,0,89322:0:0:0:0:
192,192,89001,1,0,0:0:0:0:
320,192,89001,1,0,0:0:0:0:
320,192,89322,1,0,0:0:0:0:
448,192,89322,1,0,0:0:0:0:
448,192,89643,1,0,0:0:0:0:
320,192,89643,1,0,0:0:0:0:
192,192,89803,1,0,0:0:0:0:
64,192,89803,1,0,0:0:0:0:
320,192,89964,1,0,0:0:0:0:
448,192,89964,128,0,90605:0:0:0:0:
64,192,90124,1,0,0:0:0:0:
64,192,90285,1,0,0:0:0:0:
192,192,90285,1,0,0:0:0:0:
192,192,90445,1,0,0:0:0:0:
64,192,90605,1,0,0:0:0:0:
320,192,90605,1,0,0:0:0:0:
64,192,90766,1,0,0:0:0:0:
192,192,90926,1,0,0:0:0:0:
448,192,90926,1,0,0:0:0:0:
64,192,91087,1,0,0:0:0:0:
320,192,91247,128,0,91889:0:0:0:0:
192,192,91247,1,0,0:0:0:0:
192,192,91568,1,0,0:0:0:0:
64,192,91568,1,0,0:0:0:0:
448,192,91728,1,0,0:0:0:0:
64,192,91889,1,0,0:0:0:0:
192,192,91889,1,0,0:0:0:0:
448,192,92049,1,0,0:0:0:0:
192,192,92210,1,0,0:0:0:0:
320,192,92210,1,0,0:0:0:0:
192,192,92370,1,0,0:0:0:0:
64,192,92370,1,0,0:0:0:0:
448,192,92530,128,0,93172:0:0:0:0:
320,192,92530,1,0,0:0:0:0:
64,192,92851,1,0,0:0:0:0:
192,192,92851,1,0,0:0:0:0:
192,192,93012,1,0,0:0:0:0:
320,192,93012,1,0,0:0:0:0:
64,192,93172,1,0,0:0:0:0:
192,192,93172,1,0,0:0:0:0:
320,192,93333,1,0,0:0:0:0:
192,192,93493,1,0,0:0:0:0:
448,192,93493,1,0,0:0:0:0:
64,192,93653,1,0,0:0:0:0:
320,192,93814,1,0,0:0:0:0:
192,192,93814,128,0,94456:0:0:0:0:
64,192,94135,1,0,0:0:0:0:
448,192,94135,1,0,0:0:0:0:
320,192,94456,1,0,0:0:0:0:
448,192,94456,1,0,0:0:0:0:
64,192,94776,1,0,0:0:0:0:
192,192,94776,1,0,0:0:0:0:
192,192,94937,1,0,0:0:0:0:
320,192,94937,1,0,0:0:0:0:
320,192,95097,1,0,0:0:0:0:
448,192,95097,1,0,0:0:0:0:
64,192,95097,128,0,95739:0:0:0:0:
192,192,95418,1,0,0:0:0:0:
320,192,95418,1,0,0:0:0:0:
192,192,95739,1,0,0:0:0:0:
448,192,95739,1,0,0:0:0:0:
320,192,95899,1,0,0:0:0:0:
64,192,96060,1,0,0:0:0:0:
448,192,96060,1,0,0:0:0:0:
320,192,96220,1,0,0:0:0:0:
448,192,96381,128,0,97022:0:0:0:0:
192,192,96381,1,0,0:0:0:0:
64,192,96702,1,0,0:0:0:0:
192,192,96702,1,0,0:0:0:0:
320,192,96862,1,0,0:0:0:0:
192,192,97022,1,0,0:0:0:0:
64,192,97022,1,0,0:0:0:0:
320,192,97183,1,0,0:0:0:0:
64,192,97343,1,0,0:0:0:0:
192,192,97343,1,0,0:0:0:0:
320,192,97504,1,0,0:0:0:0:
448,192,97504,1,0,0:0:0:0:
192,192,97664,1,0,0:0:0:0:
64,192,97664,128,0,98306:0:0:0:0:
320,192,97985,1,0,0:0:0:0:
448,192,97985,1,0,0:0:0:0:
192,192,98145,1,0,0:0:0:0:
320,192,98145,1,0,0:0:0:0:
448,192,98306,1,0,0:0:0:0:
320,192,98306,1,0,0:0:0:0:
192,192,98466,1,0,0:0:0:0:
320,192,98627,1,0,0:0:0:0:
64,192,98627,1,0,0:0:0:0:
192,192,98787,1,0,0:0:0:0:
320,192,98948,128,0,99589:0:0:0:0:
64,192,98948,1,0,0:0:0:0:
192,192,99268,1,0,0:0:0:0:
448,192,99268,1,0,0:0:0:0:
64,192,99589,1,0,0:0:0:0:
448,192,99589,1,0,0:0:0:0:
64,192,99910,1,0,0:0:0:0:
192,192,99910,1,0,0:0:0:0:
192,192,100071,1,0,0:0:0:0:
320,192,100071,1,0,0:0:0:0:
448,192,100231,1,0,0:0:0:0:
320,192,100231,128,0,100873:0:0:0:0:
64,192,100391,1,0,0:0:0:0:
192,192,100552,1,0,0:0:0:0:
448,192,100552,1,0,0:0:0:0:
64,192,100712,1,0,0:0:0:0:
64,192,100873,1,0,0:0:0:0:
192,192,100873,1,0,0:0:0:0:
320,192,101033,1,0,0:0:0:0:
192,192,101194,1,0,0:0:0:0:
448,192,101194,1,0,0:0:0:0:
320,192,101354,1,0,0:0:0:0:
448,192,101514,128,0,102156:0:0:0:0:
192,192,101514,1,0,0:0:0:0:
192,192,101835,1,0,0:0:0:0:
320,192,101835,1,0,0:0:0:0:
64,192,101996,1,0,0:0:0:0:
320,192,102156,1,0,0:0:0:0:
192,192,102156,1,0,0:0:0:0:
64,192,102317,1,0,0:0:0:0:
192,192,102477,1,0,0:0:0:0:
320,192,102477,1,0,0:0:0:0:
64,192,102637,1,0,0:0:0:0:
448,192,102637,1,0,0:0:0:0:
192,192,102798,1,0,0:0:0:0:
320,192,102798,128,0,103440:0:0:0:0:
64,192,103119,1,0,0:0:0:0:
448,192,103119,1,0,0:0:0:0:
192,192,103279,1,0,0:0:0:0:
64,192,103440,1,0,0:0:0:0:
448,192,103440,1,0,0:0:0:0:
192,192,103600,1,0,0:0:0:0:
64,192,103760,1,0,0:0:0:0:
448,192,103760,1,0,0:0:0:0:
192,192,103921,1,0,0:0:0:0:
64,192,104081,128,0,104402:0:0:0:0:
320,192,104081,128,0,104402:0:0:0:0:
192,192,104402,1,0,0:0:0:0:
448,192,104402,1,0,0:0:0:0:
192,192,104563,128,0,104883:0:0:0:0:
448,192,104563,128,0,104883:0:0:0:0:
320,192,104883,1,0,0:0:0:0:
64,192,104883,1,0,0:0:0:0:
192,192,105044,128,0,105365:0:0:0:0:
320,192,105044,128,0,105365:0:0:0:0:
448,192,105365,1,0,0:0:0:0:
64,192,105365,1,0,0:0:0:0:
64,192,105525,128,0,105846:0:0:0:0:
448,192,105525,128,0,105846:0:0:0:0:
192,192,105846,1,0,0:0:0:0:
320,192,105846,1,0,0:0:0:0:
192,192,106006,128,0,106167:0:0:0:0:
320,192,106006,128,0,106167:0:0:0:0:
448,192,106167,1,0,0:0:0:0:
64,192,106167,1,0,0:0:0:0:
320,192,106327,1,0,0:0:0:0:
192,192,106327,1,0,0:0:0:0:
64,192,106488,1,0,0:0:0:0:
448,192,106648,1,0,0:0:0:0:
320,192,106648,1,0,0:0:0:0:
192,192,106648,128,0,107129:0:0:0:0:
64,192,106969,1,0,0:0:0:0:
320,192,106969,1,0,0:0:0:0:
448,192,107129,1,0,0:0:0:0:
320,192,107290,1,0,0:0:0:0:
64,192,107290,1,0,0:0:0:0:
192,192,107450,1,0,0:0:0:0:
320,192,107530,1,0,0:0:0:0:
448,192,107611,1,0,0:0:0:0:
192,192,107611,1,0,0:0:0:0:
320,192,107691,1,0,0:0:0:0:
64,192,107771,1,0,0:0:0:0:
448,192,107932,1,0,0:0:0:0:
320,192,107932,1,0,0:0:0:0:
64,192,108092,1,0,0:0:0:0:
64,192,108252,128,0,108734:0:0:0:0:
448,192,108252,1,0,0:0:0:0:
320,192,108413,1,0,0:0:0:0:
192,192,108573,1,0,0:0:0:0:
448,192,108573,1,0,0:0:0:0:
320,192,108734,1,0,0:0:0:0:
192,192,108894,1,0,0:0:0:0:
448,192,108894,1,0,0:0:0:0:
64,192,109055,1,0,0:0:0:0:
320,192,109215,1,0,0:0:0:0:
448,192,109215,1,0,0:0:0:0:
192,192,109375,1,0,0:0:0:0:
448,192,109536,1,0,0:0:0:0:
64,192,109536,1,0,0:0:0:0:
320,192,109696,1,0,0:0:0:0:
448,192,109857,1,0,0:0:0:0:
192,192,109857,1,0,0:0:0:0:
320,192,110017,1,0,0:0:0:0:
192,192,110097,1,0,0:0:0:0:
64,192,110178,1,0,0:0:0:0:
320,192,110178,1,0,0:0:0:0:
448,192,110338,128,0,110659:0:0:0:0:
64,192,110498,1,0,0:0:0:0:
320,192,110498,1,0,0:0:0:0:
192,192,110659,1,0,0:0:0:0:
64,192,110739,1,0,0:0:0:0:
192,192,110819,1,0,0:0:0:0:
320,192,110819,1,0,0:0:0:0:
448,192,110980,128,0,111301:0:0:0:0:
192,192,111140,1,0,0:0:0:0:
64,192,111140,1,0,0:0:0:0:
320,192,111301,1,0,0:0:0:0:
192,192,111381,1,0,0:0:0:0:
64,192,111461,1,0,0:0:0:0:
448,192,111461,1,0,0:0:0:0:
192,192,111621,1,0,0:0:0:0:
320,192,111702,1,0,0:0:0:0:
64,192,111782,1,0,0:0:0:0:
448,192,111782,1,0,0:0:0:0:
320,192,111942,1,0,0:0:0:0:
192,192,112103,1,0,0:0:0:0:
448,192,112103,1,0,0:0:0:0:
64,192,112263,1,0,0:0:0:0:
192,192,112424,1,0,0:0:0:0:
320,192,112424,1,0,0:0:0:0:
448,192,112584,1,0,0:0:0:0:
64,192,112744,1,0,0:0:0:0:
320,192,112744,1,0,0:0:0:0:
192,192,112905,128,0,113226:0:0:0:0:
320,192,113065,1,0,0:0:0:0:
448,192,113065,1,0,0:0:0:0:
64,192,113226,1,0,0:0:0:0:
192,192,113386,1,0,0:0:0:0:
320,192,113386,1,0,0:0:0:0:
448,192,113547,128,0,113867:0:0:0:0:
320,192,113707,1,0,0:0:0:0:
64,192,113707,1,0,0:0:0:0:
192,192,113867,1,0,0:0:0:0:
320,192,114028,1,0,0:0:0:0:
64,192,114028,1,0,0:0:0:0:
192,192,114188,1,0,0:0:0:0:
320,192,114268,1,0,0:0:0:0:
64,192,114349,1,0,0:0:0:0:
448,192,114349,1,0,0:0:0:0:
192,192,114509,1,0,0:0:0:0:
64,192,114670,1,0,0:0:0:0:
320,192,114670,1,0,0:0:0:0:
192,192,114750,1,0,0:0:0:0:
320,192,114830,1,0,0:0:0:0:
448,192,114910,1,0,0:0:0:0:
320,192,114990,1,0,0:0:0:0:
64,192,114990,1,0,0:0:0:0:
192,192,115071,1,0,0:0:0:0:
320,192,115151,1,0,0:0:0:0:
448,192,115231,1,0,0:0:0:0:
64,192,115311,1,0,0:0:0:0:
192,192,115311,1,0,0:0:0:0:
320,192,115391,1,0,0:0:0:0:
448,192,115472,1,0,0:0:0:0:
192,192,115552,1,0,0:0:0:0:
64,192,115632,1,0,0:0:0:0:
448,192,115632,1,0,0:0:0:0:
320,192,115712,1,0,0:0:0:0:
192,192,115793,1,0,0:0:0:0:
64,192,115873,1,0,0:0:0:0:
448,192,115953,1,0,0:0:0:0:
192,192,115953,1,0,0:0:0:0:
320,192,116033,1,0,0:0:0:0:
192,192,116113,1,0,0:0:0:0:
64,192,116194,1,0,0:0:0:0:
192,192,116274,1,0,0:0:0:0:
320,192,116274,1,0,0:0:0:0:
448,192,116354,1,0,0:0:0:0:
320,192,116434,1,0,0:0:0:0:
192,192,116514,1,0,0:0:0:0:
448,192,116595,128,0,116916:0:0:0:0:
64,192,116595,1,0,0:0:0:0:
64,192,116916,5,0,0:0:0:0:
192,192,116916,1,0,0:0:0:0:
320,192,117076,1,0,0:0:0:0:
448,192,117236,1,0,0:0:0:0:
192,192,117236,1,0,0:0:0:0:
64,192,117397,1,0,0:0:0:0:
192,192,117557,1,0,0:0:0:0:
320,192,117557,1,0,0:0:0:0:
448,192,117718,1,0,0:0:0:0:
320,192,117798,1,0,0:0:0:0:
448,192,117878,1,0,0:0:0:0:
192,192,117878,1,0,0:0:0:0:
320,192,117958,1,0,0:0:0:0:
64,192,118039,1,0,0:0:0:0:
192,192,118199,1,0,0:0:0:0:
448,192,118199,1,0,0:0:0:0:
320,192,118359,1,0,0:0:0:0:
192,192,118520,1,0,0:0:0:0:
64,192,118520,128,0,119001:0:0:0:0:
320,192,118680,1,0,0:0:0:0:
192,192,118841,1,0,0:0:0:0:
448,192,118841,1,0,0:0:0:0:
320,192,119001,1,0,0:0:0:0:
192,192,119162,1,0,0:0:0:0:
448,192,119162,1,0,0:0:0:0:
64,192,119322,1,0,0:0:0:0:
320,192,119482,1,0,0:0:0:0:
448,192,119482,1,0,0:0:0:0:
192,192,119643,1,0,0:0:0:0:
64,192,119803,1,0,0:0:0:0:
320,192,119803,1,0,0:0:0:0:
448,192,119964,1,0,0:0:0:0:
64,192,120124,1,0,0:0:0:0:
192,192,120124,1,0,0:0:0:0:
320,192,120285,1,0,0:0:0:0:
64,192,120445,1,0,0:0:0:0:
448,192,120445,1,0,0:0:0:0:
320,192,120605,128,0,120926:0:0:0:0:
192,192,120766,1,0,0:0:0:0:
448,192,120766,1,0,0:0:0:0:
64,192,120926,1,0,0:0:0:0:
192,192,121087,1,0,0:0:0:0:
448,192,121087,1,0,0:0:0:0:
192,192,121247,128,0,121568:0:0:0:0:
64,192,121407,1,0,0:0:0:0:
448,192,121407,1,0,0:0:0:0:
320,192,121568,128,0,121889:0:0:0:0:
64,192,121728,1,0,0:0:0:0:
448,192,121728,1,0,0:0:0:0:
192,192,121889,1,0,0:0:0:0:
64,192,122049,5,0,0:0:0:0:
448,192,122049,1,0,0:0:0:0:
320,192,122210,1,0,0:0:0:0:
192,192,122370,1,0,0:0:0:0:
64,192,122370,1,0,0:0:0:0:
192,192,122530,1,0,0:0:0:0:
320,192,122530,1,0,0:0:0:0:
448,192,122691,1,0,0:0:0:0:
192,192,122851,1,0,0:0:0:0:
320,192,122851,1,0,0:0:0:0:
64,192,123012,1,0,0:0:0:0:
448,192,123012,1,0,0:0:0:0:
192,192,123172,1,0,0:0:0:0:
64,192,123333,1,0,0:0:0:0:
320,192,123333,1,0,0:0:0:0:
192,192,123493,1,0,0:0:0:0:
448,192,123493,1,0,0:0:0:0:
320,192,123653,1,0,0:0:0:0:
64,192,123814,1,0,0:0:0:0:
192,192,123814,1,0,0:0:0:0:
320,192,123974,1,0,0:0:0:0:
448,192,123974,1,0,0:0:0:0:
192,192,124055,1,0,0:0:0:0:
320,192,124135,1,0,0:0:0:0:
448,192,124215,1,0,0:0:0:0:
64,192,124295,1,0,0:0:0:0:
192,192,124295,1,0,0:0:0:0:
320,192,124375,1,0,0:0:0:0:
448,192,124456,1,0,0:0:0:0:
192,192,124536,1,0,0:0:0:0:
64,192,124616,1,0,0:0:0:0:
448,192,124616,1,0,0:0:0:0:
320,192,124696,1,0,0:0:0:0:
192,192,124776,1,0,0:0:0:0:
320,192,124857,1,0,0:0:0:0:
192,192,124937,1,0,0:0:0:0:
448,192,124937,1,0,0:0:0:0:
64,192,125017,1,0,0:0:0:0:
192,192,125097,1,0,0:0:0:0:
320,192,125178,1,0,0:0:0:0:
64,192,125258,1,0,0:0:0:0:
448,192,125258,1,0,0:0:0:0:
192,192,125338,1,0,0:0:0:0:
320,192,125418,1,0,0:0:0:0:
192,192,125498,1,0,0:0:0:0:
64,192,125579,1,0,0:0:0:0:
320,192,125579,1,0,0:0:0:0:
448,192,125659,1,0,0:0:0:0:
320,192,125739,1,0,0:0:0:0:
192,192,125819,1,0,0:0:0:0:
64,192,125899,1,0,0:0:0:0:
448,192,125899,1,0,0:0:0:0:
320,192,125980,1,0,0:0:0:0:
192,192,126060,5,0,0:0:0:0:
448,192,126140,1,0,0:0:0:0:
64,192,126220,1,0,0:0:0:0:
320,192,126220,1,0,0:0:0:0:
192,192,126301,1,0,0:0:0:0:
448,192,126381,1,0,0:0:0:0:
192,192,126461,1,0,0:0:0:0:
64,192,126541,1,0,0:0:0:0:
320,192,126541,1,0,0:0:0:0:
448,192,126621,1,0,0:0:0:0:
192,192,126702,128,0,127022:0:0:0:0:
320,192,127022,128,0,127183:0:0:0:0:
448,192,127183,128,0,129750:0:0:0:0:
64,192,127183,1,0,0:0:0:0:
320,192,127343,1,0,0:0:0:0:
64,192,127504,1,0,0:0:0:0:
192,192,127664,1,0,0:0:0:0:
320,192,127825,1,0,0:0:0:0:
64,192,127985,1,0,0:0:0:0:
320,192,128145,1,0,0:0:0:0:
192,192,128306,1,0,0:0:0:0:
64,192,128466,1,0,0:0:0:0:
192,192,128627,1,0,0:0:0:0:
320,192,128787,1,0,0:0:0:0:
64,192,128948,1,0,0:0:0:0:
192,192,129108,1,0,0:0:0:0:
320,192,129268,1,0,0:0:0:0:
192,192,129429,1,0,0:0:0:0:
64,192,129589,1,0,0:0:0:0:
320,192,129750,1,0,0:0:0:0:
64,192,129750,1,0,0:0:0:0:
192,192,129910,1,0,0:0:0:0:
320,192,130071,1,0,0:0:0:0:
192,192,130231,1,0,0:0:0:0:
448,192,130391,1,0,0:0:0:0:
64,192,130552,1,0,0:0:0:0:
192,192,130712,1,0,0:0:0:0:
448,192,130873,1,0,0:0:0:0:
320,192,131033,1,0,0:0:0:0:
64,192,131194,1,0,0:0:0:0:
192,192,131354,1,0,0:0:0:0:
320,192,131514,1,0,0:0:0:0:
448,192,131675,1,0,0:0:0:0:
64,192,131835,1,0,0:0:0:0:
320,192,131996,1,0,0:0:0:0:
448,192,132156,1,0,0:0:0:0:
448,192,132317,1,0,0:0:0:0:
64,192,132317,1,0,0:0:0:0:
192,192,132477,1,0,0:0:0:0:
320,192,132637,1,0,0:0:0:0:
64,192,132798,1,0,0:0:0:0:
448,192,132958,1,0,0:0:0:0:
320,192,133119,1,0,0:0:0:0:
192,192,133279,1,0,0:0:0:0:
448,192,133440,1,0,0:0:0:0:
320,192,133600,1,0,0:0:0:0:
64,192,133760,1,0,0:0:0:0:
192,192,133921,1,0,0:0:0:0:
320,192,134081,1,0,0:0:0:0:
64,192,134242,1,0,0:0:0:0:
192,192,134402,1,0,0:0:0:0:
64,192,134563,1,0,0:0:0:0:
448,192,134723,1,0,0:0:0:0:
64,192,134883,1,0,0:0:0:0:
448,192,134883,1,0,0:0:0:0:
320,192,135044,1,0,0:0:0:0:
192,192,135204,1,0,0:0:0:0:
448,192,135365,1,0,0:0:0:0:
320,192,135525,1,0,0:0:0:0:
192,192,135686,1,0,0:0:0:0:
64,192,135846,1,0,0:0:0:0:
448,192,136006,1,0,0:0:0:0:
192,192,136167,1,0,0:0:0:0:
64,192,136327,1,0,0:0:0:0:
320,192,136488,1,0,0:0:0:0:
64,192,136648,1,0,0:0:0:0:
192,192,136809,1,0,0:0:0:0:
448,192,136969,1,0,0:0:0:0:
320,192,137129,1,0,0:0:0:0:
64,192,137290,128,0,137450:0:0:0:0:
192,192,137450,1,0,0:0:0:0:
448,192,137450,1,0,0:0:0:0:
320,192,137611,1,0,0:0:0:0:
192,192,137771,1,0,0:0:0:0:
64,192,137932,1,0,0:0:0:0:
192,192,138092,1,0,0:0:0:0:
448,192,138252,1,0,0:0:0:0:
320,192,138413,1,0,0:0:0:0:
192,192,138573,1,0,0:0:0:0:
64,192,138734,1,0,0:0:0:0:
320,192,138894,1,0,0:0:0:0:
448,192,139055,1,0,0:0:0:0:
64,192,139215,1,0,0:0:0:0:
192,192,139375,1,0,0:0:0:0:
448,192,139536,1,0,0:0:0:0:
64,192,139696,1,0,0:0:0:0:
320,192,139857,1,0,0:0:0:0:
320,192,140017,1,0,0:0:0:0:
64,192,140017,1,0,0:0:0:0:
448,192,140178,1,0,0:0:0:0:
192,192,140338,1,0,0:0:0:0:
64,192,140498,1,0,0:0:0:0:
192,192,140659,1,0,0:0:0:0:
320,192,140819,1,0,0:0:0:0:
448,192,140980,1,0,0:0:0:0:
448,192,141140,1,0,0:0:0:0:
320,192,141301,1,0,0:0:0:0:
64,192,141461,1,0,0:0:0:0:
192,192,141621,1,0,0:0:0:0:
320,192,141782,1,0,0:0:0:0:
64,192,141942,128,0,142103:0:0:0:0:
320,192,142103,1,0,0:0:0:0:
448,192,142183,1,0,0:0:0:0:
320,192,142263,1,0,0:0:0:0:
64,192,142424,1,0,0:0:0:0:
448,192,142584,1,0,0:0:0:0:
192,192,142584,1,0,0:0:0:0:
64,192,142905,1,0,0:0:0:0:
320,192,142905,1,0,0:0:0:0:
192,192,143226,1,0,0:0:0:0:
448,192,143226,1,0,0:0:0:0:
64,192,143547,1,0,0:0:0:0:
448,192,143547,1,0,0:0:0:0:
320,192,143707,1,0,0:0:0:0:
192,192,143867,1,0,0:0:0:0:
448,192,143867,1,0,0:0:0:0:
64,192,144188,1,0,0:0:0:0:
192,192,144188,1,0,0:0:0:0:
320,192,144509,1,0,0:0:0:0:
448,192,144509,1,0,0:0:0:0:
64,192,144830,1,0,0:0:0:0:
320,192,144830,1,0,0:0:0:0:
192,192,144990,1,0,0:0:0:0:
64,192,145151,1,0,0:0:0:0:
448,192,145151,1,0,0:0:0:0:
192,192,145472,1,0,0:0:0:0:
320,192,145472,1,0,0:0:0:0:
64,192,145793,1,0,0:0:0:0:
192,192,145953,1,0,0:0:0:0:
448,192,146113,1,0,0:0:0:0:
448,192,146274,1,0,0:0:0:0:
320,192,146434,1,0,0:0:0:0:
64,192,146595,1,0,0:0:0:0:
448,192,146755,1,0,0:0:0:0:
320,192,146916,1,0,0:0:0:0:
64,192,147076,128,0,147236:0:0:0:0:
448,192,147236,1,0,0:0:0:0:
320,192,147317,1,0,0:0:0:0:
448,192,147397,1,0,0:0:0:0:
64,192,147557,1,0,0:0:0:0:
448,192,147718,128,0,147878:0:0:0:0:
192,192,147718,1,0,0:0:0:0:
64,192,147878,128,0,148039:0:0:0:0:
320,192,148039,128,0,148199:0:0:0:0:
192,192,148199,128,0,148359:0:0:0:0:
448,192,148359,128,0,148520:0:0:0:0:
64,192,148520,1,0,0:0:0:0:
192,192,148680,1,0,0:0:0:0:
320,192,148841,1,0,0:0:0:0:
448,192,149001,1,0,0:0:0:0:
64,192,149001,128,0,149322:0:0:0:0:
192,192,149162,1,0,0:0:0:0:
320,192,149322,1,0,0:0:0:0:
448,192,149322,1,0,0:0:0:0:
192,192,149482,1,0,0:0:0:0:
64,192,149643,1,0,0:0:0:0:
192,192,149643,1,0,0:0:0:0:
448,192,149803,1,0,0:0:0:0:
64,192,149964,1,0,0:0:0:0:
320,192,149964,1,0,0:0:0:0:
192,192,150124,128,0,150285:0:0:0:0:
64,192,150285,1,0,0:0:0:0:
448,192,150285,1,0,0:0:0:0:
192,192,150445,1,0,0:0:0:0:
64,192,150605,1,0,0:0:0:0:
320,192,150605,1,0,0:0:0:0:
448,192,150766,1,0,0:0:0:0:
64,192,150926,1,0,0:0:0:0:
192,192,150926,1,0,0:0:0:0:
320,192,151087,1,0,0:0:0:0:
192,192,151167,1,0,0:0:0:0:
64,192,151247,1,0,0:0:0:0:
448,192,151247,1,0,0:0:0:0:
192,192,151407,1,0,0:0:0:0:
64,192,151568,1,0,0:0:0:0:
320,192,151568,1,0,0:0:0:0:
448,192,151728,1,0,0:0:0:0:
64,192,151889,1,0,0:0:0:0:
192,192,151889,1,0,0:0:0:0:
448,192,152049,1,0,0:0:0:0:
64,192,152210,1,0,0:0:0:0:
320,192,152210,1,0,0:0:0:0:
192,192,152370,1,0,0:0:0:0:
320,192,152530,1,0,0:0:0:0:
448,192,152530,128,0,152691:0:0:0:0:
64,192,152691,128,0,152851:0:0:0:0:
192,192,152691,1,0,0:0:0:0:
320,192,152851,1,0,0:0:0:0:
448,192,152851,1,0,0:0:0:0:
192,192,153012,128,0,153333:0:0:0:0:
448,192,153172,1,0,0:0:0:0:
64,192,153172,1,0,0:0:0:0:
320,192,153333,1,0,0:0:0:0:
448,192,153493,1,0,0:0:0:0:
64,192,153493,1,0,0:0:0:0:
192,192,153653,1,0,0:0:0:0:
320,192,153814,1,0,0:0:0:0:
64,192,153814,1,0,0:0:0:0:
192,192,153974,1,0,0:0:0:0:
64,192,154135,128,0,154456:0:0:0:0:
448,192,154135,1,0,0:0:0:0:
192,192,154295,1,0,0:0:0:0:
320,192,154456,1,0,0:0:0:0:
448,192,154456,1,0,0:0:0:0:
192,192,154616,1,0,0:0:0:0:
192,192,154776,1,0,0:0:0:0:
448,192,154776,1,0,0:0:0:0:
320,192,154937,1,0,0:0:0:0:
192,192,155097,1,0,0:0:0:0:
64,192,155097,1,0,0:0:0:0:
448,192,155258,128,0,155579:0:0:0:0:
64,192,155418,1,0,0:0:0:0:
192,192,155418,1,0,0:0:0:0:
320,192,155579,1,0,0:0:0:0:
64,192,155739,1,0,0:0:0:0:
448,192,155739,1,0,0:0:0:0:
192,192,155899,1,0,0:0:0:0:
320,192,156060,1,0,0:0:0:0:
448,192,156220,1,0,0:0:0:0:
320,192,156301,1,0,0:0:0:0:
192,192,156381,1,0,0:0:0:0:
448,192,156381,1,0,0:0:0:0:
64,192,156541,1,0,0:0:0:0:
448,192,156702,128,0,157022:0:0:0:0:
320,192,156702,1,0,0:0:0:0:
192,192,156702,1,0,0:0:0:0:
64,192,156862,1,0,0:0:0:0:
320,192,157022,128,0,157343:0:0:0:0:
64,192,157343,1,0,0:0:0:0:
448,192,157343,1,0,0:0:0:0:
192,192,157504,1,0,0:0:0:0:
64,192,157664,1,0,0:0:0:0:
320,192,157664,1,0,0:0:0:0:
192,192,157825,128,0,157985:0:0:0:0:
64,192,157985,1,0,0:0:0:0:
320,192,157985,1,0,0:0:0:0:
448,192,158145,128,0,158306:0:0:0:0:
192,192,158306,1,0,0:0:0:0:
320,192,158306,1,0,0:0:0:0:
64,192,158466,1,0,0:0:0:0:
192,192,158627,1,0,0:0:0:0:
448,192,158627,1,0,0:0:0:0:
320,192,158787,1,0,0:0:0:0:
64,192,158948,1,0,0:0:0:0:
448,192,158948,1,0,0:0:0:0:
192,192,159108,1,0,0:0:0:0:
448,192,159268,128,0,159589:0:0:0:0:
64,192,159268,1,0,0:0:0:0:
320,192,159268,1,0,0:0:0:0:
192,192,159429,1,0,0:0:0:0:
64,192,159589,1,0,0:0:0:0:
192,192,159589,1,0,0:0:0:0:
320,192,159750,1,0,0:0:0:0:
192,192,159910,1,0,0:0:0:0:
448,192,159910,1,0,0:0:0:0:
320,192,160071,1,0,0:0:0:0:
64,192,160231,1,0,0:0:0:0:
192,192,160231,1,0,0:0:0:0:
448,192,160391,128,0,160712:0:0:0:0:
320,192,160552,1,0,0:0:0:0:
192,192,160552,1,0,0:0:0:0:
64,192,160712,1,0,0:0:0:0:
320,192,160873,1,0,0:0:0:0:
192,192,160873,1,0,0:0:0:0:
448,192,161033,1,0,0:0:0:0:
64,192,161194,1,0,0:0:0:0:
320,192,161194,1,0,0:0:0:0:
192,192,161354,1,0,0:0:0:0:
320,192,161434,1,0,0:0:0:0:
448,192,161514,1,0,0:0:0:0:
64,192,161514,1,0,0:0:0:0:
320,192,161675,1,0,0:0:0:0:
192,192,161835,1,0,0:0:0:0:
448,192,161835,1,0,0:0:0:0:
320,192,161996,1,0,0:0:0:0:
192,192,162156,1,0,0:0:0:0:
64,192,162156,1,0,0:0:0:0:
320,192,162317,1,0,0:0:0:0:
192,192,162477,1,0,0:0:0:0:
448,192,162477,1,0,0:0:0:0:
320,192,162637,1,0,0:0:0:0:
64,192,162798,128,0,162958:0:0:0:0:
448,192,162798,1,0,0:0:0:0:
192,192,162958,128,0,163119:0:0:0:0:
320,192,163119,1,0,0:0:0:0:
448,192,163119,1,0,0:0:0:0:
64,192,163279,128,0,163600:0:0:0:0:
448,192,163440,1,0,0:0:0:0:
320,192,163440,1,0,0:0:0:0:
192,192,163600,1,0,0:0:0:0:
448,192,163760,1,0,0:0:0:0:
320,192,163760,1,0,0:0:0:0:
64,192,163921,1,0,0:0:0:0:
192,192,164081,1,0,0:0:0:0:
448,192,164081,1,0,0:0:0:0:
320,192,164242,1,0,0:0:0:0:
448,192,164402,128,0,164723:0:0:0:0:
192,192,164402,1,0,0:0:0:0:
64,192,164402,1,0,0:0:0:0:
320,192,164563,1,0,0:0:0:0:
192,192,164723,1,0,0:0:0:0:
64,192,164723,1,0,0:0:0:0:
320,192,164883,1,0,0:0:0:0:
64,192,165044,1,0,0:0:0:0:
320,192,165044,1,0,0:0:0:0:
192,192,165204,1,0,0:0:0:0:
320,192,165365,1,0,0:0:0:0:
448,192,165365,1,0,0:0:0:0:
64,192,165525,128,0,165686:0:0:0:0:
192,192,165686,1,0,0:0:0:0:
448,192,165686,1,0,0:0:0:0:
320,192,165846,1,0,0:0:0:0:
192,192,166006,1,0,0:0:0:0:
64,192,166006,1,0,0:0:0:0:
320,192,166167,1,0,0:0:0:0:
448,192,166327,1,0,0:0:0:0:
64,192,166327,1,0,0:0:0:0:
192,192,166488,1,0,0:0:0:0:
320,192,166568,1,0,0:0:0:0:
448,192,166648,1,0,0:0:0:0:
64,192,166648,1,0,0:0:0:0:
192,192,166809,1,0,0:0:0:0:
64,192,166969,5,0,0:0:0:0:
448,192,166969,1,0,0:0:0:0:
320,192,167129,1,0,0:0:0:0:
64,192,167290,1,0,0:0:0:0:
192,192,167290,1,0,0:0:0:0:
448,192,167450,1,0,0:0:0:0:
320,192,167611,1,0,0:0:0:0:
64,192,167611,1,0,0:0:0:0:
192,192,167771,1,0,0:0:0:0:
320,192,167932,1,0,0:0:0:0:
448,192,167932,1,0,0:0:0:0:
192,192,168092,128,0,168252:0:0:0:0:
448,192,168413,128,0,168734:0:0:0:0:
320,192,168413,1,0,0:0:0:0:
320,192,168734,1,0,0:0:0:0:
192,192,168734,1,0,0:0:0:0:
192,192,168894,1,0,0:0:0:0:
64,192,168894,1,0,0:0:0:0:
448,192,169055,1,0,0:0:0:0:
192,192,169215,1,0,0:0:0:0:
320,192,169375,1,0,0:0:0:0:
64,192,169536,1,0,0:0:0:0:
448,192,169536,1,0,0:0:0:0:
192,192,169696,1,0,0:0:0:0:
448,192,169857,1,0,0:0:0:0:
64,192,170017,1,0,0:0:0:0:
320,192,170178,1,0,0:0:0:0:
64,192,170338,1,0,0:0:0:0:
192,192,170498,1,0,0:0:0:0:
448,192,170659,1,0,0:0:0:0:
64,192,170819,1,0,0:0:0:0:
320,192,170980,1,0,0:0:0:0:
192,192,171140,1,0,0:0:0:0:
448,192,171301,1,0,0:0:0:0:
64,192,171461,1,0,0:0:0:0:
192,192,171621,1,0,0:0:0:0:
320,192,171782,1,0,0:0:0:0:
448,192,171942,1,0,0:0:0:0:
64,192,172103,1,0,0:0:0:0:
448,192,172103,1,0,0:0:0:0:
192,192,172263,1,0,0:0:0:0:
448,192,172424,1,0,0:0:0:0:
320,192,172584,1,0,0:0:0:0:
64,192,172744,1,0,0:0:0:0:
192,192,172905,1,0,0:0:0:0:
320,192,173065,1,0,0:0:0:0:
64,192,173226,1,0,0:0:0:0:
192,192,173386,1,0,0:0:0:0:
448,192,173547,1,0,0:0:0:0:
192,192,173707,1,0,0:0:0:0:
320,192,173867,1,0,0:0:0:0:
64,192,174028,1,0,0:0:0:0:
320,192,174188,1,0,0:0:0:0:
192,192,174349,1,0,0:0:0:0:
448,192,174509,1,0,0:0:0:0:
64,192,174670,1,0,0:0:0:0:
448,192,174670,1,0,0:0:0:0:
192,192,174830,1,0,0:0:0:0:
448,192,174990,1,0,0:0:0:0:
64,192,175151,1,0,0:0:0:0:
320,192,175311,1,0,0:0:0:0:
64,192,175472,1,0,0:0:0:0:
448,192,175632,1,0,0:0:0:0:
192,192,175793,1,0,0:0:0:0:
320,192,175953,1,0,0:0:0:0:
64,192,176113,1,0,0:0:0:0:
448,192,176274,1,0,0:0:0:0:
64,192,176434,1,0,0:0:0:0:
192,192,176595,1,0,0:0:0:0:
448,192,176755,1,0,0:0:0:0:
64,192,176916,1,0,0:0:0:0:
320,192,177076,1,0,0:0:0:0:
64,192,177236,1,0,0:0:0:0:
320,192,177236,1,0,0:0:0:0:
448,192,177397,1,0,0:0:0:0:
192,192,177557,1,0,0:0:0:0:
320,192,177718,1,0,0:0:0:0:
64,192,177878,1,0,0:0:0:0:
448,192,178039,1,0,0:0:0:0:
192,192,178199,1,0,0:0:0:0:
320,192,178359,1,0,0:0:0:0:
64,192,178520,1,0,0:0:0:0:
448,192,178680,1,0,0:0:0:0:
192,192,178841,1,0,0:0:0:0:
320,192,179001,1,0,0:0:0:0:
64,192,179162,1,0,0:0:0:0:
320,192,179322,1,0,0:0:0:0:
448,192,179482,1,0,0:0:0:0:
192,192,179643,1,0,0:0:0:0:
320,192,179723,1,0,0:0:0:0:
448,192,179803,128,0,181087:0:0:0:0:
