osu file format v14

[General]
AudioFilename: audio.mp3
AudioLeadIn: 0
PreviewTime: 64297
Countdown: 0
SampleSet: Soft
StackLeniency: 0.7
Mode: 2
LetterboxInBreaks: 0
WidescreenStoryboard: 1

[Editor]
DistanceSpacing: 0.8
BeatDivisor: 4
GridSize: 16
TimelineZoom: 2.7

[Metadata]
Title:Magical Musical Master
TitleUnicode:Magical Musical Master
Artist:Sakuzyo
ArtistUnicode:削除
Creator:Rocma
Version:Overdose
Source:
Tags:VitMaster remix Pop Candy Wonderland artcore Nelly Jemzuu AJamez electronic instrumental
BeatmapID:2294641
BeatmapSetID:1097927

[Difficulty]
HPDrainRate:5
CircleSize:3.8
OverallDifficulty:9
ApproachRate:9
SliderMultiplier:1.92
SliderTickRate:2

[Events]
//Background and Video events
0,0,"bg.jpg",0,0
//Break Periods
2,129939,136840
//Storyboard Layer 0 (Background)
//Storyboard Layer 1 (Fail)
//Storyboard Layer 2 (Pass)
//Storyboard Layer 3 (Foreground)
//Storyboard Layer 4 (Overlay)
//Storyboard Sound Samples

[TimingPoints]
114,320.855614973262,4,2,2,30,1,0
755,-100,4,2,2,35,0,0
1397,-100,4,2,2,30,0,0
23215,-100,4,2,2,50,0,0
65568,-100,4,2,2,70,0,1
86103,-100,4,2,2,50,0,0
148991,-100,4,2,2,70,0,1
169525,-100,4,2,2,50,0,0
172092,-100,4,2,2,40,0,0
174659,-100,4,2,2,30,0,0
177226,-100,4,2,2,20,0,0
178509,-100,4,2,2,30,0,0
178830,-100,4,2,2,40,0,0
179151,-100,4,2,2,50,0,0
179472,-100,4,2,2,60,0,0

[Colours]
Combo1 : 0,128,255
Combo2 : 128,255,255

[HitObjects]
256,192,434,12,0,1075,0:0:0:0:
224,304,1397,5,4,0:3:0:0:
133,283,1557,1,0,0:0:0:0:
92,200,1717,1,2,0:3:0:0:
133,116,1878,1,0,0:0:0:0:
224,304,2039,1,0,0:0:0:0:
314,283,2199,1,0,0:0:0:0:
355,200,2359,1,2,0:3:0:0:
314,116,2520,1,0,0:0:0:0:
208,224,2680,6,0,L|192:128,3,96,0|0|2|0,0:0|0:0|0:3|0:0,0:0:0:0:
96,144,3322,2,0,L|112:48,3,96,0|0|2|0,0:0|0:0|0:3|0:0,0:0:0:0:
256,48,3964,5,4,0:3:0:0:
344,76,4124,1,0,0:0:0:0:
381,162,4284,1,2,0:3:0:0:
343,247,4445,1,0,0:0:0:0:
254,274,4605,1,0,0:0:0:0:
344,76,4766,1,0,0:0:0:0:
381,162,4926,1,2,0:3:0:0:
343,247,5087,1,0,0:0:0:0:
224,240,5247,6,0,L|208:144,3,96,0|0|2|0,0:0|0:0|0:3|0:0,0:0:0:0:
320,192,5889,2,0,L|336:96,3,96,0|0|2|0,0:0|0:0|0:3|0:0,0:0:0:0:
192,80,6531,5,4,0:3:0:0:
106,117,6691,1,0,0:0:0:0:
70,204,6851,1,2,0:3:0:0:
104,291,7012,1,0,0:0:0:0:
189,330,7172,1,0,0:0:0:0:
275,291,7333,1,0,0:0:0:0:
189,330,7493,1,2,0:3:0:0:
104,291,7654,1,0,0:0:0:0:
224,256,7814,6,0,L|272:128,3,96,0|0|2|0,0:0|0:0|0:3|0:0,0:0:0:0:
368,192,8456,2,0,L|416:64,3,96,0|0|2|0,0:0|0:0|0:3|0:0,0:0:0:0:
256,64,9097,5,4,0:3:0:0:
164,86,9257,1,0,0:0:0:0:
99,154,9417,1,2,0:3:0:0:
80,247,9578,1,0,0:0:0:0:
154,187,9739,1,0,0:0:0:0:
229,247,9899,1,0,0:0:0:0:
154,187,10060,1,2,0:3:0:0:
80,247,10220,1,0,0:0:0:0:
224,192,10381,6,0,L|256:80,1,96,0|0,0:0|0:0,0:0:0:0:
160,128,10702,2,0,L|128:16,1,96,2|0,0:3|0:0,0:0:0:0:
272,160,11023,2,0,L|304:48,1,96,0|0,0:0|0:0,0:0:0:0:
208,96,11344,2,0,L|176:-16,1,96,2|0,0:3|0:0,0:0:0:0:
448,48,11664,6,0,L|464:176,1,96,2|0,0:0|0:0,0:0:0:0:
352,144,11985,2,0,L|336:272,1,96,0|0,0:0|0:0,0:0:0:0:
448,256,12306,1,2,0:3:0:0:
336,256,12466,1,0,0:0:0:0:
448,256,12627,2,0,L|464:368,1,96,0|0,0:0|0:0,0:0:0:0:
304,48,12948,6,0,L|288:176,1,96,2|0,0:3|0:0,0:0:0:0:
400,144,13269,2,0,L|416:272,1,96,0|0,0:0|0:0,0:0:0:0:
304,256,13589,2,0,L|288:368,1,96,2|0,0:3|0:0,0:0:0:0:
402,351,13910,1,0,0:0:0:0:
290,351,14070,1,0,0:0:0:0:
132,47,14231,6,0,L|116:175,1,96,2|0,0:0|0:0,0:0:0:0:
228,143,14552,2,0,L|244:271,1,96,0|0,0:0|0:0,0:0:0:0:
132,255,14873,1,2,0:3:0:0:
244,255,15033,1,0,0:0:0:0:
132,255,15194,1,0,0:0:0:0:
244,255,15354,1,0,0:0:0:0:
96,48,15515,6,0,L|80:176,1,96,2|0,0:3|0:0,0:0:0:0:
192,144,15836,2,0,L|208:272,1,96,0|0,0:0|0:0,0:0:0:0:
96,256,16156,2,0,L|80:368,1,96,2|0,0:3|0:0,0:0:0:0:
135,353,16397,1,0,0:0:0:0:
194,351,16477,1,0,0:0:0:0:
82,351,16637,1,0,0:0:0:0:
340,319,16798,6,0,L|404:223,1,96,2|0,0:0|0:0,0:0:0:0:
292,239,17119,2,0,L|228:143,1,96,0|0,0:0|0:0,0:0:0:0:
340,159,17440,2,0,L|276:63,1,96,2|0,0:3|0:0,0:0:0:0:
180,47,17761,1,0,0:0:0:0:
286,79,17921,1,0,0:0:0:0:
436,111,18081,6,0,L|382:190,1,96,2|0,0:3|0:0,0:0:0:0:
276,207,18402,2,0,L|329:286,1,96,0|0,0:0|0:0,0:0:0:0:
436,255,18723,2,0,L|489:334,1,96,2|0,0:3|0:0,0:0:0:0:
372,351,19044,1,0,0:0:0:0:
489,334,19204,1,0,0:0:0:0:
238,319,19365,5,2,0:0:0:0:
191,313,19445,1,0,0:0:0:0:
154,282,19525,1,0,0:0:0:0:
141,237,19605,1,0,0:0:0:0:
154,191,19685,1,0,0:0:0:0:
190,160,19766,1,0,0:0:0:0:
237,154,19846,1,0,0:0:0:0:
286,159,19926,1,0,0:0:0:0:
446,175,20007,5,2,0:3:0:0:
479,206,20087,1,0,0:0:0:0:
472,252,20167,1,0,0:0:0:0:
431,272,20247,1,0,0:0:0:0:
270,255,20327,2,0,L|206:255,1,48,0|0,0:0|0:0,0:0:0:0:
398,191,20488,2,0,L|478:191,1,48,0|0,0:0|0:0,0:0:0:0:
233,179,20648,5,2,0:3:0:0:
187,175,20728,1,0,0:0:0:0:
168,133,20808,1,0,0:0:0:0:
196,97,20888,1,0,0:0:0:0:
345,99,20969,1,0,0:0:0:0:
390,95,21049,1,0,0:0:0:0:
409,53,21129,1,0,0:0:0:0:
381,17,21209,1,0,0:0:0:0:
144,16,21290,6,0,L|96:16,1,48,2|0,0:3|0:0,0:0:0:0:
240,16,21450,2,0,L|288:16,1,48,0|0,0:0|0:0,0:0:0:0:
432,96,21611,2,0,L|480:96,1,48,2|0,0:3|0:0,0:0:0:0:
336,96,21771,2,0,L|288:96,1,48,0|0,0:0|0:0,0:0:0:0:
112,96,21932,5,2,0:0:0:0:
256,192,22092,12,0,22894,0:0:0:0:
160,272,23215,6,0,P|112:240|180:136,1,192,2|8,0:0|0:0,0:0:0:0:
272,128,23696,1,0,0:0:0:0:
416,128,23857,2,0,L|224:128,1,192,0|8,0:0|0:0,0:0:0:0:
448,224,24499,6,0,L|256:224,1,192,2|8,0:0|0:0,0:0:0:0:
128,224,24980,2,0,L|192:224,1,48,0|0,0:0|0:0,0:0:0:0:
272,192,25140,2,0,L|160:192,1,96,0|0,0:0|0:0,0:0:0:0:
48,160,25461,2,0,L|160:160,1,96,8|0,0:0|0:0,0:0:0:0:
368,160,25782,6,0,L|480:160,1,96,2|0,0:0|0:0,0:0:0:0:
352,112,26103,2,0,L|256:112,1,96,8|0,0:0|0:0,0:0:0:0:
368,224,26424,2,0,P|432:272|336:336,1,192,0|8,0:0|0:0,0:0:0:0:
144,224,27065,2,0,P|80:272|176:336,1,192,0|8,0:0|0:0,0:0:0:0:
240,352,27547,1,0,0:0:0:0:
464,336,27707,2,0,L|368:336,2,96,0|8|8,0:0|0:0|0:0,0:0:0:0:
80,352,28349,6,0,P|96:288|208:240,1,192,2|8,0:0|0:0,0:0:0:0:
96,192,28830,1,0,0:0:0:0:
240,176,28991,2,0,L|448:176,1,192,0|8,0:0|0:0,0:0:0:0:
208,96,29632,2,0,L|400:96,1,192,2|8,0:0|0:0,0:0:0:0:
272,48,30113,2,0,L|208:48,1,48,0|0,0:0|0:0,0:0:0:0:
304,112,30274,2,0,L|400:112,1,96,0|0,0:0|0:0,0:0:0:0:
288,192,30595,2,0,L|400:192,1,96,8|0,0:0|0:0,0:0:0:0:
128,320,30916,6,0,L|112:208,1,96,2|0,0:0|0:0,0:0:0:0:
368,240,31236,2,0,L|384:128,1,96,8|0,0:0|0:0,0:0:0:0:
256,112,31557,2,0,L|64:112,1,192,0|8,0:0|0:0,0:0:0:0:
288,208,32199,2,0,L|64:208,1,192,0|8,0:0|0:0,0:0:0:0:
224,272,32680,2,0,L|272:272,1,48,0|0,0:0|0:0,0:0:0:0:
112,240,32841,6,0,L|0:240,1,96,0|8,0:0|0:0,0:0:0:0:
144,160,33162,2,0,L|256:160,1,96,8|0,0:0|0:0,0:0:0:0:
480,272,33482,6,0,P|448:208|304:176,1,192,2|2,0:0|0:0,0:0:0:0:
448,112,33964,1,8,0:0:0:0:
336,96,34124,2,0,L|320:224,1,96,0|2,0:0|0:0,0:0:0:0:
432,224,34445,1,0,0:0:0:0:
32,272,34766,6,0,P|64:208|208:176,1,192,2|2,0:0|0:0,0:0:0:0:
288,96,35248,1,8,0:0:0:0:
160,96,35408,2,0,L|176:224,1,96,0|2,0:0|0:0,0:0:0:0:
304,208,35729,1,0,0:0:0:0:
80,320,36049,6,0,P|80:240|192:224,1,192,2|2,0:0|0:0,0:0:0:0:
288,208,36531,2,0,P|288:128|176:112,1,192,8|2,0:0|0:0,0:0:0:0:
80,96,37012,2,0,L|192:96,2,96,0|8|0,0:0|0:0|0:0,0:0:0:0:
304,96,37493,2,0,L|320:208,1,96,8|8,0:0|0:0,0:0:0:0:
208,224,37814,1,0,0:0:0:0:
448,272,37974,2,0,L|432:176,1,96,2|0,0:0|0:0,0:0:0:0:
304,160,38295,2,0,L|416:160,1,96,8|0,0:0|0:0,0:0:0:0:
176,128,38616,6,0,P|112:176|208:224,1,192,2|8,0:0|0:0,0:0:0:0:
288,240,39097,1,0,0:0:0:0:
176,304,39258,2,0,L|160:208,1,96,0|0,0:0|0:0,0:0:0:0:
288,208,39579,2,0,L|304:112,1,96,8|0,0:0|0:0,0:0:0:0:
448,96,39900,6,0,P|448:176|336:224,1,192,0|8,0:0|0:0,0:0:0:0:
208,240,40381,1,0,0:0:0:0:
352,288,40541,2,0,L|448:288,1,96,0|0,0:0|0:0,0:0:0:0:
304,256,40862,2,0,L|416:256,1,96,8|0,0:0|0:0,0:0:0:0:
176,304,41183,5,2,0:0:0:0:
130,294,41263,1,0,0:0:0:0:
112,252,41343,1,2,0:3:0:0:
136,213,41423,1,0,0:0:0:0:
299,190,41504,2,0,L|353:188,1,48,8|0,0:0|0:0,0:0:0:0:
189,154,41664,2,0,L|122:156,1,48,0|0,0:0|0:0,0:0:0:0:
338,215,41825,5,2,0:3:0:0:
384,205,41905,1,0,0:0:0:0:
402,163,41985,1,2,0:3:0:0:
378,124,42065,1,0,0:0:0:0:
215,101,42146,2,0,L|161:99,1,48,8|0,0:0|0:0,0:0:0:0:
325,65,42306,2,0,L|392:67,1,48,0|0,0:0|0:0,0:0:0:0:
197,235,42466,6,0,L|181:187,3,48,2|0|2|0,0:3|0:0|0:3|0:0,0:0:0:0:
262,174,42787,2,0,L|278:126,3,48,2|0|2|0,0:3|0:0|0:3|0:0,0:0:0:0:
96,304,43108,2,0,L|80:256,1,48,2|0,0:3|0:0,0:0:0:0:
256,224,43269,2,0,L|368:224,2,96,8|8|0,0:0|0:0|0:0,0:0:0:0:
496,304,43750,6,0,L|496:96,1,192,2|0,0:0|0:0,0:0:0:0:
400,112,44231,1,0,0:0:0:0:
256,128,44392,2,0,L|368:128,1,96,8|0,0:0|0:0,0:0:0:0:
448,192,44712,2,0,L|352:192,1,96,0|2,0:0|0:0,0:0:0:0:
112,304,45033,6,0,L|112:96,1,192,2|0,0:0|0:0,0:0:0:0:
208,112,45514,1,2,0:0:0:0:
352,128,45675,2,0,L|240:128,1,96,8|0,0:0|0:0,0:0:0:0:
160,192,45995,2,0,L|256:192,1,96,0|2,0:0|0:0,0:0:0:0:
16,320,46317,6,0,L|16:128,1,192,2|2,0:0|0:3,0:0:0:0:
304,320,46958,2,0,L|304:112,1,192,8|2,0:0|0:3,0:0:0:0:
208,128,47440,1,2,0:0:0:0:
352,128,47600,6,0,L|448:128,2,96,2|0|2,0:0|0:0|0:0,0:0:0:0:
208,192,48081,1,0,0:0:0:0:
352,208,48242,1,8,0:0:0:0:
448,192,48402,2,0,L|432:80,1,96,0|2,0:0|0:0,0:0:0:0:
336,112,48723,1,0,0:0:0:0:
16,304,48884,6,0,L|16:96,1,192,2|0,0:0|0:0,0:0:0:0:
112,112,49365,1,0,0:0:0:0:
256,128,49526,2,0,L|144:128,1,96,8|0,0:0|0:0,0:0:0:0:
64,192,49846,2,0,L|160:192,1,96,0|2,0:0|0:0,0:0:0:0:
400,304,50167,6,0,L|400:96,1,192,2|0,0:0|0:0,0:0:0:0:
304,112,50648,1,2,0:0:0:0:
160,128,50809,2,0,L|272:128,1,96,8|0,0:0|0:0,0:0:0:0:
352,192,51129,2,0,L|256:192,1,96,0|2,0:0|0:0,0:0:0:0:
496,320,51451,6,0,L|496:128,1,192,2|2,0:0|0:3,0:0:0:0:
208,320,52092,2,0,L|208:112,1,192,8|2,0:0|0:3,0:0:0:0:
304,128,52574,1,2,0:0:0:0:
160,208,52734,6,0,P|96:160|176:112,1,192,2|2,0:0|0:0,0:0:0:0:
304,192,53215,1,0,0:0:0:0:
160,208,53376,1,8,0:0:0:0:
32,160,53536,2,0,L|144:160,2,96,0|2|0,0:0|0:0|0:0,0:0:0:0:
256,160,54017,6,0,L|464:160,1,192,2|0,0:0|0:0,0:0:0:0:
352,160,54499,1,0,0:0:0:0:
480,240,54659,2,0,L|496:352,1,96,8|0,0:0|0:0,0:0:0:0:
384,336,54980,2,0,L|480:336,1,96,0|2,0:0|0:0,0:0:0:0:
256,160,55301,6,0,L|48:160,1,192,2|0,0:0|0:0,0:0:0:0:
160,160,55783,1,2,0:0:0:0:
32,240,55943,2,0,L|16:352,1,96,8|0,0:0|0:0,0:0:0:0:
128,336,56264,2,0,L|32:336,1,96,0|0,0:0|0:0,0:0:0:0:
288,320,56584,6,0,L|496:320,1,192,2|2,0:0|0:3,0:0:0:0:
224,320,57226,2,0,L|16:320,1,192,8|2,0:0|0:3,0:0:0:0:
128,320,57707,1,2,0:0:0:0:
272,320,57868,6,0,L|384:320,1,96,2|0,0:0|0:0,0:0:0:0:
240,320,58188,2,0,L|224:224,1,96,2|0,0:0|0:0,0:0:0:0:
336,208,58509,1,8,0:0:0:0:
192,176,58670,2,0,L|96:176,2,96,0|2|0,0:0|0:0|0:0,0:0:0:0:
432,176,59151,6,0,P|491:236|432:304,1,192,2|0,0:0|0:0,0:0:0:0:
336,304,59632,1,0,0:0:0:0:
192,272,59793,2,0,L|288:272,1,96,8|0,0:0|0:0,0:0:0:0:
400,240,60113,2,0,L|288:240,1,96,0|2,0:0|0:0,0:0:0:0:
80,176,60434,6,0,P|21:236|80:304,1,192,2|0,0:0|0:0,0:0:0:0:
176,304,60915,1,2,0:0:0:0:
320,272,61076,2,0,L|224:272,1,96,8|0,0:0|0:0,0:0:0:0:
98,241,61396,2,0,L|210:241,1,96,0|2,0:0|0:0,0:0:0:0:
428,230,61718,5,2,0:0:0:0:
465,203,61798,1,0,0:0:0:0:
460,157,61878,1,0,0:0:0:0:
419,139,61958,1,0,0:0:0:0:
256,112,62039,1,8,0:0:0:0:
129,80,62199,1,2,0:0:0:0:
142,125,62279,1,0,0:0:0:0:
176,159,62359,1,0,0:0:0:0:
221,173,62439,1,0,0:0:0:0:
382,183,62520,1,8,0:0:0:0:
84,230,62680,5,2,0:0:0:0:
46,203,62760,1,0,0:0:0:0:
51,157,62840,1,2,0:0:0:0:
92,139,62920,1,0,0:0:0:0:
256,112,63001,1,8,0:0:0:0:
383,80,63161,1,2,0:0:0:0:
369,125,63241,1,0,0:0:0:0:
335,159,63321,1,0,0:0:0:0:
290,173,63401,1,0,0:0:0:0:
130,183,63482,1,8,0:0:0:0:
246,187,63643,6,0,L|262:283,1,96,2|8,0:0|0:0,0:0:0:0:
35,231,63964,2,0,L|19:327,1,96,8|0,0:0|0:0,0:0:0:0:
297,164,64285,5,2,0:0:0:0:
352,256,65087,6,0,L|240:256,2,96,0|0|0,0:0|0:0|0:0,0:0:0:0:
112,240,65568,6,0,P|55:211|112:128,1,192,8|8,0:3|0:0,0:0:0:0:
208,128,66049,1,0,0:0:0:0:
352,160,66210,2,0,L|256:160,2,96,2|0|2,0:0|0:0|0:0,0:0:0:0:
128,208,66691,2,0,P|64:240|144:304,1,192,8|0,0:0|0:0,0:0:0:0:
256,304,67172,2,0,L|144:304,1,96,8|0,0:0|0:0,0:0:0:0:
288,272,67493,2,0,L|384:272,1,96,2|2,0:0|0:3,0:0:0:0:
336,272,67734,1,2,0:3:0:0:
192,272,67814,2,0,L|96:272,1,96,8|0,0:0|0:0,0:0:0:0:
336,224,68135,6,0,L|352:112,1,96,2|0,0:0|0:0,0:0:0:0:
240,96,68456,2,0,L|336:96,1,96,8|0,0:0|0:0,0:0:0:0:
112,80,68777,2,0,L|0:80,2,96,2|2|8,0:0|0:0|0:0,0:0:0:0:
336,160,69258,2,0,P|416:176|464:288,1,192,8|8,0:0|0:0,0:0:0:0:
240,320,69739,2,0,L|128:320,1,96,0|8,0:0|0:0,0:0:0:0:
369,267,70060,2,0,L|465:267,1,96,2|2,0:0|0:0,0:0:0:0:
352,224,70381,2,0,L|240:224,1,96,8|0,0:0|0:0,0:0:0:0:
496,192,70702,6,0,P|468:104|379:80,1,192,8|8,0:3|0:0,0:0:0:0:
256,80,71183,1,0,0:0:0:0:
400,144,71343,2,0,L|496:144,2,96,2|0|2,0:0|0:0|0:0,0:0:0:0:
176,240,71825,6,0,L|384:240,1,192,8|0,0:0|0:0,0:0:0:0:
256,176,72306,2,0,L|144:176,1,96,8|0,0:0|0:0,0:0:0:0:
272,128,72627,2,0,L|368:128,1,96,2|2,0:0|0:3,0:0:0:0:
320,128,72868,1,2,0:3:0:0:
176,128,72948,2,0,L|48:128,1,96,8|0,0:0|0:0,0:0:0:0:
336,192,73269,6,0,L|352:288,1,96,2|0,0:0|0:0,0:0:0:0:
224,256,73589,2,0,L|208:352,1,96,8|0,0:0|0:0,0:0:0:0:
272,352,73830,1,0,0:0:0:0:
432,256,73910,2,0,L|448:352,2,96,2|2|8,0:0|0:0|0:0,0:0:0:0:
320,256,74392,2,0,L|432:256,1,96,8|2,0:0|0:0,0:0:0:0:
192,208,74712,6,0,L|80:208,2,96,8|0|8,0:0|0:0|0:0,0:0:0:0:
336,208,75194,2,0,L|224:208,1,96,2|2,0:0|0:0,0:0:0:0:
16,176,75515,2,0,L|144:176,1,96,8|0,0:0|0:0,0:0:0:0:
352,176,75835,6,0,P|432:208|480:304,1,192,8|8,0:3|0:0,0:0:0:0:
352,320,76317,1,2,0:3:0:0:
112,336,76477,1,2,0:0:0:0:
66,325,76557,1,0,0:0:0:0:
48,282,76637,1,2,0:3:0:0:
70,242,76717,1,0,0:0:0:0:
115,234,76797,1,2,0:0:0:0:
352,208,76958,1,8,0:0:0:0:
240,192,77119,6,0,L|224:80,1,96,2|2,0:0|0:3,0:0:0:0:
352,128,77440,2,0,L|368:16,1,96,8|2,0:0|0:3,0:0:0:0:
224,32,77761,6,0,L|112:32,1,96,2|2,0:0|0:3,0:0:0:0:
176,32,78001,1,2,0:3:0:0:
320,32,78081,2,0,L|432:32,1,96,8|2,0:0|0:3,0:0:0:0:
176,112,78402,6,0,L|160:224,1,96,2|0,0:0|0:0,0:0:0:0:
288,240,78723,2,0,L|192:240,1,96,8|0,0:0|0:0,0:0:0:0:
416,112,79044,2,0,L|432:208,1,96,2|2,0:0|0:0,0:0:0:0:
304,224,79365,1,8,0:0:0:0:
48,272,79525,6,0,L|256:272,1,192,8|8,0:0|0:0,0:0:0:0:
464,272,80007,2,0,L|352:272,1,96,0|8,0:0|0:0,0:0:0:0:
144,272,80327,1,2,0:0:0:0:
98,264,80407,1,0,0:0:0:0:
78,222,80487,1,2,0:0:0:0:
100,182,80567,1,0,0:0:0:0:
146,176,80647,1,8,0:0:0:0:
368,176,80809,1,2,0:3:0:0:
144,144,80969,6,0,L|48:144,2,96,8|2|8,0:3|0:3|0:0,0:0:0:0:
288,144,81450,1,2,0:3:0:0:
64,208,81611,2,0,L|48:320,1,96,2|2,0:0|0:3,0:0:0:0:
160,320,81932,1,2,0:0:0:0:
384,224,82092,6,0,L|400:336,1,96,8|2,0:0|0:0,0:0:0:0:
272,240,82413,2,0,L|256:352,1,96,2|8,0:3|0:0,0:0:0:0:
384,352,82734,1,2,0:3:0:0:
160,336,82894,2,0,L|64:336,1,96,2|2,0:0|0:3,0:0:0:0:
112,336,83135,1,2,0:3:0:0:
272,288,83215,2,0,L|368:288,1,96,8|2,0:0|0:3,0:0:0:0:
128,240,83536,5,2,0:0:0:0:
82,236,83616,1,0,0:0:0:0:
63,194,83696,1,2,0:3:0:0:
91,158,83776,1,0,0:0:0:0:
256,144,83857,2,0,L|320:144,1,48,8|0,0:0|0:0,0:0:0:0:
144,96,84017,2,0,L|96:96,1,48,2|0,0:3|0:0,0:0:0:0:
326,215,84178,6,0,L|328:158,1,48,2|0,0:0|0:0,0:0:0:0:
183,160,84338,2,0,L|181:103,1,48,2|0,0:0|0:0,0:0:0:0:
464,147,84499,2,0,L|466:90,1,48,8|0,0:0|0:0,0:0:0:0:
314,50,84659,1,8,0:0:0:0:
80,224,84980,6,0,L|288:224,1,192,8|8,0:0|0:0,0:0:0:0:
496,272,85461,1,2,0:0:0:0:
384,256,85622,2,0,L|368:160,1,96,2|8,0:0|0:0,0:0:0:0:
480,144,85942,1,8,0:0:0:0:
256,160,86103,6,0,L|64:160,1,192,2|2,0:0|0:0,0:0:0:0:
160,160,86584,1,0,0:0:0:0:
304,160,86745,2,0,L|416:160,1,96,8|0,0:0|0:0,0:0:0:0:
256,208,87065,2,0,L|144:208,1,96,2|2,0:0|0:0,0:0:0:0:
384,304,87386,6,0,P|448:256|352:208,1,192,2|2,0:0|0:0,0:0:0:0:
288,192,87868,1,2,0:0:0:0:
144,192,88028,2,0,L|32:192,1,96,8|0,0:0|0:0,0:0:0:0:
192,160,88349,2,0,L|288:160,1,96,2|2,0:0|0:0,0:0:0:0:
64,320,88670,6,0,P|32:256|16:112,1,192,2|2,0:0|0:3,0:0:0:0:
288,256,89311,2,0,P|320:192|336:48,1,192,8|2,0:0|0:3,0:0:0:0:
224,64,89793,1,2,0:0:0:0:
80,64,89953,6,0,L|48:176,1,96,2|0,0:0|0:0,0:0:0:0:
176,160,90274,2,0,L|208:272,1,96,2|0,0:0|0:0,0:0:0:0:
64,288,90595,1,8,0:0:0:0:
192,256,90755,1,0,0:0:0:0:
64,224,90916,2,0,L|32:128,1,96,2|0,0:0|0:0,0:0:0:0:
256,160,91236,6,0,L|448:160,1,192,2|2,0:0|0:0,0:0:0:0:
352,160,91717,1,0,0:0:0:0:
208,160,91878,2,0,L|96:160,1,96,8|0,0:0|0:0,0:0:0:0:
256,208,92198,2,4,L|368:208,1,96,2|2,0:0|0:0,0:0:0:0:
128,304,92520,6,0,P|64:256|160:208,1,192,2|2,0:0|0:0,0:0:0:0:
224,192,93001,1,2,0:0:0:0:
368,192,93161,2,0,L|480:192,1,96,8|0,0:0|0:0,0:0:0:0:
320,160,93482,2,4,L|224:160,1,96,2|2,0:0|0:0,0:0:0:0:
448,320,93803,6,0,P|480:256|496:112,1,192,2|2,0:0|0:3,0:0:0:0:
224,256,94445,2,0,P|192:192|176:48,1,192,8|2,0:0|0:3,0:0:0:0:
288,64,94926,1,2,0:0:0:0:
432,64,95086,6,0,L|464:176,1,96,2|0,0:0|0:0,0:0:0:0:
336,160,95407,2,0,L|304:272,1,96,2|0,0:0|0:0,0:0:0:0:
432,288,95728,1,8,0:0:0:0:
304,256,95888,1,0,0:0:0:0:
400,240,96049,1,2,0:0:0:0:
496,240,96209,1,0,0:0:0:0:
224,240,96370,6,0,L|32:240,1,192,2|2,0:0|0:0,0:0:0:0:
112,240,96851,1,0,0:0:0:0:
256,192,97012,2,0,L|144:192,1,96,8|0,0:0|0:0,0:0:0:0:
304,112,97333,2,0,L|192:112,1,96,2|2,0:0|0:0,0:0:0:0:
432,288,97654,6,0,P|480:256|413:153,1,192,2|2,0:0|0:0,0:0:0:0:
336,160,98135,1,2,0:0:0:0:
192,128,98295,2,0,L|304:128,1,96,8|0,0:0|0:0,0:0:0:0:
144,64,98616,2,0,L|256:64,1,96,2|2,0:0|0:0,0:0:0:0:
464,256,98937,6,0,P|427:178|320:144,1,192,2|2,0:0|0:3,0:0:0:0:
48,256,99579,2,0,P|84:178|192:144,1,192,8|2,0:0|0:3,0:0:0:0:
272,144,100060,1,2,0:0:0:0:
384,208,100220,6,0,L|256:208,1,96,2|0,0:0|0:0,0:0:0:0:
400,272,100541,2,0,L|496:272,2,96,2|0|8,0:0|0:0|0:0,0:0:0:0:
256,288,101023,2,0,L|352:288,1,96,0|2,0:0|0:0,0:0:0:0:
464,288,101343,1,0,0:0:0:0:
224,240,101504,6,0,P|160:192|240:135,1,192,2|2,0:0|0:0,0:0:0:0:
320,128,101985,1,0,0:0:0:0:
176,96,102146,2,0,L|48:96,1,96,8|0,0:0|0:0,0:0:0:0:
224,160,102466,2,0,L|96:160,1,96,2|2,0:0|0:0,0:0:0:0:
352,288,102787,6,0,P|416:240|336:183,1,192,2|2,0:0|0:0,0:0:0:0:
256,176,103268,1,2,0:0:0:0:
400,144,103429,2,0,L|528:144,1,96,8|0,0:0|0:0,0:0:0:0:
352,208,103749,2,4,L|480:208,1,96,2|2,0:0|0:0,0:0:0:0:
197,316,104071,5,2,0:0:0:0:
159,289,104151,1,0,0:0:0:0:
163,244,104231,1,0,0:0:0:0:
205,225,104311,1,0,0:0:0:0:
352,208,104392,1,8,0:0:0:0:
209,148,104552,2,0,L|152:149,1,48,2|0,0:0|0:0,0:0:0:0:
209,148,104712,2,0,L|265:146,1,48,0|0,0:0|0:0,0:0:0:0:
408,136,104873,1,8,0:0:0:0:
70,309,105033,5,2,0:0:0:0:
32,282,105113,1,0,0:0:0:0:
36,237,105193,1,2,0:0:0:0:
78,218,105273,1,0,0:0:0:0:
225,201,105354,1,8,0:0:0:0:
82,141,105514,2,0,L|25:142,1,48,2|0,0:0|0:0,0:0:0:0:
82,141,105674,2,0,L|138:139,1,48,0|0,0:0|0:0,0:0:0:0:
281,129,105835,1,8,0:0:0:0:
171,157,105996,6,0,L|75:157,1,96,2|8,0:0|0:0,0:0:0:0:
175,225,106317,2,0,L|303:225,1,96,8|0,0:0|0:0,0:0:0:0:
512,287,106638,6,0,L|288:287,1,192,2|2,0:0|0:0,0:0:0:0:
416,287,107119,1,0,0:0:0:0:
272,288,107279,2,0,L|176:288,1,96,2|2,0:0|0:3,0:0:0:0:
272,288,107600,2,0,L|384:288,1,96,2|2,0:0|0:3,0:0:0:0:
128,256,107921,6,0,L|112:144,1,96,2|0,0:0|0:0,0:0:0:0:
224,144,108242,2,0,P|288:203|224:256,1,192,2|2,0:0|0:0,0:0:0:0:
80,288,108723,2,0,L|176:288,2,96,2|2|2,0:3|0:0|0:3,0:0:0:0:
304,288,109204,6,0,L|416:288,1,96,2|0,0:0|0:0,0:0:0:0:
272,240,109525,2,0,L|256:144,1,96,2|0,0:0|0:0,0:0:0:0:
384,112,109846,2,0,L|272:112,1,96,2|2,0:0|0:3,0:0:0:0:
160,112,110167,1,2,0:0:0:0:
288,176,110327,6,0,P|368:192|416:304,1,192,2|0,0:3|0:0,0:0:0:0:
320,288,110809,1,2,0:0:0:0:
448,304,110969,2,0,L|240:304,1,192,0|2,0:0|0:3,0:0:0:0:
240,240,111370,1,2,0:3:0:0:
320,240,111450,2,0,L|336:128,1,96,2|2,0:0|0:3,0:0:0:0:
112,128,111771,6,0,L|16:128,2,96,2|0|2,0:0|0:0|0:0,0:0:0:0:
240,128,112253,1,0,0:0:0:0:
112,192,112413,2,0,L|208:192,1,96,2|2,0:0|0:3,0:0:0:0:
352,192,112734,1,2,0:0:0:0:
208,272,112894,6,0,L|432:272,1,192,2|0,0:3|0:0,0:0:0:0:
288,224,113376,1,2,0:0:0:0:
432,192,113536,2,0,L|224:192,1,192,0|2,0:0|0:3,0:0:0:0:
176,192,113937,1,2,0:3:0:0:
240,192,114017,1,2,0:0:0:0:
368,192,114178,1,2,0:3:0:0:
96,320,114338,6,0,L|80:224,1,96,2|0,0:0|0:0,0:0:0:0:
208,208,114659,1,10,0:0:0:0:
252,194,114739,1,0,0:0:0:0:
276,154,114819,1,0,0:0:0:0:
266,108,114899,1,0,0:0:0:0:
112,144,114980,5,10,0:0:0:0:
68,130,115060,1,0,0:0:0:0:
44,90,115140,1,2,0:3:0:0:
54,44,115220,1,0,0:0:0:0:
224,48,115301,2,0,L|272:48,1,48,10|0,0:0|0:0,0:0:0:0:
208,80,115461,2,0,L|144:80,1,48,2|0,0:3|0:0,0:0:0:0:
304,128,115622,5,10,0:0:0:0:
345,148,115702,1,0,0:0:0:0:
352,193,115782,1,0,0:0:0:0:
318,225,115862,1,0,0:0:0:0:
240,240,115942,2,0,L|176:240,1,48,10|0,0:0|0:0,0:0:0:0:
270,225,116103,2,0,L|350:225,1,48,0|0,0:0|0:0,0:0:0:0:
144,208,116263,6,0,L|80:208,1,48,10|0,0:0|0:0,0:0:0:0:
256,176,116424,2,0,L|304:176,1,48,2|0,0:3|0:0,0:0:0:0:
464,128,116584,2,0,L|336:128,1,96,10|2,0:0|0:3,0:0:0:0:
144,144,116905,6,0,L|48:144,1,96,2|0,0:0|0:0,0:0:0:0:
192,208,117226,2,0,L|320:208,1,96,2|0,0:0|0:0,0:0:0:0:
144,272,117547,2,0,L|256:272,1,96,2|2,0:0|0:3,0:0:0:0:
384,272,117868,2,0,L|272:272,1,96,2|2,0:0|0:3,0:0:0:0:
64,224,118188,6,0,L|160:224,1,96,2|0,0:0|0:0,0:0:0:0:
64,224,118509,2,0,P|32:176|64:48,1,192,2|2,0:0|0:0,0:0:0:0:
176,80,118991,2,0,L|80:80,2,96,2|0|2,0:3|0:0|0:3,0:0:0:0:
416,144,119472,6,0,L|320:144,1,96,2|0,0:0|0:0,0:0:0:0:
176,208,119793,2,0,L|288:208,1,96,2|0,0:0|0:0,0:0:0:0:
128,272,120113,2,0,L|32:272,2,96,2|2|2,0:0|0:3|0:0,0:0:0:0:
352,272,120595,2,0,P|416:245|336:192,1,192,2|0,0:3|0:0,0:0:0:0:
256,176,121076,1,2,0:0:0:0:
400,144,121236,2,0,L|208:144,1,192,0|2,0:0|0:3,0:0:0:0:
432,208,121718,2,0,L|448:320,1,96,2|2,0:0|0:3,0:0:0:0:
96,336,122039,5,2,0:0:0:0:
208,320,122199,2,0,L|217:256,1,48,8|0,0:0|0:0,0:0:0:0:
144,256,122359,1,8,0:0:0:0:
384,256,122520,5,2,0:0:0:0:
448,240,122600,2,0,L|469:197,2,48,0|8|0,0:0|0:0|0:0,0:0:0:0:
256,256,122841,1,8,0:0:0:0:
128,256,123001,5,2,0:0:0:0:
64,240,123081,2,0,L|32:176,2,48,0|8|0,0:0|0:0|0:0,0:0:0:0:
256,256,123322,1,8,0:0:0:0:
400,240,123482,6,0,L|416:176,1,48,2|0,0:0|0:0,0:0:0:0:
336,176,123643,2,0,L|320:112,1,48,8|0,0:0|0:0,0:0:0:0:
480,96,123803,1,8,0:0:0:0:
496,192,123964,6,0,L|432:192,1,48,2|0,0:0|0:0,0:0:0:0:
288,192,124124,2,0,L|224:192,1,48,8|0,0:0|0:0,0:0:0:0:
400,240,124285,1,8,0:0:0:0:
444,254,124365,1,0,0:0:0:0:
464,297,124445,1,8,0:0:0:0:
447,340,124525,1,0,0:0:0:0:
256,352,124605,5,2,0:0:0:0:
202,340,124685,1,0,0:0:0:0:
168,298,124765,1,2,0:3:0:0:
161,257,124845,1,0,0:0:0:0:
364,270,124926,2,0,L|380:222,1,48,2|0,0:0|0:0,0:0:0:0:
222,204,125087,2,0,L|206:156,1,48,2|0,0:3|0:0,0:0:0:0:
384,144,125247,5,2,0:0:0:0:
429,140,125327,1,0,0:0:0:0:
448,98,125407,1,2,0:3:0:0:
420,62,125487,1,0,0:0:0:0:
208,64,125568,1,2,0:0:0:0:
156,70,125648,1,0,0:0:0:0:
343,107,125728,1,2,0:3:0:0:
359,152,125808,1,0,0:0:0:0:
208,64,125889,5,2,0:0:0:0:
144,80,125969,1,0,0:0:0:0:
122,128,126049,1,2,0:3:0:0:
144,176,126129,1,0,0:0:0:0:
336,240,126210,2,0,L|400:240,1,48,2|0,0:0|0:0,0:0:0:0:
176,240,126370,2,0,L|112:240,1,48,2|0,0:3|0:0,0:0:0:0:
384,192,126531,5,2,0:3:0:0:
432,192,126611,1,0,0:0:0:0:
208,128,126691,1,2,0:3:0:0:
160,128,126771,1,0,0:0:0:0:
133,167,126851,2,0,L|175:105,1,48
448,160,127012,2,0,L|512:160,1,48,2|0,0:3|0:0,0:0:0:0:
208,112,127172,5,4,0:3:0:0:
256,192,127333,12,4,129739,0:3:0:0:
256,192,137440,5,2,0:0:0:0:
400,192,137761,5,0,0:0:0:0:
256,288,138081,2,0,L|176:224,2,96,2|0|0,0:3|0:0|0:0,0:0:0:0:
400,288,138563,1,0,0:0:0:0:
256,288,138723,6,0,L|176:224,2,96,2|0|0,0:3|0:0|0:0,0:0:0:0:
112,288,139365,2,0,L|32:224,2,96,2|0|0,0:3|0:0|0:0,0:0:0:0:
256,288,139846,1,0,0:0:0:0:
400,160,140007,6,0,L|320:96,1,96,2|0,0:0|0:0,0:0:0:0:
400,192,140327,1,0,0:0:0:0:
256,288,140648,2,0,L|176:224,1,96,2|0,0:3|0:0,0:0:0:0:
325,251,140969,2,0,L|405:187,1,96,0|0,0:0|0:0,0:0:0:0:
256,288,141290,6,0,L|176:224,2,96,2|0|0,0:3|0:0|0:0,0:0:0:0:
352,288,141771,1,0,0:0:0:0:
256,288,141931,2,0,L|176:224,1,96,2|0,0:3|0:0,0:0:0:0:
218,258,142172,1,0,0:0:0:0:
256,288,142253,1,0,0:0:0:0:
400,288,142412,1,0,0:0:0:0:
176,272,142573,6,0,L|160:160,1,96,2|0,0:0|0:0,0:0:0:0:
256,208,142894,2,0,L|272:96,1,96,0|0,0:0|0:0,0:0:0:0:
368,224,143215,2,0,L|384:112,1,96,2|0,0:3|0:0,0:0:0:0:
285,128,143536,2,0,L|381:128,1,96,0|0,0:0|0:0,0:0:0:0:
272,64,143857,6,0,L|256:176,1,96,2|0,0:3|0:0,0:0:0:0:
160,160,144178,2,0,L|176:272,1,96,0|0,0:0|0:0,0:0:0:0:
272,176,144499,2,0,L|288:288,1,96,2|0,0:3|0:0,0:0:0:0:
160,256,144820,2,0,L|144:368,1,96,0|0,0:0|0:0,0:0:0:0:
368,336,145140,5,2,0:0:0:0:
412,320,145220,1,0,0:0:0:0:
430,277,145300,1,0,0:0:0:0:
411,235,145380,1,0,0:0:0:0:
368,336,145461,1,0,0:0:0:0:
321,329,145541,1,0,0:0:0:0:
284,299,145621,1,0,0:0:0:0:
271,254,145701,1,0,0:0:0:0:
448,224,145782,5,2,0:3:0:0:
479,189,145862,1,0,0:0:0:0:
472,143,145942,1,0,0:0:0:0:
432,120,146022,1,0,0:0:0:0:
272,128,146103,2,0,L|208:128,1,48,0|0,0:0|0:0,0:0:0:0:
384,120,146263,2,0,L|448:120,1,48,0|0,0:0|0:0,0:0:0:0:
272,64,146424,5,2,0:3:0:0:
225,70,146504,1,0,0:0:0:0:
188,100,146584,1,0,0:0:0:0:
175,145,146664,1,0,0:0:0:0:
320,160,146745,1,0,0:0:0:0:
366,166,146825,1,0,0:0:0:0:
403,196,146905,1,0,0:0:0:0:
416,241,146985,1,0,0:0:0:0:
228,303,147065,6,0,L|164:303,1,48,2|0,0:3|0:0,0:0:0:0:
368,272,147226,2,0,L|384:208,1,48,0|0,0:0|0:0,0:0:0:0:
240,208,147386,1,2,0:3:0:0:
176,208,147466,1,0,0:0:0:0:
32,194,147547,2,0,L|16:130,1,48,0|0,0:0|0:0,0:0:0:0:
192,128,147707,5,2,0:0:0:0:
160,256,148509,6,0,L|272:256,2,96,0|0|0,0:0|0:0|0:0,0:0:0:0:
400,240,148990,6,0,P|457:211|400:128,1,192,8|8,0:3|0:0,0:0:0:0:
304,128,149471,1,0,0:0:0:0:
160,160,149632,2,0,L|256:160,2,96,2|0|2,0:0|0:0|0:0,0:0:0:0:
384,208,150113,2,0,P|448:240|368:304,1,192,8|0,0:0|0:0,0:0:0:0:
256,304,150594,2,0,L|368:304,1,96,8|0,0:0|0:0,0:0:0:0:
224,272,150915,2,0,L|128:272,1,96,2|2,0:0|0:3,0:0:0:0:
176,272,151156,1,2,0:3:0:0:
320,272,151236,2,0,L|416:272,1,96,8|0,0:0|0:0,0:0:0:0:
176,224,151557,6,0,L|160:112,1,96,2|0,0:0|0:0,0:0:0:0:
272,96,151878,2,0,L|176:96,1,96,8|0,0:0|0:0,0:0:0:0:
400,80,152199,2,0,L|512:80,2,96,2|2|8,0:0|0:0|0:0,0:0:0:0:
176,160,152680,2,0,P|96:176|48:288,1,192,8|8,0:0|0:0,0:0:0:0:
272,320,153161,2,0,L|384:320,1,96,0|8,0:0|0:0,0:0:0:0:
143,267,153482,2,0,L|47:267,1,96,2|2,0:0|0:0,0:0:0:0:
160,224,153803,2,0,L|272:224,1,96,8|0,0:0|0:0,0:0:0:0:
16,192,154124,6,0,P|44:104|133:80,1,192,8|8,0:3|0:0,0:0:0:0:
256,80,154605,1,0,0:0:0:0:
112,144,154766,2,0,L|16:144,2,96,2|0|2,0:0|0:0|0:0,0:0:0:0:
336,240,155247,6,0,L|128:240,1,192,8|0,0:0|0:0,0:0:0:0:
256,176,155728,2,0,L|368:176,1,96,8|0,0:0|0:0,0:0:0:0:
240,128,156049,2,0,L|144:128,1,96,2|2,0:0|0:3,0:0:0:0:
192,128,156290,1,2,0:3:0:0:
336,128,156370,2,0,L|464:128,1,96,8|0,0:0|0:0,0:0:0:0:
176,192,156691,6,0,L|160:288,1,96,2|0,0:0|0:0,0:0:0:0:
288,256,157011,2,0,L|304:352,1,96,0|0,0:0|0:0,0:0:0:0:
240,352,157252,1,0,0:0:0:0:
80,256,157333,2,0,L|64:352,2,96,2|2|8,0:0|0:0|0:0,0:0:0:0:
192,256,157814,2,0,L|80:256,1,96,8|2,0:0|0:0,0:0:0:0:
320,208,158135,6,0,L|432:208,2,96,8|0|8,0:0|0:0|0:0,0:0:0:0:
176,208,158616,2,0,L|288:208,1,96,2|2,0:0|0:0,0:0:0:0:
496,176,158937,2,0,L|368:176,1,96,8|0,0:0|0:0,0:0:0:0:
160,176,159258,6,0,P|80:208|32:304,1,192,8|8,0:3|0:0,0:0:0:0:
160,320,159739,1,2,0:3:0:0:
400,336,159899,1,2,0:0:0:0:
446,325,159979,1,0,0:0:0:0:
464,282,160059,1,0,0:0:0:0:
442,242,160139,1,0,0:0:0:0:
397,234,160219,1,0,0:0:0:0:
160,208,160380,1,8,0:0:0:0:
272,192,160541,6,0,L|288:80,1,96,2|2,0:0|0:3,0:0:0:0:
160,128,160862,2,0,L|144:16,1,96,8|2,0:0|0:3,0:0:0:0:
288,32,161183,6,0,L|400:32,1,96,2|2,0:0|0:3,0:0:0:0:
336,32,161423,1,2,0:3:0:0:
192,32,161503,2,0,L|80:32,1,96,8|2,0:0|0:3,0:0:0:0:
336,112,161824,6,0,L|352:224,1,96,2|0,0:0|0:0,0:0:0:0:
224,240,162145,2,0,L|320:240,1,96,8|0,0:0|0:0,0:0:0:0:
96,112,162466,2,0,L|80:208,1,96,2|2,0:0|0:0,0:0:0:0:
208,224,162787,1,8,0:0:0:0:
464,272,162948,6,0,L|256:272,1,192,8|8,0:0|0:0,0:0:0:0:
48,272,163429,2,0,L|160:272,1,96,0|8,0:0|0:0,0:0:0:0:
368,272,163749,1,2,0:0:0:0:
414,264,163829,1,0,0:0:0:0:
434,222,163909,1,2,0:0:0:0:
412,182,163991,1,0,0:0:0:0:
366,176,164071,1,8,0:0:0:0:
144,176,164231,1,2,0:3:0:0:
368,144,164391,6,0,L|464:144,2,96,8|2|8,0:3|0:3|0:0,0:0:0:0:
224,144,164872,1,2,0:3:0:0:
448,208,165033,2,0,L|464:320,1,96,2|2,0:0|0:3,0:0:0:0:
352,320,165354,1,2,0:0:0:0:
128,224,165514,6,0,L|112:336,1,96,8|2,0:0|0:0,0:0:0:0:
240,240,165835,2,0,L|256:352,1,96,2|8,0:3|0:0,0:0:0:0:
128,352,166156,1,2,0:3:0:0:
352,336,166316,2,0,L|448:336,1,96,2|2,0:0|0:3,0:0:0:0:
400,336,166557,1,2,0:3:0:0:
240,288,166637,2,0,L|144:288,1,96,8|2,0:0|0:3,0:0:0:0:
384,240,166958,5,2,0:0:0:0:
430,236,167038,1,0,0:0:0:0:
449,194,167118,1,2,0:3:0:0:
421,158,167198,1,0,0:0:0:0:
240,128,167279,2,0,L|176:128,1,48,8|0,0:0|0:0,0:0:0:0:
368,96,167439,2,0,L|368:160,1,48,2|0,0:3|0:0,0:0:0:0:
160,176,167600,6,0,L|112:176,1,48,2|0,0:0|0:0,0:0:0:0:
396,139,167761,2,0,L|444:139,1,48,2|0,0:0|0:0,0:0:0:0:
144,112,167921,2,0,L|96:112,1,48,8|0,0:0|0:0,0:0:0:0:
457,74,168081,1,8,0:0:0:0:
240,193,168402,6,0,L|48:193,1,192,8|8,0:0|0:0,0:0:0:0:
320,272,168883,1,2,0:0:0:0:
32,288,169044,2,0,L|16:192,1,96,2|8,0:0|0:0,0:0:0:0:
256,192,169525,12,0,171771,0:0:0:0:
256,192,172092,12,0,174338,0:0:0:0:
256,192,174659,12,0,176905,0:0:0:0:
256,192,177226,12,0,178188,0:0:0:0:
240,288,178509,5,0,0:0:0:0:
194,280,178589,1,0,0:0:0:0:
173,239,178669,1,0,0:0:0:0:
194,198,178749,1,0,0:0:0:0:
272,288,178830,1,0,0:0:0:0:
318,280,178910,1,0,0:0:0:0:
339,239,178990,1,0,0:0:0:0:
318,198,179070,1,0,0:0:0:0:
128,176,179151,5,0,0:0:0:0:
96,142,179231,1,0,0:0:0:0:
112,100,179311,1,0,0:0:0:0:
157,95,179391,1,0,0:0:0:0:
304,96,179472,2,0,L|384:96,1,48,0|0,0:0|0:0,0:0:0:0:
208,48,179632,2,0,L|144:48,1,48,0|0,0:0|0:0,0:0:0:0:
