osu file format v14

[General]
AudioFilename: audio.mp3
AudioLeadIn: 0
PreviewTime: 64297
Countdown: 0
SampleSet: Soft
StackLeniency: 0.7
Mode: 2
LetterboxInBreaks: 0
WidescreenStoryboard: 0

[Editor]
DistanceSpacing: 0.8
BeatDivisor: 4
GridSize: 16
TimelineZoom: 2.7

[Metadata]
Title:Magical Musical Master
TitleUnicode:Magical Musical Master
Artist:Sakuzyo
ArtistUnicode:削除
Creator:Rocma
Version:Deluge
Source:
Tags:VitMaster remix Pop Candy Wonderland artcore Nelly Jemzuu AJamez electronic instrumental
BeatmapID:2294025
BeatmapSetID:1097927

[Difficulty]
HPDrainRate:6
CircleSize:4
OverallDifficulty:9.2
ApproachRate:9.2
SliderMultiplier:2.24
SliderTickRate:2

[Events]
//Background and Video events
0,0,"bg.jpg",0,0
//Break Periods
2,129940,131737
//Storyboard Layer 0 (Background)
//Storyboard Layer 1 (Fail)
//Storyboard Layer 2 (Pass)
//Storyboard Layer 3 (Foreground)
//Storyboard Layer 4 (Overlay)
//Storyboard Sound Samples

[TimingPoints]
114,320.855614973262,4,2,2,30,1,0
755,-100,4,2,2,35,0,0
1397,-100,4,2,2,30,0,0
23215,-100,4,2,2,50,0,0
65568,-100,4,2,2,70,0,1
84980,-50,4,2,2,70,0,1
85622,-100,4,2,2,70,0,1
86103,-100,4,2,2,50,0,0
148991,-100,4,2,2,70,0,1
168403,-50,4,2,2,70,0,1
168884,-100,4,2,2,70,0,1
169525,-100,4,2,2,50,0,0
172092,-100,4,2,2,40,0,0
174659,-100,4,2,2,30,0,0
177226,-100,4,2,2,20,0,0
178509,-100,4,2,2,30,0,0
178830,-100,4,2,2,40,0,0
179151,-100,4,2,2,50,0,0
179472,-100,4,2,2,60,0,0

[Colours]
Combo1 : 0,128,255
Combo2 : 128,255,255

[HitObjects]
256,192,435,12,0,1237,0:0:0:0:
320,240,1398,6,0,L|336:128,3,112,4|0|2|0,0:3|0:0|0:3|0:0,0:0:0:0:
224,208,2039,2,0,L|208:96,1,112,0|0,0:0|0:0,0:0:0:0:
320,272,2360,2,0,L|336:160,1,112,2|0,0:3|0:0,0:0:0:0:
208,336,2681,5,0,0:0:0:0:
104,300,2841,1,0,0:0:0:0:
60,201,3001,1,2,0:3:0:0:
103,101,3162,1,0,0:0:0:0:
208,336,3323,1,0,0:0:0:0:
311,300,3483,1,0,0:0:0:0:
355,201,3643,1,2,0:3:0:0:
312,101,3804,1,0,0:0:0:0:
48,304,3964,6,0,L|32:192,3,112,4|0|2|0,0:3|0:0|0:3|0:0,0:0:0:0:
144,240,4605,2,0,L|160:128,1,112,0|0,0:0|0:0,0:0:0:0:
272,208,4926,2,0,L|256:96,1,112,2|0,0:3|0:0,0:0:0:0:
144,64,5248,5,0,0:0:0:0:
148,147,5408,1,0,0:0:0:0:
189,219,5568,1,2,0:3:0:0:
257,267,5729,1,0,0:0:0:0:
340,280,5889,1,0,0:0:0:0:
257,267,6050,1,0,0:0:0:0:
189,219,6211,1,2,0:3:0:0:
148,147,6371,1,0,0:0:0:0:
400,192,6531,6,0,L|432:80,3,112,4|0|2|0,0:3|0:0|0:3|0:0,0:0:0:0:
320,144,7173,2,0,L|288:32,1,112,0|0,0:0|0:0,0:0:0:0:
400,192,7494,2,0,L|432:80,1,112,0|0,0:0|0:0,0:0:0:0:
288,48,7815,5,0,0:0:0:0:
197,66,7975,1,0,0:0:0:0:
134,132,8135,1,2,0:3:0:0:
119,223,8296,1,0,0:0:0:0:
208,144,8456,1,0,0:0:0:0:
298,162,8616,1,0,0:0:0:0:
361,228,8776,1,2,0:3:0:0:
376,319,8937,1,0,0:0:0:0:
112,320,9098,6,0,L|144:208,3,112,4|0|2|0,0:3|0:0|0:3|0:0,0:0:0:0:
256,224,9739,2,0,L|288:112,1,112,0|0,0:0|0:0,0:0:0:0:
400,176,10061,2,0,L|432:64,1,112,0|0,0:0|0:0,0:0:0:0:
288,48,10381,5,0,0:0:0:0:
224,112,10542,1,0,0:0:0:0:
288,48,10702,1,2,0:3:0:0:
352,112,10863,1,0,0:0:0:0:
288,48,11023,1,0,0:0:0:0:
192,112,11184,1,0,0:0:0:0:
288,48,11344,1,2,0:3:0:0:
384,112,11504,1,0,0:0:0:0:
112,256,11665,5,2,0:0:0:0:
224,240,11825,2,0,L|240:128,2,112,0|0|0,0:0|0:0|0:0,0:0:0:0:
336,240,12307,2,0,L|352:128,2,112,2|0|0,0:3|0:0|0:0,0:0:0:0:
448,240,12788,1,0,0:0:0:0:
336,240,12948,6,0,L|320:128,3,112,2|0|0|0,0:3|0:0|0:0|0:0,0:0:0:0:
208,256,13589,2,0,L|192:144,1,112,2|0,0:3|0:0,0:0:0:0:
80,256,13911,2,0,L|64:144,1,112,0|0,0:0|0:0,0:0:0:0:
208,128,14232,5,2,0:0:0:0:
96,128,14392,2,0,L|112:16,2,112,0|0|0,0:0|0:0|0:0,0:0:0:0:
208,144,14874,2,0,L|224:32,1,112,2|0,0:3|0:0,0:0:0:0:
368,128,15194,2,0,L|352:16,1,112,0|0,0:0|0:0,0:0:0:0:
208,128,15515,6,0,L|192:16,3,112,2|0|0|0,0:3|0:0|0:0|0:0,0:0:0:0:
80,128,16157,2,0,L|64:16,1,112,2|0,0:3|0:0,0:0:0:0:
128,16,16398,1,0,0:0:0:0:
192,17,16478,2,0,L|208:128,1,112,0|0,0:0|0:0,0:0:0:0:
368,144,16799,5,2,0:0:0:0:
256,192,16959,2,0,L|240:304,2,112,0|0|0,0:0|0:0|0:0,0:0:0:0:
368,192,17440,2,0,L|352:304,1,112,2|0,0:3|0:0,0:0:0:0:
240,192,17761,2,0,L|224:304,1,112,0|0,0:0|0:0,0:0:0:0:
112,192,18082,6,0,L|128:304,1,112,2|0,0:3|0:0,0:0:0:0:
240,192,18403,2,0,L|256:304,1,112,0|0,0:0|0:0,0:0:0:0:
143,192,18724,2,0,L|127:304,1,112,2|0,0:3|0:0,0:0:0:0:
240,256,19045,1,0,0:0:0:0:
128,304,19205,1,0,0:0:0:0:
384,320,19365,5,2,0:0:0:0:
428,291,19445,1,0,0:0:0:0:
417,239,19525,1,0,0:0:0:0:
365,230,19605,1,0,0:0:0:0:
192,224,19686,2,0,L|128:224,1,56,0|0,0:0|0:0,0:0:0:0:
320,160,19847,2,0,L|384:160,1,56,0|0,0:0|0:0,0:0:0:0:
128,160,20007,6,0,L|64:160,1,56,2|0,0:3|0:0,0:0:0:0:
256,96,20168,2,0,L|320:96,1,56,0|0,0:0|0:0,0:0:0:0:
496,96,20327,2,0,L|432:96,1,56,0|0,0:0|0:0,0:0:0:0:
272,96,20488,2,0,L|208:96,1,56,0|0,0:0|0:0,0:0:0:0:
16,144,20649,6,0,L|32:224,1,56,2|0,0:3|0:0,0:0:0:0:
256,208,20809,2,0,L|352:208,1,56,0|0,0:0|0:0,0:0:0:0:
256,208,20970,2,0,L|192:208,1,56,0|0,0:0|0:0,0:0:0:0:
485,198,21130,2,0,L|496:144,1,56,0|0,0:0|0:0,0:0:0:0:
256,160,21290,6,0,L|192:160,1,56,2|0,0:3|0:0,0:0:0:0:
384,112,21451,2,0,L|448:112,1,56,0|0,0:0|0:0,0:0:0:0:
208,96,21611,2,0,L|176:96,2,28,2|0|0,0:3|0:0|0:0,0:0:0:0:
352,48,21772,2,0,L|384:48,2,28,0|0|0,0:0|0:0|0:0,0:0:0:0:
64,64,21932,6,0,B|80:192|192:304|320:192|336:64|336:64|240:64|28:192|240:320|336:320,1,896,2|2,0:0|0:0,0:0:0:0:
352,224,23376,5,0,0:0:0:0:
224,224,23537,2,0,L|208:112,1,112,8|0,0:0|0:0,0:0:0:0:
336,80,23857,2,0,L|224:80,1,112,0|0,0:0|0:0,0:0:0:0:
352,192,24178,2,0,L|368:80,1,112,8|0,0:0|0:0,0:0:0:0:
112,80,24499,6,0,L|96:208,1,112,2|0,0:0|0:0,0:0:0:0:
208,176,24820,2,0,L|224:304,1,112,8|0,0:0|0:0,0:0:0:0:
160,304,25061,1,0,0:0:0:0:
16,224,25141,2,0,L|32:352,1,112,0|0,0:0|0:0,0:0:0:0:
160,352,25462,2,0,L|48:352,1,112,8|0,0:0|0:0,0:0:0:0:
304,336,25783,6,0,L|416:336,1,112,2|0,0:0|0:0,0:0:0:0:
288,256,26103,2,0,L|416:256,1,112,8|0,0:0|0:0,0:0:0:0:
272,176,26424,2,0,L|256:64,1,112,0|0,0:0|0:0,0:0:0:0:
368,144,26745,2,0,L|384:32,1,112,8|0,0:0|0:0,0:0:0:0:
144,64,27066,6,0,L|32:64,1,112,0|0,0:0|0:0,0:0:0:0:
176,128,27386,2,0,L|192:240,1,112,8|0,0:0|0:0,0:0:0:0:
64,272,27708,2,0,L|192:272,2,112,0|8|8,0:0|0:0|0:0,0:0:0:0:
496,272,28349,6,0,L|384:272,1,112,2|0,0:0|0:0,0:0:0:0:
256,224,28670,2,0,L|368:224,1,112,8|0,0:0|0:0,0:0:0:0:
240,160,28991,2,0,L|224:32,1,112,0|0,0:0|0:0,0:0:0:0:
352,128,29312,2,0,L|368:0,1,112,8|0,0:0|0:0,0:0:0:0:
112,32,29633,6,0,L|96:160,1,112,2|0,0:0|0:0,0:0:0:0:
224,176,29954,1,8,0:0:0:0:
96,208,30114,2,0,L|80:304,1,56,0|0,0:0|0:0,0:0:0:0:
240,224,30275,2,0,L|256:352,1,112,0|0,0:0|0:0,0:0:0:0:
128,336,30595,2,0,L|256:336,1,112,8|0,0:0|0:0,0:0:0:0:
480,304,30916,6,0,L|352:304,2,112,2|0|8,0:0|0:0|0:0,0:0:0:0:
224,272,31397,1,0,0:0:0:0:
480,208,31558,2,0,L|336:208,1,112,0|0,0:0|0:0,0:0:0:0:
240,192,31879,2,0,L|224:48,1,112,8|0,0:0|0:0,0:0:0:0:
480,112,32200,6,0,L|352:112,1,112,0|0,0:0|0:0,0:0:0:0:
256,160,32520,2,0,L|368:160,1,112,8|0,0:0|0:0,0:0:0:0:
304,160,32761,1,0,0:0:0:0:
144,160,32841,2,0,L|32:160,1,112,0|8,0:0|0:0,0:0:0:0:
272,240,33162,2,0,L|400:240,1,112,8|0,0:0|0:0,0:0:0:0:
96,320,33483,6,0,L|80:208,1,112,2|0,0:0|0:0,0:0:0:0:
320,160,33804,1,2,0:0:0:0:
64,128,33964,1,8,0:0:0:0:
192,112,34125,2,0,L|208:0,1,112,0|2,0:0|0:0,0:0:0:0:
80,16,34446,2,0,L|208:16,1,112,0|0,0:0|0:0,0:0:0:0:
416,320,34766,6,0,L|432:208,1,112,2|0,0:0|0:0,0:0:0:0:
192,160,35087,1,2,0:0:0:0:
448,128,35247,1,8,0:0:0:0:
320,112,35408,2,0,L|304:0,1,112,0|2,0:0|0:0,0:0:0:0:
432,16,35729,2,0,L|304:16,1,112,0|0,0:0|0:0,0:0:0:0:
64,176,36050,6,0,L|176:176,1,112,2|0,0:0|0:0,0:0:0:0:
400,176,36371,1,2,0:0:0:0:
176,176,36531,2,0,L|288:176,1,112,8|0,0:0|0:0,0:0:0:0:
64,256,36852,1,2,0:0:0:0:
288,288,37012,2,0,L|432:288,2,112,0|8|0,0:0|0:0|0:0,0:0:0:0:
64,224,37494,6,0,L|192:224,1,112,8|8,0:0|0:0,0:0:0:0:
304,224,37815,1,0,0:0:0:0:
80,160,37975,2,0,L|64:32,1,112,2|0,0:0|0:0,0:0:0:0:
208,32,38296,2,0,L|80:32,1,112,8|0,0:0|0:0,0:0:0:0:
400,224,38617,6,0,L|416:112,1,112,2|0,0:0|0:0,0:0:0:0:
288,112,38938,2,0,L|416:112,1,112,8|0,0:0|0:0,0:0:0:0:
272,176,39258,2,0,L|256:64,1,112,0|0,0:0|0:0,0:0:0:0:
384,64,39579,2,0,L|496:64,1,112,8|0,0:0|0:0,0:0:0:0:
256,192,39900,6,0,L|144:192,1,112,0|0,0:0|0:0,0:0:0:0:
272,176,40221,2,0,L|288:288,1,112,8|0,0:0|0:0,0:0:0:0:
144,224,40542,2,0,L|128:112,1,112,0|0,0:0|0:0,0:0:0:0:
368,224,40863,2,0,L|384:112,1,112,8|0,0:0|0:0,0:0:0:0:
128,256,41184,6,0,L|112:192,1,56,2|0,0:0|0:0,0:0:0:0:
272,208,41344,2,0,L|288:144,1,56,2|0,0:3|0:0,0:0:0:0:
208,160,41504,2,0,L|192:96,1,56,8|0,0:0|0:0,0:0:0:0:
352,112,41664,2,0,L|368:48,1,56,0|0,0:0|0:0,0:0:0:0:
176,64,41825,6,0,L|112:64,1,56,2|0,0:3|0:0,0:0:0:0:
288,144,41986,2,0,L|368:144,1,56,2|0,0:3|0:0,0:0:0:0:
128,144,42146,2,0,L|64:144,1,56,8|0,0:0|0:0,0:0:0:0:
240,224,42307,2,0,L|320:224,1,56,0|0,0:0|0:0,0:0:0:0:
80,272,42467,5,2,0:3:0:0:
54,260,42507,1,0,0:0:0:0:
37,238,42547,1,0,0:0:0:0:
30,211,42587,1,0,0:0:0:0:
36,184,42627,1,2,0:3:0:0:
53,162,42667,1,0,0:0:0:0:
78,150,42707,1,0,0:0:0:0:
256,272,42788,6,0,L|304:272,6,28,2|0|0|0|2|0|0,0:3|0:0|0:0|0:0|0:3|0:0|0:0,0:0:0:0:
176,272,43109,6,0,L|176:192,1,56,2|0,0:3|0:0,0:0:0:0:
368,208,43269,2,0,L|432:208,1,56,8|0,0:0|0:0,0:0:0:0:
232,216,43430,2,0,L|152:216,1,56,8|0,0:0|0:0,0:0:0:0:
232,216,43590,2,0,L|312:216,1,56
448,64,43750,6,0,L|448:240,1,168,2|0,0:0|0:0,0:0:0:0:
368,208,44071,2,0,L|368:336,1,112,0|0,0:0|0:0,0:0:0:0:
128,320,44392,2,0,L|112:192,1,112,8|0,0:0|0:0,0:0:0:0:
240,192,44713,1,0,0:0:0:0:
112,144,44873,1,2,0:0:0:0:
336,64,45034,6,0,L|336:240,1,168,2|0,0:0|0:0,0:0:0:0:
256,208,45355,2,0,L|256:336,1,112,0|2,0:0|0:0,0:0:0:0:
496,336,45676,2,0,L|480:208,1,112,8|0,0:0|0:0,0:0:0:0:
352,224,45996,2,0,L|336:96,1,112,0|2,0:0|0:0,0:0:0:0:
80,224,46317,6,0,L|198:21,1,224,2|2,0:0|0:3,0:0:0:0:
432,224,46958,2,0,L|314:21,1,224,8|2,0:0|0:3,0:0:0:0:
435,42,47440,1,2,0:0:0:0:
176,128,47601,6,0,L|160:256,1,112,2|0,0:0|0:0,0:0:0:0:
304,272,47922,2,0,L|176:272,1,112,2|0,0:0|0:0,0:0:0:0:
336,224,48242,1,8,0:0:0:0:
192,160,48403,1,0,0:0:0:0:
304,160,48563,1,2,0:0:0:0:
416,160,48723,1,0,0:0:0:0:
176,64,48884,6,0,L|176:240,1,168,2|0,0:0|0:0,0:0:0:0:
256,208,49205,2,0,L|256:336,1,112,0|0,0:0|0:0,0:0:0:0:
16,336,49526,2,0,L|32:208,1,112,8|0,0:0|0:0,0:0:0:0:
160,192,49847,1,0,0:0:0:0:
32,160,50007,1,2,0:0:0:0:
256,64,50168,6,0,L|256:240,1,168,2|0,0:0|0:0,0:0:0:0:
176,208,50489,2,0,L|176:336,1,112,0|2,0:0|0:0,0:0:0:0:
432,209,50809,2,0,L|320:208,1,112,8|0,0:0|0:0,0:0:0:0:
192,208,51130,2,0,L|79:209,1,112,0|2,0:0|0:0,0:0:0:0:
352,80,51451,6,0,P|432:128|407:249,1,224,2|2,0:0|0:3,0:0:0:0:
98,243,52092,6,0,P|73:141|160:80,1,224,8|2,0:0|0:3,0:0:0:0:
288,80,52574,1,2,0:0:0:0:
64,160,52734,6,0,L|64:288,1,112,2|0,0:0|0:0,0:0:0:0:
208,224,53055,2,0,L|208:352,1,112,2|0,0:0|0:0,0:0:0:0:
432,320,53376,1,8,0:0:0:0:
304,272,53537,2,0,L|320:160,1,112,0|2,0:0|0:0,0:0:0:0:
464,160,53857,1,0,0:0:0:0:
160,160,54018,6,0,P|112:192|160:272,1,168,2|0,0:0|0:0,0:0:0:0:
224,304,54339,2,0,L|112:304,1,112,0|0,0:0|0:0,0:0:0:0:
368,272,54660,2,0,L|384:160,1,112,8|0,0:0|0:0,0:0:0:0:
256,128,54980,1,0,0:0:0:0:
384,96,55141,1,2,0:0:0:0:
160,160,55301,6,0,P|112:192|160:272,1,168,2|0,0:0|0:0,0:0:0:0:
224,304,55622,2,0,L|112:304,1,112,0|2,0:0|0:0,0:0:0:0:
368,272,55943,2,0,L|384:160,1,112,8|0,0:0|0:0,0:0:0:0:
256,192,56264,2,0,L|240:80,1,112,0|0,0:0|0:0,0:0:0:0:
480,96,56585,6,0,P|432:176|288:224,1,224,2|2,0:0|0:3,0:0:0:0:
32,96,57226,2,0,P|150:215|208:224,1,224,8|2,0:0|0:3,0:0:0:0:
80,224,57708,1,2,0:0:0:0:
336,160,57868,6,0,L|224:160,1,112,2|0,0:0|0:0,0:0:0:0:
112,128,58189,2,0,L|224:128,2,112,2|0|8,0:0|0:0|0:0,0:0:0:0:
240,192,58670,1,0,0:0:0:0:
112,224,58831,2,0,L|96:352,1,112,2|0,0:0|0:0,0:0:0:0:
352,160,59152,6,0,P|400:192|352:272,1,168,2|0,0:0|0:0,0:0:0:0:
288,304,59473,2,0,L|400:304,1,112,0|0,0:0|0:0,0:0:0:0:
144,272,59794,2,0,L|128:160,1,112,8|0,0:0|0:0,0:0:0:0:
256,128,60114,1,0,0:0:0:0:
128,96,60275,1,2,0:0:0:0:
352,160,60435,6,0,P|400:192|352:272,1,168,2|0,0:0|0:0,0:0:0:0:
288,304,60756,2,0,L|400:304,1,112,0|2,0:0|0:0,0:0:0:0:
144,272,61077,2,0,L|128:160,1,112,8|0,0:0|0:0,0:0:0:0:
256,192,61398,2,0,L|272:128,1,56,0|0,0:0|0:0,0:0:0:0:
192,144,61558,2,0,L|176:80,1,56,2|0,0:0|0:0,0:0:0:0:
400,96,61718,6,0,L|464:96,1,56,2|0,0:0|0:0,0:0:0:0:
240,144,61879,2,0,L|176:144,1,56,0|0,0:0|0:0,0:0:0:0:
400,272,62039,1,8,0:0:0:0:
288,288,62200,6,0,L|208:288,1,56,2|0,0:0|0:0,0:0:0:0:
80,288,62360,2,0,L|64:208,1,56,0|0,0:0|0:0,0:0:0:0:
224,192,62520,1,8,0:0:0:0:
112,96,62681,6,0,L|48:96,1,56,2|0,0:0|0:0,0:0:0:0:
272,144,62842,2,0,L|336:144,1,56,2|0,0:0|0:0,0:0:0:0:
112,272,63002,1,8,0:0:0:0:
224,272,63162,6,0,L|272:272,1,28,2|0,0:0|0:0,0:0:0:0:
266,234,63242,1,0,0:0:0:0:
252,272,63283,2,0,L|224:272,1,28,0|0,0:0|0:0,0:0:0:0:
160,272,63403,1,0,0:0:0:0:
352,272,63483,2,0,L|448:272,1,56,8|0,0:0|0:0,0:0:0:0:
192,208,63643,6,0,L|176:144,1,56,2|0,0:0|0:0,0:0:0:0:
320,208,63804,2,0,L|336:144,1,56,8|0,0:0|0:0,0:0:0:0:
96,128,63964,1,8,0:0:0:0:
68,129,64004,1,0,0:0:0:0:
46,145,64044,1,0,0:0:0:0:
38,171,64084,1,0,0:0:0:0:
46,198,64124,1,0,0:0:0:0:
67,215,64164,1,0,0:0:0:0:
95,216,64204,1,0,0:0:0:0:
256,128,64285,6,0,B|369:208|454:112|454:112|224:112,1,448,2|0,0:0|0:0,0:0:0:0:
352,192,65087,6,0,L|240:192,1,112,0|0,0:0|0:0,0:0:0:0:
480,160,65408,1,0,0:0:0:0:
240,288,65569,6,0,L|48:288,1,168,8|0,0:3|0:0,0:0:0:0:
224,240,65889,2,0,L|352:240,1,112,8|0,0:0|0:0,0:0:0:0:
208,176,66210,2,0,L|192:64,1,112,2|0,0:0|0:0,0:0:0:0:
320,48,66531,1,2,0:0:0:0:
96,112,66692,6,0,L|112:256,1,112,8|0,0:0|0:0,0:0:0:0:
256,240,67012,1,0,0:0:0:0:
112,288,67173,2,0,L|240:288,1,112,8|0,0:0|0:0,0:0:0:0:
448,272,67494,2,0,L|320:272,1,112,2|2,0:0|0:3,0:0:0:0:
272,272,67734,1,2,0:3:0:0:
96,272,67815,2,0,L|208:272,1,112,8|0,0:0|0:0,0:0:0:0:
432,224,68135,6,0,L|304:224,1,112,2|0,0:0|0:0,0:0:0:0:
96,192,68456,2,0,L|288:192,1,168,8|0,0:0|0:0,0:0:0:0:
96,144,68777,2,0,L|80:16,1,112,2|2,0:0|0:0,0:0:0:0:
224,32,69098,1,8,0:0:0:0:
448,96,69258,2,0,L|464:224,1,112,8|2,0:0|0:0,0:0:0:0:
240,224,69579,6,0,L|128:224,2,112,8|0|8,0:0|0:0|0:0,0:0:0:0:
368,288,70061,2,0,L|256:288,1,112,2|0,0:0|0:0,0:0:0:0:
128,224,70381,2,0,L|240:224,1,112,8|0,0:0|0:0,0:0:0:0:
480,160,70702,6,0,L|304:160,1,168,8|0,0:3|0:0,0:0:0:0:
144,176,71023,2,0,L|272:176,1,112,8|0,0:0|0:0,0:0:0:0:
400,224,71344,2,0,L|288:224,1,112,2|0,0:0|0:0,0:0:0:0:
272,128,71665,1,2,0:0:0:0:
496,64,71825,6,0,L|336:64,1,112,8|2,0:0|0:0,0:0:0:0:
256,64,72146,1,0,0:0:0:0:
384,128,72307,2,0,L|400:240,1,112,8|0,0:0|0:0,0:0:0:0:
176,288,72627,2,0,L|64:288,1,112,2|2,0:0|0:3,0:0:0:0:
128,288,72868,1,2,0:3:0:0:
288,272,72948,2,0,L|400:272,1,112,8|0,0:0|0:0,0:0:0:0:
144,224,73269,6,0,L|128:112,1,112,2|0,0:0|0:0,0:0:0:0:
256,112,73590,2,0,L|272:32,1,56,8|0,0:0|0:0,0:0:0:0:
112,80,73750,2,0,L|96:0,1,56,0|0,0:0|0:0,0:0:0:0:
272,32,73911,2,0,L|416:32,2,112,2|2|8,0:0|0:0|0:0,0:0:0:0:
496,160,74392,6,0,L|368:160,1,112,8|2,0:0|0:0,0:0:0:0:
256,224,74713,2,0,L|384:224,2,112,8|0|8,0:0|0:0|0:0,0:0:0:0:
480,304,75194,2,0,L|496:176,1,112,2|2,0:0|0:0,0:0:0:0:
240,240,75515,2,0,L|224:112,1,112,8|0,0:0|0:0,0:0:0:0:
464,96,75836,6,0,L|320:96,1,112,8|0,0:3|0:0,0:0:0:0:
224,96,76157,1,8,0:0:0:0:
178,124,76237,1,0,0:0:0:0:
176,177,76317,1,2,0:3:0:0:
220,208,76397,1,0,0:0:0:0:
384,208,76478,5,2,0:0:0:0:
429,236,76558,1,0,0:0:0:0:
431,289,76638,1,2,0:3:0:0:
387,320,76718,1,0,0:0:0:0:
208,320,76799,2,0,L|144:320,1,56,2|0,0:0|0:0,0:0:0:0:
304,256,76959,2,0,L|384:256,1,56,8|0,0:0|0:0,0:0:0:0:
208,208,77119,6,0,L|80:208,1,112,2|2,0:0|0:3,0:0:0:0:
160,208,77360,1,0,0:0:0:0:
304,192,77440,1,8,0:0:0:0:
347,161,77520,1,0,0:0:0:0:
341,108,77600,1,2,0:3:0:0:
291,88,77680,1,0,0:0:0:0:
144,96,77761,6,0,L|160:16,1,56,2|0,0:0|0:0,0:0:0:0:
240,80,77921,2,0,L|256:0,1,56,2|2,0:3|0:3,0:0:0:0:
160,32,78082,2,0,L|32:32,1,112,8|2,0:0|0:3,0:0:0:0:
304,160,78403,6,0,L|416:160,2,112,2|0|8,0:0|0:0|0:0,0:0:0:0:
432,208,78884,1,0,0:0:0:0:
208,256,79045,2,0,L|96:256,1,112,2|0,0:0|0:0,0:0:0:0:
240,208,79365,1,8,0:0:0:0:
16,176,79526,2,0,L|144:176,1,112,8|0,0:0|0:0,0:0:0:0:
352,176,79847,2,0,L|224:176,1,112,8|0,0:0|0:0,0:0:0:0:
304,176,80087,1,0,0:0:0:0:
464,176,80168,2,0,L|384:176,1,56,8|0,0:0|0:0,0:0:0:0:
208,176,80328,6,0,L|192:256,1,56,2|0,0:0|0:0,0:0:0:0:
352,240,80488,2,0,L|336:320,1,56,2|0,0:0|0:0,0:0:0:0:
160,336,80649,1,8,0:0:0:0:
108,324,80729,1,0,0:0:0:0:
97,273,80809,1,2,0:3:0:0:
140,242,80889,1,0,0:0:0:0:
352,288,80970,5,8,0:3:0:0:
416,272,81050,2,0,L|426:207,2,56,0|2|0,0:0|0:3|0:0,0:0:0:0:
256,224,81291,2,0,L|240:144,1,56,8|0,0:0|0:0,0:0:0:0:
416,160,81451,2,0,L|432:80,1,56,2|0,0:3|0:0,0:0:0:0:
240,144,81611,5,2,0:0:0:0:
188,132,81691,1,0,0:0:0:0:
177,81,81771,1,2,0:3:0:0:
220,50,81851,1,0,0:0:0:0:
384,112,81932,1,2,0:0:0:0:
435,100,82012,1,0,0:0:0:0:
271,62,82093,1,8,0:0:0:0:
220,50,82173,1,0,0:0:0:0:
400,208,82253,6,0,L|409:285,1,56,2|0,0:0|0:0,0:0:0:0:
240,240,82414,2,0,L|231:317,1,56,2|0,0:3|0:0,0:0:0:0:
304,320,82574,2,0,L|384:320,1,56,8|0,0:0|0:0,0:0:0:0:
176,320,82734,2,0,L|96:320,1,56,2|0,0:3|0:0,0:0:0:0:
352,240,82895,6,0,L|416:240,2,56,2|0|2,0:0|0:0|0:3,0:0:0:0:
176,240,83135,1,2,0:3:0:0:
352,176,83216,2,0,L|416:176,1,56,8|0,0:0|0:0,0:0:0:0:
232,240,83376,2,0,L|152:240,1,56,2|0,0:3|0:0,0:0:0:0:
400,272,83537,6,0,L|416:192,1,56,2|0,0:0|0:0,0:0:0:0:
224,208,83697,2,0,L|208:128,1,56,2|0,0:3|0:0,0:0:0:0:
368,144,83857,2,0,L|352:64,1,56,8|0,0:0|0:0,0:0:0:0:
176,80,84018,2,0,L|96:80,1,56,2|0,0:3|0:0,0:0:0:0:
304,272,84178,6,0,L|320:192,1,56,2|0,0:0|0:0,0:0:0:0:
128,208,84338,2,0,L|112:128,1,56,2|0,0:0|0:0,0:0:0:0:
272,144,84498,2,0,L|256:64,1,56,8|0,0:0|0:0,0:0:0:0:
80,80,84660,2,0,P|48:128|32:208,1,112,8|0,0:0|0:0,0:0:0:0:
32,256,84980,6,0,L|496:256,1,448,8|8,0:0|0:0,0:0:0:0:
256,256,85462,1,2,0:0:0:0:
384,208,85622,2,0,L|400:96,1,112,2|8,0:0|0:0,0:0:0:0:
272,144,85943,1,8,0:0:0:0:
48,224,86103,6,0,L|48:48,1,168,2|0,0:0|0:0,0:0:0:0:
224,64,86424,2,0,L|224:192,1,112,2|0,0:0|0:0,0:0:0:0:
96,224,86745,1,8,0:0:0:0:
240,256,86906,2,0,L|368:256,1,112,0|0,0:0|0:0,0:0:0:0:
128,192,87226,1,2,0:0:0:0:
400,224,87387,6,0,L|400:48,1,168,2|0,0:0|0:0,0:0:0:0:
224,64,87708,2,0,L|352:64,1,112,2|2,0:0|0:0,0:0:0:0:
192,128,88029,1,8,0:0:0:0:
336,160,88189,2,0,L|464:160,2,112,0|2|2,0:0|0:0|0:0,0:0:0:0:
96,288,88670,6,0,P|40:236|96:192,1,168,2|0,0:0|0:0,0:0:0:0:
256,192,88991,2,0,P|336:160|352:64,1,168,2|0,0:3|0:0,0:0:0:0:
192,160,89312,2,0,P|112:128|96:32,1,168,8|0,0:0|0:0,0:0:0:0:
256,64,89633,2,0,L|384:64,1,112,2|2,0:3|0:0,0:0:0:0:
144,128,89954,6,0,L|128:256,1,112,2|0,0:0|0:0,0:0:0:0:
256,272,90275,2,0,L|128:272,1,112,2|0,0:0|0:0,0:0:0:0:
432,240,90595,1,8,0:0:0:0:
304,224,90756,2,0,L|288:112,1,112,0|2,0:0|0:0,0:0:0:0:
416,96,91077,1,0,0:0:0:0:
192,128,91237,6,0,P|144:176|217:244,1,168,2|0,0:0|0:0,0:0:0:0:
352,256,91558,2,0,P|386:209|336:192,1,112,2|0,0:0|0:0,0:0:0:0:
224,192,91879,1,8,0:0:0:0:
352,144,92039,2,0,L|224:144,1,112,0|2,0:0|0:0,0:0:0:0:
16,144,92360,1,2,0:0:0:0:
272,288,92520,6,0,P|323:256|256:192,1,168,2|0,0:0|0:0,0:0:0:0:
112,192,92841,2,0,L|224:192,1,112,2|2,0:0|0:0,0:0:0:0:
352,192,93162,1,8,0:0:0:0:
224,128,93323,2,0,L|208:0,1,112,0|0,0:0|0:0,0:0:0:0:
336,96,93643,1,2,0:0:0:0:
112,288,93804,6,0,P|64:256|16:160,1,168,2|0,0:0|0:0,0:0:0:0:
176,128,94125,2,0,L|352:128,1,168,2|0,0:3|0:0,0:0:0:0:
496,159,94446,2,0,P|465:236|400:288,1,168,8|0,0:0|0:0,0:0:0:0:
200,304,94766,2,0,L|312:304,1,112,2|2,0:3|0:0,0:0:0:0:
64,304,95087,6,0,P|16:256|96:208,1,168,2|0,0:0|0:0,0:0:0:0:
224,192,95408,2,0,P|272:144|192:96,1,168,2|0,0:0|0:0,0:0:0:0:
64,304,95729,5,8,0:0:0:0:
288,304,95889,2,0,L|304:192,1,112,0|2,0:0|0:0,0:0:0:0:
176,192,96210,1,0,0:0:0:0:
448,224,96371,6,0,P|416:128|320:96,1,168,2|0,0:0|0:0,0:0:0:0:
208,96,96692,2,0,L|64:96,1,112,2|0,0:0|0:0,0:0:0:0:
240,160,97012,1,8,0:0:0:0:
96,224,97173,2,0,L|240:224,1,112,0|2,0:0|0:0,0:0:0:0:
448,224,97494,1,2,0:0:0:0:
208,288,97654,6,0,P|128:256|96:160,1,168,2|0,0:0|0:0,0:0:0:0:
256,160,97975,2,0,L|368:160,1,112,2|2,0:0|0:0,0:0:0:0:
240,224,98296,1,8,0:0:0:0:
368,288,98456,2,0,L|384:160,1,112,0|2,0:0|0:0,0:0:0:0:
256,160,98777,1,2,0:0:0:0:
32,208,98938,6,0,P|64:288|144:320,1,168,2|0,0:0|0:0,0:0:0:0:
288,320,99258,2,0,P|362:284|390:208,1,168,2|0,0:3|0:0,0:0:0:0:
224,224,99579,2,0,P|176:192|242:117,1,168,8|0,0:0|0:0,0:0:0:0:
390,208,99900,2,0,L|240:208,1,112,2|2,0:3|0:0,0:0:0:0:
48,208,100221,6,0,L|176:208,1,112,2|0,0:0|0:0,0:0:0:0:
288,176,100542,2,0,L|160:176,1,112,2|0,0:0|0:0,0:0:0:0:
416,128,100863,1,8,0:0:0:0:
288,112,101023,2,0,L|304:256,1,112,0|2,0:0|0:0,0:0:0:0:
432,240,101344,1,0,0:0:0:0:
192,304,101504,6,0,P|128:272|192:224,1,168,2|0,0:0|0:0,0:0:0:0:
320,192,101825,2,0,L|208:192,1,112,2|0,0:0|0:0,0:0:0:0:
80,176,102146,1,8,0:0:0:0:
208,128,102307,2,0,L|320:128,1,112,0|0,0:0|0:0,0:0:0:0:
80,80,102627,1,2,0:0:0:0:
320,64,102788,6,0,P|368:96|288:144,1,168,2|0,0:0|0:0,0:0:0:0:
160,192,103109,2,0,L|272:192,1,112,2|2,0:0|0:0,0:0:0:0:
144,256,103430,1,8,0:0:0:0:
272,304,103590,2,0,L|416:304,2,112,0|2|2,0:0|0:0|0:0,0:0:0:0:
48,288,104071,6,0,L|64:224,1,56,2|0,0:0|0:0,0:0:0:0:
224,208,104232,2,0,L|288:208,1,56,0|0,0:0|0:0,0:0:0:0:
464,288,104392,1,8,0:0:0:0:
352,288,104553,6,0,L|272:288,1,56,2|0,0:0|0:0,0:0:0:0:
464,208,104713,2,0,L|480:128,1,56,0|0,0:0|0:0,0:0:0:0:
288,128,104873,1,8,0:0:0:0:
400,288,105034,6,0,L|464:288,1,56,2|0,0:0|0:0,0:0:0:0:
288,208,105195,2,0,L|224:208,1,56,2|0,0:0|0:0,0:0:0:0:
64,288,105355,1,8,0:0:0:0:
176,288,105515,6,0,L|240:288,1,56,2|0,0:0|0:0,0:0:0:0:
80,240,105676,2,0,L|16:240,1,56,0|0,0:0|0:0,0:0:0:0:
224,192,105836,2,0,L|288:192,1,56,8|0,0:0|0:0,0:0:0:0:
448,192,105996,6,0,L|464:112,1,56,2|0,0:0|0:0,0:0:0:0:
288,128,106157,2,0,L|224:128,1,56,8|0,0:0|0:0,0:0:0:0:
64,192,106317,2,0,L|48:112,1,56,8|0,0:0|0:0,0:0:0:0:
224,128,106478,2,0,L|288:128,1,56,0|0,0:0|0:0,0:0:0:0:
112,320,106638,6,0,L|96:160,1,112,2|0,0:0|0:0,0:0:0:0:
240,256,106959,2,0,L|256:96,1,112,2|0,0:0|0:0,0:0:0:0:
400,320,107280,2,0,L|416:240,1,56,2|0,0:0|0:0,0:0:0:0:
240,256,107440,2,0,L|224:176,1,56,2|0,0:3|0:0,0:0:0:0:
304,208,107601,2,0,L|320:128,1,56,2|0,0:0|0:0,0:0:0:0:
144,144,107761,2,0,L|128:64,1,56,2|0,0:3|0:0,0:0:0:0:
400,320,107922,6,0,L|416:160,1,112,2|0,0:0|0:0,0:0:0:0:
272,256,108243,2,0,L|256:96,1,112,0|0,0:0|0:0,0:0:0:0:
112,320,108563,2,0,L|96:160,1,112,2|2,0:0|0:3,0:0:0:0:
240,256,108884,2,0,L|256:96,1,112,2|2,0:0|0:3,0:0:0:0:
16,144,109205,6,0,L|160:144,2,112,2|0|0,0:0|0:0|0:0,0:0:0:0:
256,144,109686,1,0,0:0:0:0:
16,224,109847,2,0,L|128:224,1,112,0|2,0:0|0:3,0:0:0:0:
368,224,110168,2,0,L|240:224,1,112,0|0,0:0|0:0,0:0:0:0:
384,224,110488,6,0,L|528:224,1,112,2|0,0:0|0:0,0:0:0:0:
368,160,110809,2,0,L|496:160,1,112,2|0,0:0|0:0,0:0:0:0:
224,160,111130,2,0,L|208:288,1,112,2|2,0:0|0:3,0:0:0:0:
272,288,111371,1,2,0:3:0:0:
432,224,111451,2,0,L|448:352,1,112,0|2,0:0|0:3,0:0:0:0:
288,336,111772,6,0,L|272:208,1,112,2|0,0:0|0:0,0:0:0:0:
381,191,112093,1,0,0:0:0:0:
144,144,112253,1,0,0:0:0:0:
368,80,112414,2,0,L|384:208,1,112,0|0,0:0|0:0,0:0:0:0:
256,224,112734,1,2,0:0:0:0:
496,240,112895,6,0,L|256:240,1,224,2|0,0:3|0:0,0:0:0:0:
48,240,113376,2,0,L|160:240,1,112,2|0,0:0|0:0,0:0:0:0:
288,192,113697,2,0,L|160:192,1,112,0|2,0:0|0:3,0:0:0:0:
240,192,113938,1,2,0:3:0:0:
384,192,114018,2,0,L|496:192,1,112,0|2,0:0|0:3,0:0:0:0:
240,304,114339,6,0,L|224:176,1,112,2|0,0:0|0:0,0:0:0:0:
368,176,114660,1,0,0:0:0:0:
411,145,114740,1,0,0:0:0:0:
405,92,114820,1,0,0:0:0:0:
355,72,114900,1,0,0:0:0:0:
192,80,114980,6,0,L|176:160,1,56,10|0,0:0|0:0,0:0:0:0:
256,128,115141,2,0,L|272:208,1,56,2|0,0:3|0:0,0:0:0:0:
96,192,115301,1,10,0:0:0:0:
52,161,115381,1,0,0:0:0:0:
58,108,115461,1,2,0:3:0:0:
108,88,115541,1,0,0:0:0:0:
256,256,115622,6,0,L|320:256,1,56,10|0,0:0|0:0,0:0:0:0:
240,208,115783,2,0,L|224:144,1,56,0|0,0:0|0:0,0:0:0:0:
304,176,115943,2,0,L|368:176,1,56,0|0,0:0|0:0,0:0:0:0:
288,128,116104,2,0,L|272:64,1,56,0|0,0:0|0:0,0:0:0:0:
432,112,116263,5,10,0:0:0:0:
476,140,116344,1,0,0:0:0:0:
465,192,116424,1,2,0:3:0:0:
413,201,116504,1,0,0:0:0:0:
144,208,116585,2,0,L|0:208,1,112,0|2,0:0|0:3,0:0:0:0:
272,272,116906,5,2,0:0:0:0:
400,256,117066,2,0,L|416:128,1,112,0|0,0:0|0:0,0:0:0:0:
288,128,117387,1,0,0:0:0:0:
32,160,117547,2,0,L|48:240,1,56,2|0,0:0|0:0,0:0:0:0:
128,240,117708,2,0,L|208:240,1,56,2|0,0:3|0:0,0:0:0:0:
384,240,117868,2,0,L|368:320,1,56,2|0,0:0|0:0,0:0:0:0:
288,320,118029,2,0,L|208:320,1,56,2|0,0:3|0:0,0:0:0:0:
432,320,118189,6,0,L|448:176,1,112,2|0,0:0|0:0,0:0:0:0:
224,256,118510,2,0,P|144:192|224:144,1,224,0|0,0:0|0:0,0:0:0:0:
352,144,118991,1,2,0:3:0:0:
208,80,119152,2,0,L|80:80,1,112,0|0,0:0|0:0,0:0:0:0:
400,304,119472,6,0,L|416:192,1,112,2|0,0:0|0:0,0:0:0:0:
192,176,119793,1,2,0:0:0:0:
416,128,119954,1,0,0:0:0:0:
288,96,120114,2,0,L|160:96,1,112,2|2,0:0|0:3,0:0:0:0:
320,160,120435,1,2,0:0:0:0:
96,192,120595,6,0,P|112:272|256:320,1,224,2|0,0:3|0:0,0:0:0:0:
368,272,121077,1,0,0:0:0:0:
224,256,121237,2,0,P|160:208|234:106,1,224,0|2,0:0|0:3,0:0:0:0:
496,112,121718,2,0,L|368:112,1,112,2|2,0:0|0:3,0:0:0:0:
48,160,122039,5,2,0:0:0:0:
320,176,122200,2,0,L|336:112,1,56,8|0,0:0|0:0,0:0:0:0:
192,176,122360,2,0,L|176:112,1,56,8|0,0:0|0:0,0:0:0:0:
368,144,122520,5,2,0:0:0:0:
411,113,122600,1,0,0:0:0:0:
405,60,122680,1,8,0:0:0:0:
355,40,122760,1,0,0:0:0:0:
176,48,122841,2,0,L|112:48,1,56,8|0,0:0|0:0,0:0:0:0:
304,144,123002,6,0,L|384:144,1,56,2|0,0:0|0:0,0:0:0:0:
208,144,123162,1,8,0:0:0:0:
156,156,123242,1,0,0:0:0:0:
144,208,123322,1,8,0:0:0:0:
184,241,123402,1,0,0:0:0:0:
352,256,123483,6,0,L|432:256,1,56,2|0,0:0|0:0,0:0:0:0:
336,224,123643,2,0,L|272:224,1,56,8|0,0:0|0:0,0:0:0:0:
464,208,123804,2,0,L|480:128,1,56,0|0,0:0|0:0,0:0:0:0:
208,160,123964,6,0,L|128:160,1,56,2|0,0:0|0:0,0:0:0:0:
320,128,124125,2,0,L|400:128,1,56,8|0,0:0|0:0,0:0:0:0:
192,96,124285,1,8,0:0:0:0:
136,98,124365,1,0,0:0:0:0:
97,132,124445,1,8,0:0:0:0:
86,189,124525,1,0,0:0:0:0:
336,176,124606,6,0,L|352:256,1,56,2|0,0:0|0:0,0:0:0:0:
192,272,124766,2,0,L|96:272,1,56,2|0,0:3|0:0,0:0:0:0:
336,176,124927,2,0,L|352:256,1,56,2|0,0:0|0:0,0:0:0:0:
176,304,125087,2,0,L|80:304,1,56,2|0,0:3|0:0,0:0:0:0:
336,176,125248,6,0,L|352:256,1,56,2|0,0:0|0:0,0:0:0:0:
160,272,125408,2,0,L|64:272,1,56,2|0,0:3|0:0,0:0:0:0:
336,176,125569,2,0,L|352:240,1,56,2|0,0:0|0:0,0:0:0:0:
144,240,125729,2,0,L|48:240,1,56,2|0,0:3|0:0,0:0:0:0:
384,240,125889,6,0,L|368:160,1,56,2|0,0:0|0:0,0:0:0:0:
176,112,126050,2,0,L|112:112,1,56,2|0,0:3|0:0,0:0:0:0:
416,208,126210,2,0,L|400:144,1,56,2|0,0:0|0:0,0:0:0:0:
160,144,126371,2,0,L|96:144,1,56,2|0,0:3|0:0,0:0:0:0:
448,240,126531,6,0,L|432:176,1,56,2|0,0:3|0:0,0:0:0:0:
144,112,126692,1,2,0:3:0:0:
91,115,126772,1,0,0:0:0:0:
75,165,126852,1,0,0:0:0:0:
116,198,126932,1,0,0:0:0:0:
432,256,127012,2,0,L|512:256,1,56,2|0,0:3|0:0,0:0:0:0:
176,192,127173,5,4,0:3:0:0:
256,192,127333,12,4,129740,0:3:0:0:
256,272,132307,6,0,P|183:192|256:160,1,224,4|0,0:3|0:0,0:0:0:0:
352,160,132948,1,0,0:0:0:0:
255,159,133109,2,0,P|177:216|256:272,1,224,0|0,0:0|0:0,0:0:0:0:
352,208,133590,6,0,P|430:265|351:321,1,224,0|0,0:0|0:0,0:0:0:0:
256,224,134071,2,0,P|334:281|255:337,1,224,0|0,0:0|0:0,0:0:0:0:
160,208,134553,1,0,0:0:0:0:
352,208,134873,5,4,0:3:0:0:
256,208,135034,2,0,B|184:123|184:123|258:211,1,224,0|0,0:0|0:0,0:0:0:0:
160,208,135515,2,0,B|88:123|88:123|162:211,1,224,0|0,0:0|0:0,0:0:0:0:
256,208,135996,6,0,B|184:123|184:123|258:211,1,224,0|0,0:0|0:0,0:0:0:0:
352,208,136478,2,0,B|280:123|280:123|354:211,1,224,0|0,0:0|0:0,0:0:0:0:
256,208,136959,1,0,0:0:0:0:
160,208,137119,1,2,0:3:0:0:
256,208,137280,1,0,0:0:0:0:
480,96,137440,6,0,L|465:207,3,112,2|0|0|0,0:0|0:0|0:0|0:0,0:0:0:0:
352,96,138082,1,2,0:3:0:0:
480,96,138242,1,0,0:0:0:0:
352,96,138403,2,0,L|336:224,1,112,0|0,0:0|0:0,0:0:0:0:
208,192,138724,6,0,L|224:320,1,112,0|0,0:0|0:0,0:0:0:0:
336,320,139045,1,0,0:0:0:0:
224,320,139205,1,0,0:0:0:0:
336,288,139365,2,0,L|352:176,1,112,2|0,0:3|0:0,0:0:0:0:
240,224,139686,2,0,L|224:112,1,112,0|0,0:0|0:0,0:0:0:0:
80,112,140007,6,0,L|64:224,3,112,2|0|0|0,0:0|0:0|0:0|0:0,0:0:0:0:
192,112,140649,1,2,0:3:0:0:
320,112,140809,1,0,0:0:0:0:
192,112,140970,2,0,L|176:240,1,112,0|0,0:0|0:0,0:0:0:0:
320,208,141291,6,0,L|336:320,3,112,0|0|0|0,0:0|0:0|0:0|0:0,0:0:0:0:
224,336,141932,1,2,0:3:0:0:
336,336,142093,2,0,L|352:272,2,56,0|0|0,0:0|0:0|0:0,0:0:0:0:
224,336,142414,1,0,0:0:0:0:
368,336,142574,6,0,L|384:224,1,112,2|0,0:0|0:0,0:0:0:0:
272,240,142895,2,0,L|256:128,1,112,0|0,0:0|0:0,0:0:0:0:
384,96,143216,1,2,0:3:0:0:
256,96,143376,1,0,0:0:0:0:
384,192,143537,2,0,L|400:80,1,112,0|0,0:0|0:0,0:0:0:0:
240,80,143857,6,0,L|224:190,3,112,2|0|0|0,0:3|0:0|0:0|0:0,0:0:0:0:
336,192,144499,2,0,L|320:302,1,112,2|0,0:3|0:0,0:0:0:0:
448,224,144820,2,0,L|463:334,1,112,0|0,0:0|0:0,0:0:0:0:
192,336,145141,5,2,0:0:0:0:
146,310,145221,1,0,0:0:0:0:
150,260,145301,1,0,0:0:0:0:
210,257,145381,1,0,0:0:0:0:
384,224,145462,2,0,L|304:224,1,56,0|0,0:0|0:0,0:0:0:0:
144,224,145622,2,0,L|64:224,1,56,0|0,0:0|0:0,0:0:0:0:
256,176,145783,6,0,L|320:176,1,56,2|0,0:3|0:0,0:0:0:0:
464,176,145943,2,0,L|480:96,1,56,0|0,0:0|0:0,0:0:0:0:
304,112,146103,2,0,L|240:112,1,56,0|0,0:0|0:0,0:0:0:0:
96,112,146263,2,0,L|80:32,1,56,0|0,0:0|0:0,0:0:0:0:
304,48,146424,6,0,L|400:48,1,56,2|0,0:3|0:0,0:0:0:0:
192,144,146585,2,0,L|112:144,1,56,0|0,0:0|0:0,0:0:0:0:
208,176,146745,2,0,L|224:256,1,56,0|0,0:0|0:0,0:0:0:0:
32,240,146906,2,0,L|16:304,1,56,0|0,0:0|0:0,0:0:0:0:
224,320,147066,6,0,L|304:320,1,56,2|0,0:3|0:0,0:0:0:0:
128,256,147226,2,0,L|128:192,1,56,0|0,0:0|0:0,0:0:0:0:
304,192,147387,1,2,0:3:0:0:
332,192,147427,1,0,0:0:0:0:
360,192,147467,1,0,0:0:0:0:
176,144,147547,2,0,L|144:144,2,28,0|0|0,0:0|0:0|0:0,0:0:0:0:
384,336,147708,6,0,P|464:304|365:34,1,448,2|0,0:0|0:0,0:0:0:0:
256,96,148510,2,0,L|368:96,1,112,0|0,0:0|0:0,0:0:0:0:
128,176,148831,1,0,0:0:0:0:
368,288,148991,6,0,L|176:288,1,168,8|0,0:3|0:0,0:0:0:0:
16,256,149311,2,0,L|144:256,1,112,8|0,0:0|0:0,0:0:0:0:
272,192,149632,2,0,L|160:192,1,112,2|0,0:0|0:0,0:0:0:0:
128,96,149953,1,2,0:0:0:0:
368,112,150114,6,0,L|384:256,1,112,8|2,0:0|0:0,0:0:0:0:
240,240,150434,1,0,0:0:0:0:
384,288,150595,2,0,L|512:288,1,112,8|0,0:0|0:0,0:0:0:0:
256,304,150916,2,0,L|128:304,1,112,2|2,0:0|0:3,0:0:0:0:
208,304,151156,1,2,0:3:0:0:
400,240,151237,2,0,L|288:240,1,112,8|0,0:0|0:0,0:0:0:0:
32,208,151557,6,0,L|160:208,1,112,2|0,0:0|0:0,0:0:0:0:
368,192,151878,2,0,L|176:192,1,168,8|0,0:0|0:0,0:0:0:0:
352,176,152199,2,0,L|368:48,1,112,2|2,0:0|0:0,0:0:0:0:
240,64,152520,1,8,0:0:0:0:
464,80,152680,2,0,L|448:208,1,112,8|2,0:0|0:0,0:0:0:0:
208,224,153002,6,0,L|80:224,2,112,8|0|8,0:0|0:0|0:0,0:0:0:0:
336,272,153483,2,0,L|448:272,1,112,2|2,0:0|0:0,0:0:0:0:
320,320,153803,2,0,L|208:320,1,112,8|0,0:0|0:0,0:0:0:0:
432,272,154124,6,0,P|487:217|423:171,1,168,8|0,0:3|0:0,0:0:0:0:
288,176,154445,2,0,L|160:176,1,112,8|0,0:0|0:0,0:0:0:0:
304,224,154766,2,0,L|416:224,1,112,2|0,0:0|0:0,0:0:0:0:
288,128,155087,1,2,0:0:0:0:
48,64,155247,6,0,L|208:64,1,112,8|2,0:0|0:0,0:0:0:0:
288,64,155568,1,0,0:0:0:0:
160,128,155729,2,0,L|144:240,1,112,8|0,0:0|0:0,0:0:0:0:
368,304,156049,2,0,L|256:304,1,112,2|2,0:0|0:3,0:0:0:0:
192,304,156290,1,2,0:3:0:0:
352,256,156370,2,0,L|464:256,1,112,8|0,0:0|0:0,0:0:0:0:
224,240,156691,6,0,L|208:128,1,112,2|0,0:0|0:0,0:0:0:0:
336,112,157012,2,0,L|320:32,1,56,8|0,0:0|0:0,0:0:0:0:
160,96,157172,2,0,L|176:16,1,56,0|0,0:0|0:0,0:0:0:0:
336,32,157333,2,0,L|480:32,2,112,2|2|8,0:0|0:0|0:0,0:0:0:0:
96,160,157814,6,0,L|224:160,1,112,8|2,0:0|0:0,0:0:0:0:
336,224,158135,2,0,L|208:224,2,112,8|0|8,0:0|0:0|0:0,0:0:0:0:
96,304,158616,2,0,L|80:176,1,112,2|2,0:0|0:0,0:0:0:0:
336,208,158937,2,0,L|352:80,1,112,8|0,0:0|0:0,0:0:0:0:
80,80,159258,6,0,L|224:80,1,112,8|0,0:3|0:0,0:0:0:0:
336,112,159579,1,8,0:0:0:0:
336,166,159659,1,0,0:0:0:0:
299,206,159739,1,2,0:3:0:0:
244,209,159819,1,0,0:0:0:0:
80,224,159900,5,2,0:0:0:0:
79,278,159980,1,0,0:0:0:0:
116,318,160060,1,2,0:3:0:0:
171,321,160140,1,0,0:0:0:0:
336,320,160221,2,0,L|400:320,1,56,2|0,0:0|0:0,0:0:0:0:
240,256,160381,2,0,L|160:256,1,56,8|0,0:0|0:0,0:0:0:0:
352,208,160542,6,0,L|480:208,1,112,2|2,0:0|0:3,0:0:0:0:
400,208,160783,1,0,0:0:0:0:
240,208,160863,1,8,0:0:0:0:
185,208,160943,1,0,0:0:0:0:
147,169,161023,1,2,0:3:0:0:
147,114,161103,1,0,0:0:0:0:
304,96,161183,6,0,L|384:96,1,56,2|0,0:0|0:0,0:0:0:0:
272,80,161344,2,0,L|256:0,1,56,2|2,0:3|0:3,0:0:0:0:
352,32,161504,2,0,L|480:32,1,112,8|2,0:0|0:3,0:0:0:0:
208,160,161825,6,0,L|96:160,2,112,2|0|8,0:0|0:0|0:0,0:0:0:0:
80,208,162306,1,0,0:0:0:0:
304,256,162467,2,0,L|416:256,1,112,2|2,0:0|0:0,0:0:0:0:
272,208,162787,1,8,0:0:0:0:
496,176,162948,6,0,L|368:176,1,112,8|2,0:0|0:0,0:0:0:0:
160,176,163269,2,0,L|288:176,1,112,8|0,0:0|0:0,0:0:0:0:
208,176,163509,1,0,0:0:0:0:
48,176,163590,2,0,L|128:176,1,56,8|0,0:0|0:0,0:0:0:0:
304,176,163750,6,0,L|320:256,1,56,2|0,0:0|0:0,0:0:0:0:
170,294,163910,2,0,L|160:240,1,56,2|0,0:0|0:0,0:0:0:0:
352,336,164071,1,8,0:0:0:0:
404,324,164151,1,0,0:0:0:0:
415,273,164231,1,2,0:3:0:0:
372,242,164311,1,0,0:0:0:0:
120,295,164392,6,0,L|112:240,2,56,8|0|2,0:3|0:0|0:3,0:0:0:0:
184,311,164632,1,0,0:0:0:0:
336,272,164713,2,0,L|352:192,1,56,8|0,0:0|0:0,0:0:0:0:
176,208,164873,2,0,L|160:128,1,56,2|0,0:3|0:0,0:0:0:0:
352,144,165033,5,2,0:0:0:0:
404,132,165113,1,0,0:0:0:0:
415,81,165193,1,2,0:3:0:0:
372,50,165275,1,0,0:0:0:0:
208,96,165354,1,2,0:0:0:0:
157,84,165434,1,0,0:0:0:0:
321,46,165515,1,8,0:0:0:0:
372,34,165595,1,0,0:0:0:0:
176,176,165675,6,0,L|167:253,1,56,2|0,0:0|0:0,0:0:0:0:
352,240,165836,2,0,L|432:240,1,56,2|0,0:3|0:0,0:0:0:0:
336,272,165996,2,0,L|256:272,1,56,8|0,0:0|0:0,0:0:0:0:
464,256,166156,2,0,L|480:320,1,56,2|0,0:3|0:0,0:0:0:0:
256,320,166317,6,0,L|192:320,2,56,2|0|2,0:0|0:0|0:3,0:0:0:0:
416,320,166558,1,2,0:3:0:0:
256,272,166638,2,0,L|192:272,1,56,8|0,0:0|0:0,0:0:0:0:
368,224,166798,2,0,L|448:224,1,56,2|0,0:3|0:0,0:0:0:0:
224,224,166959,6,0,L|144:224,1,56,2|0,0:0|0:0,0:0:0:0:
336,192,167119,2,0,L|352:112,1,56,2|0,0:3|0:0,0:0:0:0:
192,128,167279,2,0,L|208:48,1,56,8|0,0:0|0:0,0:0:0:0:
368,64,167440,2,0,L|448:64,1,56,2|0,0:3|0:0,0:0:0:0:
240,272,167600,6,0,L|176:272,1,56,2|0,0:0|0:0,0:0:0:0:
384,208,167760,2,0,L|400:128,1,56,2|0,0:0|0:0,0:0:0:0:
224,144,167922,2,0,L|160:144,1,56,8|0,0:0|0:0,0:0:0:0:
368,80,168082,2,0,L|496:80,1,112,8|0,0:0|0:0,0:0:0:0:
480,256,168403,6,0,L|16:256,1,448,8|8,0:0|0:0,0:0:0:0:
256,256,168884,1,2,0:0:0:0:
384,224,169045,2,0,L|400:112,1,112,2|8,0:0|0:0,0:0:0:0:
256,192,169526,12,0,171772,0:0:0:0:
256,192,172093,12,0,174339,0:0:0:0:
256,192,174660,12,0,176906,0:0:0:0:
256,192,177226,12,0,178189,0:0:0:0:
192,272,178510,6,0,L|176:208,1,56,0|0,0:0|0:0,0:0:0:0:
320,272,178670,2,0,L|336:208,1,56,0|0,0:0|0:0,0:0:0:0:
192,272,178831,2,0,L|176:208,1,56,0|0,0:0|0:0,0:0:0:0:
320,272,178991,2,0,L|336:208,1,56,0|0,0:0|0:0,0:0:0:0:
160,160,179152,2,0,L|96:160,1,56,0|0,0:0|0:0,0:0:0:0:
352,160,179312,2,0,L|416:160,1,56,0|0,0:0|0:0,0:0:0:0:
160,160,179472,2,0,L|96:160,1,56,0|0,0:0|0:0,0:0:0:0:
352,160,179632,2,0,L|416:160,1,56,0|0,0:0|0:0,0:0:0:0:
