osu file format v14

[General]
AudioFilename: audio.mp3
AudioLeadIn: 0
PreviewTime: 147717
Countdown: 0
SampleSet: Normal
StackLeniency: 0.7
Mode: 3
LetterboxInBreaks: 0
SpecialStyle: 0
WidescreenStoryboard: 1

[Editor]
DistanceSpacing: 1
BeatDivisor: 4
GridSize: 4
TimelineZoom: 1.4

[Metadata]
Title:Magical Musical Master
TitleUnicode:Magical Musical Master
Artist:sakuzyo
ArtistUnicode:削除
Creator:Das-[Hikari]-
Version:Normal
Source:
Tags:VitMaster remix Pop Candy Wonderland madoka2574 Diverse System artcore orchestra
BeatmapID:1092092
BeatmapSetID:513701

[Difficulty]
HPDrainRate:7
CircleSize:4
OverallDifficulty:7
ApproachRate:5
SliderMultiplier:1.6
SliderTickRate:1

[Events]
//Background and Video events
0,0,"mmm.jpg",0,0
//Break Periods
//Storyboard Layer 0 (Background)
//Storyboard Layer 1 (Fail)
//Storyboard Layer 2 (Pass)
//Storyboard Layer 3 (Foreground)
//Storyboard Sound Samples

[TimingPoints]
1410,320.855614973262,4,1,1,70,1,0
65581,-100,4,1,1,70,0,1
86115,-100,4,1,1,70,0,0
149003,-100,4,1,1,70,0,1
169538,-100,4,1,1,70,0,0

[HitObjects]
64,192,1410,5,0,0:0:0:70:normal-hitfinish.wav
448,192,1410,1,0,0:0:0:70:LR_RBell_F5.wav
192,192,1730,1,0,0:0:0:0:
448,192,2051,1,0,0:0:0:0:
192,192,2372,1,0,0:0:0:0:
320,192,2693,1,0,0:0:0:0:
64,192,3014,1,0,0:0:0:0:
192,192,3335,1,0,0:0:0:0:
64,192,3655,1,0,0:0:0:0:
320,192,3976,1,0,0:0:0:70:LR_RBell_F5.wav
448,192,4297,1,0,0:0:0:0:
320,192,4618,1,0,0:0:0:0:
192,192,4939,1,0,0:0:0:0:
448,192,5260,1,0,0:0:0:0:
192,192,5581,1,0,0:0:0:0:
320,192,5901,1,0,0:0:0:0:
64,192,6222,1,0,0:0:0:0:
192,192,6543,1,0,0:0:0:70:LR_RBell_F5.wav
320,192,6864,1,0,0:0:0:0:
448,192,7185,1,0,0:0:0:0:
192,192,7506,1,0,0:0:0:0:
320,192,7827,1,0,0:0:0:0:
192,192,8147,1,0,0:0:0:0:
448,192,8468,1,0,0:0:0:0:
64,192,8789,1,0,0:0:0:0:
320,192,9110,1,0,0:0:0:70:LR_RBell_F5.wav
64,192,9431,1,0,0:0:0:0:
320,192,9752,1,0,0:0:0:0:
192,192,10073,1,0,0:0:0:0:
448,192,10393,1,0,0:0:0:0:
320,192,10714,1,0,0:0:0:0:
64,192,11035,1,0,0:0:0:0:
192,192,11356,1,0,0:0:0:0:
64,192,11677,1,0,0:0:0:70:normal-hitfinish.wav
448,192,11677,1,0,0:0:0:70:LR_RBell_F5.wav
320,192,11998,1,0,0:0:0:0:
64,192,12319,1,0,0:0:0:0:
192,192,12639,1,0,0:0:0:0:
448,192,12800,1,0,0:0:0:0:
320,192,12960,1,0,0:0:0:0:
192,192,13281,1,0,0:0:0:0:
64,192,13602,1,0,0:0:0:0:
192,192,13923,1,0,0:0:0:0:
448,192,14083,1,0,0:0:0:0:
320,192,14244,1,0,0:0:0:70:LR_RBell_F5.wav
192,192,14565,1,0,0:0:0:0:
64,192,14885,1,0,0:0:0:0:
192,192,15046,1,0,0:0:0:0:
320,192,15206,1,0,0:0:0:0:
448,192,15367,1,0,0:0:0:0:
448,192,15527,1,0,0:0:0:0:
192,192,15688,1,0,0:0:0:0:
320,192,15848,1,0,0:0:0:0:
64,192,16008,1,0,0:0:0:0:
192,192,16169,1,0,0:0:0:0:
448,192,16329,1,0,0:0:0:0:
320,192,16490,1,0,0:0:0:0:
192,192,16650,1,0,0:0:0:0:
64,192,16811,1,0,0:0:0:70:LR_RBell_F5.wav
320,192,17131,1,0,0:0:0:0:
192,192,17452,1,0,0:0:0:0:
64,192,17773,1,0,0:0:0:0:
448,192,17934,1,0,0:0:0:0:
192,192,18094,1,0,0:0:0:0:
320,192,18415,1,0,0:0:0:0:
192,192,18736,1,0,0:0:0:0:
64,192,19057,1,0,0:0:0:0:
448,192,19217,1,0,0:0:0:0:
192,192,19377,1,0,0:0:0:70:LR_RBell_F5.wav
320,192,19698,1,0,0:0:0:0:
64,192,20019,1,0,0:0:0:0:
192,192,20180,1,0,0:0:0:0:
320,192,20340,1,0,0:0:0:0:
448,192,20500,1,0,0:0:0:0:
448,192,20661,1,0,0:0:0:0:
192,192,20821,1,0,0:0:0:0:
320,192,20982,1,0,0:0:0:0:
64,192,21142,1,0,0:0:0:0:
192,192,21303,1,0,0:0:0:0:
448,192,21463,1,0,0:0:0:0:
320,192,21623,1,0,0:0:0:0:
192,192,21784,1,0,0:0:0:0:
64,192,21944,128,0,23228:0:0:0:70:kick.wav
320,192,23228,1,0,0:0:0:70:drum-hitnormal.wav
448,192,23228,128,0,23709:0:0:0:70:normal-hitfinish.wav
192,192,23709,1,0,0:0:0:0:
192,192,23869,128,0,24832:0:0:0:70:drum-hitnormal.wav
448,192,24992,1,0,0:0:0:0:
320,192,25153,1,0,0:0:0:70:drum-hitnormal.wav
64,192,25313,1,0,0:0:0:0:
192,192,25474,1,0,0:0:0:70:drum-hitnormal.wav
320,192,25634,1,0,0:0:0:0:
448,192,25795,1,0,0:0:0:70:drum-hitnormal.wav
64,192,25955,1,0,0:0:0:0:
448,192,26115,1,0,0:0:0:70:drum-hitnormal.wav
192,192,26276,1,0,0:0:0:0:
320,192,26436,128,0,27399:0:0:0:70:drum-hitnormal.wav
192,192,27559,1,0,0:0:0:0:
320,192,27720,128,0,28201:0:0:0:70:drum-hitnormal.wav
448,192,28361,128,0,28682:0:0:0:70:drum-hitnormal.wav
192,192,28843,1,0,0:0:0:0:
192,192,29003,128,0,29966:0:0:0:70:drum-hitnormal.wav
64,192,30126,1,0,0:0:0:0:
448,192,30287,1,0,0:0:0:70:drum-hitnormal.wav
192,192,30447,1,0,0:0:0:0:
320,192,30607,1,0,0:0:0:70:drum-hitnormal.wav
64,192,30768,1,0,0:0:0:0:
448,192,30928,1,0,0:0:0:70:drum-hitnormal.wav
192,192,31089,1,0,0:0:0:0:
320,192,31249,1,0,0:0:0:70:drum-hitnormal.wav
448,192,31409,1,0,0:0:0:0:
192,192,31570,128,0,32532:0:0:0:70:drum-hitnormal.wav
64,192,32693,1,0,0:0:0:0:
448,192,32853,1,0,0:0:0:70:drum-hitnormal.wav
192,192,33014,1,0,0:0:0:0:
320,192,33174,1,0,0:0:0:70:drum-hitnormal.wav
64,192,33335,1,0,0:0:0:0:
320,192,33495,1,0,0:0:0:70:drum-hitnormal.wav
448,192,33495,1,0,0:0:0:70:normal-hitfinish.wav
192,192,33816,1,0,0:0:0:70:drum-hitnormal.wav
320,192,33976,1,0,0:0:0:0:
64,192,34297,128,0,34618:0:0:0:0:
320,192,34778,1,0,0:0:0:70:drum-hitnormal.wav
192,192,35099,1,0,0:0:0:70:drum-hitnormal.wav
320,192,35260,1,0,0:0:0:0:
192,192,35581,128,0,35901:0:0:0:0:
448,192,36062,1,0,0:0:0:70:drum-hitnormal.wav
192,192,36383,1,0,0:0:0:70:drum-hitnormal.wav
448,192,36543,128,0,36864:0:0:0:0:
64,192,36864,1,0,0:0:0:0:
192,192,37024,1,0,0:0:0:70:drum-hitnormal.wav
320,192,37185,128,0,37506:0:0:0:0:
448,192,37506,1,0,0:0:0:0:
320,192,37666,1,0,0:0:0:70:drum-hitnormal.wav
192,192,37827,1,0,0:0:0:0:
320,192,37987,1,0,0:0:0:70:drum-hitnormal.wav
192,192,38147,1,0,0:0:0:0:
64,192,38308,1,0,0:0:0:70:drum-hitnormal.wav
320,192,38468,1,0,0:0:0:0:
64,192,38629,128,0,39912:0:0:0:70:drum-hitnormal.wav
448,192,39912,1,0,0:0:0:70:drum-hitnormal.wav
64,192,40233,1,0,0:0:0:70:drum-hitnormal.wav
192,192,40393,1,0,0:0:0:0:
448,192,40554,1,0,0:0:0:70:drum-hitnormal.wav
320,192,40714,1,0,0:0:0:0:
448,192,40875,1,0,0:0:0:70:drum-hitnormal.wav
64,192,41196,128,0,41677:0:0:0:70:drum-hitnormal.wav
192,192,41196,128,0,41677:0:0:0:0:
192,192,41837,128,0,42319:0:0:0:70:drum-hitnormal.wav
320,192,41837,128,0,42319:0:0:0:0:
64,192,42479,128,0,43762:0:0:0:70:kick.wav
448,192,42479,1,0,0:0:0:70:drum-hitnormal.wav
448,192,43281,1,0,0:0:0:0:
320,192,43442,1,0,0:0:0:0:
192,192,43602,1,0,0:0:0:0:
320,192,43762,1,0,0:0:0:70:drum-hitnormal.wav
448,192,43762,1,0,0:0:0:70:normal-hitfinish.wav
192,192,44083,1,0,0:0:0:0:
64,192,44244,1,0,0:0:0:0:
448,192,44565,1,0,0:0:0:0:
320,192,44725,1,0,0:0:0:0:
192,192,44885,1,0,0:0:0:70:drum-hitnormal.wav
320,192,45046,1,0,0:0:0:70:drum-hitnormal.wav
192,192,45367,1,0,0:0:0:0:
64,192,45527,1,0,0:0:0:70:drum-hitnormal.wav
448,192,45848,1,0,0:0:0:0:
320,192,46008,1,0,0:0:0:0:
64,192,46169,1,0,0:0:0:0:
192,192,46329,1,0,0:0:0:70:drum-hitnormal.wav
320,192,46650,1,0,0:0:0:0:
448,192,46971,1,0,0:0:0:70:LR4_SnareKKF.wav
192,192,47292,1,0,0:0:0:0:
320,192,47613,1,0,0:0:0:70:drum-hitnormal.wav
448,192,47773,1,0,0:0:0:0:
320,192,47934,1,0,0:0:0:70:drum-hitnormal.wav
192,192,48094,1,0,0:0:0:0:
64,192,48254,1,0,0:0:0:70:LR4_SnareKKF.wav
448,192,48415,1,0,0:0:0:0:
320,192,48575,1,0,0:0:0:70:drum-hitnormal.wav
192,192,48736,1,0,0:0:0:0:
320,192,48896,1,0,0:0:0:70:drum-hitnormal.wav
192,192,49217,1,0,0:0:0:0:
64,192,49377,1,0,0:0:0:0:
448,192,49698,1,0,0:0:0:0:
320,192,49859,1,0,0:0:0:0:
192,192,50019,1,0,0:0:0:70:drum-hitnormal.wav
448,192,50180,1,0,0:0:0:70:drum-hitnormal.wav
320,192,50500,1,0,0:0:0:0:
192,192,50661,1,0,0:0:0:70:drum-hitnormal.wav
448,192,50982,1,0,0:0:0:0:
320,192,51142,1,0,0:0:0:0:
64,192,51303,1,0,0:0:0:0:
192,192,51463,1,0,0:0:0:70:drum-hitnormal.wav
320,192,51784,1,0,0:0:0:0:
448,192,52105,1,0,0:0:0:70:LR4_SnareKKF.wav
192,192,52426,1,0,0:0:0:0:
448,192,52586,128,0,53388:0:0:0:70:drum-hitnormal.wav
448,192,53549,1,0,0:0:0:0:
320,192,53709,1,0,0:0:0:70:drum-hitnormal.wav
192,192,53869,1,0,0:0:0:0:
64,192,54030,1,0,0:0:0:70:drum-hitnormal.wav
448,192,54030,1,0,0:0:0:70:normal-hitfinish.wav
192,192,54351,1,0,0:0:0:0:
64,192,54511,1,0,0:0:0:0:
320,192,54832,1,0,0:0:0:0:
192,192,54992,1,0,0:0:0:0:
64,192,55153,1,0,0:0:0:70:drum-hitnormal.wav
320,192,55313,1,0,0:0:0:70:drum-hitnormal.wav
192,192,55634,1,0,0:0:0:0:
64,192,55795,1,0,0:0:0:70:drum-hitnormal.wav
448,192,56115,1,0,0:0:0:0:
320,192,56276,1,0,0:0:0:0:
192,192,56436,1,0,0:0:0:0:
320,192,56597,1,0,0:0:0:70:drum-hitnormal.wav
192,192,56918,1,0,0:0:0:0:
448,192,57238,1,0,0:0:0:70:LR4_SnareKKF.wav
320,192,57559,1,0,0:0:0:0:
192,192,57880,1,0,0:0:0:70:drum-hitnormal.wav
448,192,58041,1,0,0:0:0:0:
320,192,58201,1,0,0:0:0:70:drum-hitnormal.wav
192,192,58361,1,0,0:0:0:0:
64,192,58522,1,0,0:0:0:70:LR4_SnareKKF.wav
448,192,58682,1,0,0:0:0:0:
320,192,58843,1,0,0:0:0:70:drum-hitnormal.wav
192,192,59003,1,0,0:0:0:0:
448,192,59164,1,0,0:0:0:70:drum-hitnormal.wav
192,192,59484,1,0,0:0:0:0:
64,192,59645,1,0,0:0:0:0:
448,192,59966,1,0,0:0:0:0:
320,192,60126,1,0,0:0:0:0:
192,192,60287,1,0,0:0:0:70:drum-hitnormal.wav
320,192,60447,1,0,0:0:0:70:drum-hitnormal.wav
192,192,60768,1,0,0:0:0:0:
64,192,60928,1,0,0:0:0:70:drum-hitnormal.wav
448,192,61249,1,0,0:0:0:0:
320,192,61410,1,0,0:0:0:0:
192,192,61570,1,0,0:0:0:0:
320,192,61730,1,0,0:0:0:70:drum-hitnormal.wav
192,192,62051,1,0,0:0:0:70:LR4_SnareKKF.wav
448,192,62372,1,0,0:0:0:0:
192,192,62693,1,0,0:0:0:70:drum-hitnormal.wav
320,192,62853,1,0,0:0:0:0:
320,192,63174,1,0,0:0:0:70:drum-hitnormal.wav
192,192,63495,1,0,0:0:0:70:LR4_SnareKKF.wav
64,192,63655,1,0,0:0:0:70:drum-hitnormal.wav
320,192,63655,1,0,0:0:0:0:
192,192,63976,1,0,0:0:0:70:drum-hitnormal.wav
448,192,63976,1,0,0:0:0:0:
64,192,64297,128,0,65420:0:0:0:70:kick.wav
192,192,65099,1,0,0:0:0:0:
320,192,65260,1,0,0:0:0:0:
448,192,65420,1,0,0:0:0:0:
64,192,65581,1,0,0:0:0:70:drum-hitnormal.wav
320,192,65581,128,0,65901:0:0:0:70:normal-hitfinish.wav
192,192,66062,1,0,0:0:0:0:
192,192,66222,128,0,66383:0:0:0:70:drum-hitnormal.wav
64,192,66543,1,0,0:0:0:70:drum-hitnormal.wav
320,192,66704,128,0,66864:0:0:0:0:
320,192,67024,1,0,0:0:0:0:
192,192,67185,1,0,0:0:0:70:drum-hitnormal.wav
64,192,67345,1,0,0:0:0:0:
192,192,67506,1,0,0:0:0:70:drum-hitnormal.wav
448,192,67666,1,0,0:0:0:0:
320,192,67746,1,0,0:0:0:0:
192,192,67827,1,0,0:0:0:70:drum-hitnormal.wav
64,192,67987,1,0,0:0:0:0:
192,192,68147,128,0,68308:0:0:0:70:drum-hitnormal.wav
320,192,68468,128,0,68629:0:0:0:70:drum-hitnormal.wav
192,192,68789,1,0,0:0:0:70:drum-hitnormal.wav
64,192,68950,1,0,0:0:0:0:
192,192,69110,1,0,0:0:0:70:drum-hitnormal.wav
320,192,69270,128,0,69431:0:0:0:0:
448,192,69591,128,0,69912:0:0:0:0:
320,192,69912,1,0,0:0:0:0:
192,192,70073,1,0,0:0:0:70:drum-hitnormal.wav
64,192,70233,1,0,0:0:0:0:
192,192,70393,1,0,0:0:0:70:drum-hitnormal.wav
320,192,70554,1,0,0:0:0:0:
448,192,70714,128,0,71035:0:0:0:70:drum-hitnormal.wav
192,192,71196,1,0,0:0:0:0:
192,192,71356,128,0,71677:0:0:0:70:drum-hitnormal.wav
448,192,71837,128,0,71998:0:0:0:0:
448,192,72158,1,0,0:0:0:0:
320,192,72319,1,0,0:0:0:70:drum-hitnormal.wav
192,192,72479,1,0,0:0:0:0:
320,192,72639,1,0,0:0:0:70:drum-hitnormal.wav
448,192,72800,1,0,0:0:0:0:
320,192,72880,1,0,0:0:0:0:
192,192,72960,1,0,0:0:0:70:drum-hitnormal.wav
64,192,73121,1,0,0:0:0:0:
192,192,73281,128,0,73442:0:0:0:70:drum-hitnormal.wav
448,192,73602,128,0,73923:0:0:0:70:drum-hitnormal.wav
192,192,73923,1,0,0:0:0:70:drum-hitnormal.wav
64,192,74083,128,0,74244:0:0:0:0:
64,192,74404,128,0,74565:0:0:0:0:
64,192,74725,128,0,75046:0:0:0:0:
192,192,75046,1,0,0:0:0:0:
320,192,75206,1,0,0:0:0:70:drum-hitnormal.wav
64,192,75367,1,0,0:0:0:0:
192,192,75527,1,0,0:0:0:70:drum-hitnormal.wav
320,192,75688,1,0,0:0:0:0:
64,192,75848,1,0,0:0:0:70:drum-hitnormal.wav
448,192,75848,128,0,76169:0:0:0:70:normal-hitfinish.wav
192,192,76329,1,0,0:0:0:0:
192,192,76490,128,0,76650:0:0:0:70:drum-hitnormal.wav
64,192,76811,1,0,0:0:0:70:drum-hitnormal.wav
320,192,76971,128,0,77131:0:0:0:0:
320,192,77292,1,0,0:0:0:0:
192,192,77452,1,0,0:0:0:70:drum-hitnormal.wav
64,192,77613,1,0,0:0:0:0:
192,192,77773,1,0,0:0:0:70:drum-hitnormal.wav
448,192,77934,1,0,0:0:0:0:
320,192,78014,1,0,0:0:0:0:
192,192,78094,1,0,0:0:0:70:drum-hitnormal.wav
64,192,78254,1,0,0:0:0:0:
192,192,78415,128,0,78575:0:0:0:70:drum-hitnormal.wav
320,192,78736,128,0,78896:0:0:0:70:drum-hitnormal.wav
192,192,79057,1,0,0:0:0:70:drum-hitnormal.wav
64,192,79217,1,0,0:0:0:0:
192,192,79377,1,0,0:0:0:70:drum-hitnormal.wav
320,192,79538,128,0,79698:0:0:0:0:
448,192,79859,128,0,80180:0:0:0:0:
320,192,80180,1,0,0:0:0:0:
192,192,80340,1,0,0:0:0:70:drum-hitnormal.wav
64,192,80500,1,0,0:0:0:0:
192,192,80661,1,0,0:0:0:70:drum-hitnormal.wav
320,192,80821,1,0,0:0:0:0:
448,192,80982,128,0,81303:0:0:0:70:drum-hitnormal.wav
192,192,81463,1,0,0:0:0:0:
192,192,81623,128,0,81944:0:0:0:70:drum-hitnormal.wav
320,192,82105,128,0,82265:0:0:0:0:
320,192,82426,1,0,0:0:0:0:
192,192,82586,1,0,0:0:0:70:drum-hitnormal.wav
64,192,82746,1,0,0:0:0:0:
192,192,82907,1,0,0:0:0:70:drum-hitnormal.wav
448,192,83067,1,0,0:0:0:0:
320,192,83147,1,0,0:0:0:0:
192,192,83228,1,0,0:0:0:70:drum-hitnormal.wav
64,192,83388,1,0,0:0:0:0:
192,192,83549,128,0,83709:0:0:0:70:drum-hitnormal.wav
448,192,83869,128,0,84190:0:0:0:70:drum-hitnormal.wav
192,192,84190,1,0,0:0:0:70:drum-hitnormal.wav
64,192,84351,128,0,84511:0:0:0:0:
64,192,84672,128,0,84832:0:0:0:0:
64,192,84992,1,0,0:0:0:70:drum-hitnormal.wav
192,192,84992,1,0,0:0:0:0:
192,192,85313,1,0,0:0:0:70:drum-hitnormal.wav
320,192,85313,1,0,0:0:0:0:
64,192,85474,1,0,0:0:0:70:drum-hitnormal.wav
448,192,85474,128,0,85795:0:0:0:0:
320,192,85634,1,0,0:0:0:0:
192,192,85795,1,0,0:0:0:0:
64,192,85955,1,0,0:0:0:0:
320,192,86115,1,0,0:0:0:70:drum-hitnormal.wav
448,192,86115,1,0,0:0:0:70:normal-hitfinish.wav
192,192,86436,1,0,0:0:0:70:drum-hitnormal.wav
64,192,86597,1,0,0:0:0:0:
320,192,86918,1,0,0:0:0:0:
192,192,87078,1,0,0:0:0:70:drum-hitnormal.wav
64,192,87238,1,0,0:0:0:70:drum-hitnormal.wav
192,192,87399,1,0,0:0:0:70:drum-hitnormal.wav
320,192,87720,1,0,0:0:0:70:drum-hitnormal.wav
192,192,87880,1,0,0:0:0:70:drum-hitnormal.wav
448,192,88201,1,0,0:0:0:0:
320,192,88361,1,0,0:0:0:70:drum-hitnormal.wav
192,192,88522,1,0,0:0:0:0:
320,192,88682,1,0,0:0:0:70:drum-hitnormal.wav
192,192,89003,1,0,0:0:0:70:drum-hitnormal.wav
448,192,89324,1,0,0:0:0:70:LR4_SnareKKF.wav
192,192,89645,1,0,0:0:0:70:drum-hitnormal.wav
64,192,89966,1,0,0:0:0:70:drum-hitnormal.wav
448,192,90126,1,0,0:0:0:0:
320,192,90287,1,0,0:0:0:70:drum-hitnormal.wav
192,192,90447,1,0,0:0:0:0:
64,192,90607,1,0,0:0:0:70:LR4_SnareKKF.wav
448,192,90768,1,0,0:0:0:0:
320,192,90928,1,0,0:0:0:70:drum-hitnormal.wav
192,192,91089,1,0,0:0:0:0:
320,192,91249,1,0,0:0:0:70:drum-hitnormal.wav
192,192,91570,1,0,0:0:0:70:drum-hitnormal.wav
64,192,91730,1,0,0:0:0:0:
320,192,92051,1,0,0:0:0:0:
192,192,92212,1,0,0:0:0:70:drum-hitnormal.wav
64,192,92372,1,0,0:0:0:70:drum-hitnormal.wav
320,192,92532,1,0,0:0:0:70:drum-hitnormal.wav
192,192,92853,1,0,0:0:0:70:drum-hitnormal.wav
64,192,93014,1,0,0:0:0:70:drum-hitnormal.wav
448,192,93335,1,0,0:0:0:0:
320,192,93495,1,0,0:0:0:70:drum-hitnormal.wav
192,192,93655,1,0,0:0:0:0:
320,192,93816,1,0,0:0:0:70:drum-hitnormal.wav
192,192,94137,1,0,0:0:0:70:drum-hitnormal.wav
448,192,94458,1,0,0:0:0:70:LR4_SnareKKF.wav
64,192,94778,1,0,0:0:0:70:drum-hitnormal.wav
192,192,94939,128,0,95741:0:0:0:70:drum-hitnormal.wav
448,192,95901,1,0,0:0:0:0:
320,192,96062,1,0,0:0:0:70:drum-hitnormal.wav
192,192,96222,1,0,0:0:0:0:
320,192,96383,1,0,0:0:0:70:drum-hitnormal.wav
448,192,96383,1,0,0:0:0:70:normal-hitfinish.wav
192,192,96704,1,0,0:0:0:70:drum-hitnormal.wav
64,192,96864,1,0,0:0:0:0:
320,192,97185,1,0,0:0:0:0:
192,192,97345,1,0,0:0:0:70:drum-hitnormal.wav
64,192,97506,1,0,0:0:0:70:drum-hitnormal.wav
320,192,97666,1,0,0:0:0:70:drum-hitnormal.wav
192,192,97987,1,0,0:0:0:70:drum-hitnormal.wav
64,192,98147,1,0,0:0:0:70:drum-hitnormal.wav
448,192,98468,1,0,0:0:0:0:
320,192,98629,1,0,0:0:0:70:drum-hitnormal.wav
192,192,98789,1,0,0:0:0:0:
320,192,98950,1,0,0:0:0:70:drum-hitnormal.wav
192,192,99270,1,0,0:0:0:70:drum-hitnormal.wav
448,192,99591,1,0,0:0:0:70:LR4_SnareKKF.wav
192,192,99912,1,0,0:0:0:70:drum-hitnormal.wav
64,192,100233,1,0,0:0:0:70:drum-hitnormal.wav
448,192,100393,1,0,0:0:0:0:
320,192,100554,1,0,0:0:0:70:drum-hitnormal.wav
192,192,100714,1,0,0:0:0:0:
64,192,100875,1,0,0:0:0:70:LR4_SnareKKF.wav
448,192,101035,1,0,0:0:0:0:
320,192,101196,1,0,0:0:0:70:drum-hitnormal.wav
192,192,101356,1,0,0:0:0:0:
320,192,101516,1,0,0:0:0:70:drum-hitnormal.wav
192,192,101837,1,0,0:0:0:70:drum-hitnormal.wav
64,192,101998,1,0,0:0:0:0:
320,192,102319,1,0,0:0:0:0:
192,192,102479,1,0,0:0:0:70:drum-hitnormal.wav
64,192,102639,1,0,0:0:0:70:drum-hitnormal.wav
192,192,102800,1,0,0:0:0:70:drum-hitnormal.wav
320,192,103121,1,0,0:0:0:70:drum-hitnormal.wav
192,192,103281,1,0,0:0:0:0:
448,192,103602,1,0,0:0:0:0:
320,192,103762,1,0,0:0:0:70:drum-hitnormal.wav
192,192,103923,1,0,0:0:0:0:
448,192,104083,1,0,0:0:0:70:drum-hitnormal.wav
192,192,104404,1,0,0:0:0:70:LR4_SnareKKF.wav
320,192,104725,1,0,0:0:0:0:
64,192,105046,1,0,0:0:0:70:drum-hitnormal.wav
192,192,105206,1,0,0:0:0:0:
192,192,105527,1,0,0:0:0:70:drum-hitnormal.wav
320,192,105848,1,0,0:0:0:70:LR4_SnareKKF.wav
448,192,106008,1,0,0:0:0:70:drum-hitnormal.wav
64,192,106169,128,0,106329:0:0:0:70:LR4_SnareKKF.wav
192,192,106329,128,0,106490:0:0:0:70:drum-hitnormal.wav
320,192,106490,128,0,106650:0:0:0:70:drum-hitnormal.wav
192,192,106650,128,0,106811:0:0:0:70:drum-hitnormal.wav
320,192,106811,128,0,107131:0:0:0:0:
192,192,107131,128,0,107292:0:0:0:0:
448,192,107292,1,0,0:0:0:70:drum-hitnormal.wav
64,192,107452,1,0,0:0:0:0:
320,192,107613,1,0,0:0:0:70:drum-hitnormal.wav
192,192,107773,1,0,0:0:0:0:
64,192,107934,1,0,0:0:0:70:drum-hitnormal.wav
192,192,108094,1,0,0:0:0:0:
320,192,108254,128,0,108736:0:0:0:70:drum-hitnormal.wav
192,192,108736,1,0,0:0:0:0:
64,192,108896,1,0,0:0:0:70:drum-hitnormal.wav
192,192,109057,1,0,0:0:0:0:
448,192,109217,1,0,0:0:0:70:drum-hitnormal.wav
192,192,109377,1,0,0:0:0:0:
320,192,109538,1,0,0:0:0:70:drum-hitnormal.wav
64,192,109698,1,0,0:0:0:0:
320,192,109859,1,0,0:0:0:70:drum-hitnormal.wav
192,192,110019,1,0,0:0:0:0:
448,192,110180,1,0,0:0:0:70:drum-hitnormal.wav
320,192,110340,128,0,110661:0:0:0:0:
192,192,110661,1,0,0:0:0:0:
448,192,110821,1,0,0:0:0:70:drum-hitnormal.wav
320,192,110982,128,0,111303:0:0:0:0:
448,192,111303,128,0,111463:0:0:0:0:
192,192,111463,1,0,0:0:0:70:drum-hitnormal.wav
64,192,111623,1,0,0:0:0:0:
448,192,111784,1,0,0:0:0:70:drum-hitnormal.wav
320,192,111944,1,0,0:0:0:0:
448,192,112105,1,0,0:0:0:70:drum-hitnormal.wav
192,192,112265,1,0,0:0:0:0:
320,192,112426,1,0,0:0:0:70:drum-hitnormal.wav
64,192,112586,1,0,0:0:0:0:
192,192,112746,1,0,0:0:0:70:drum-hitnormal.wav
320,192,112907,128,0,113388:0:0:0:0:
448,192,113388,128,0,113549:0:0:0:70:drum-hitnormal.wav
192,192,113549,128,0,113869:0:0:0:0:
448,192,113869,1,0,0:0:0:0:
320,192,114030,1,0,0:0:0:70:drum-hitnormal.wav
192,192,114190,1,0,0:0:0:0:
64,192,114351,128,0,114672:0:0:0:70:drum-hitnormal.wav
192,192,114672,128,0,114992:0:0:0:70:drum-hitnormal.wav
320,192,114992,128,0,115313:0:0:0:70:drum-hitnormal.wav
448,192,115313,128,0,115634:0:0:0:70:drum-hitnormal.wav
64,192,115634,128,0,115955:0:0:0:70:drum-hitnormal.wav
192,192,115955,128,0,116276:0:0:0:70:drum-hitnormal.wav
320,192,116276,128,0,116597:0:0:0:70:drum-hitnormal.wav
448,192,116597,128,0,116918:0:0:0:70:drum-hitnormal.wav
192,192,116918,1,0,0:0:0:70:drum-hitnormal.wav
64,192,116918,1,0,0:0:0:70:normal-hitfinish.wav
320,192,117078,1,0,0:0:0:0:
64,192,117238,1,0,0:0:0:70:drum-hitnormal.wav
448,192,117399,1,0,0:0:0:0:
320,192,117559,1,0,0:0:0:70:drum-hitnormal.wav
192,192,117720,1,0,0:0:0:0:
320,192,117880,1,0,0:0:0:70:drum-hitnormal.wav
64,192,118041,1,0,0:0:0:0:
192,192,118201,1,0,0:0:0:70:drum-hitnormal.wav
320,192,118361,1,0,0:0:0:0:
448,192,118522,128,0,118843:0:0:0:70:drum-hitnormal.wav
320,192,119003,1,0,0:0:0:0:
64,192,119164,1,0,0:0:0:70:drum-hitnormal.wav
320,192,119324,1,0,0:0:0:0:
192,192,119484,1,0,0:0:0:70:drum-hitnormal.wav
320,192,119645,1,0,0:0:0:0:
448,192,119805,1,0,0:0:0:70:drum-hitnormal.wav
192,192,119966,1,0,0:0:0:0:
320,192,120126,1,0,0:0:0:70:drum-hitnormal.wav
192,192,120287,1,0,0:0:0:0:
320,192,120447,1,0,0:0:0:70:drum-hitnormal.wav
64,192,120607,128,0,120928:0:0:0:0:
192,192,120928,1,0,0:0:0:0:
448,192,121089,1,0,0:0:0:70:drum-hitnormal.wav
64,192,121249,128,0,121570:0:0:0:0:
320,192,121570,128,0,121891:0:0:0:0:
64,192,122051,1,0,0:0:0:70:drum-hitnormal.wav
448,192,122051,1,0,0:0:0:70:hihat.wav
192,192,122372,1,0,0:0:0:70:LR4_SnareKKF.wav
64,192,122532,1,0,0:0:0:70:drum-hitnormal.wav
448,192,122532,1,0,0:0:0:70:hihat.wav
320,192,122853,1,0,0:0:0:70:LR4_SnareKKF.wav
64,192,123014,1,0,0:0:0:70:drum-hitnormal.wav
448,192,123014,1,0,0:0:0:70:hihat.wav
320,192,123335,1,0,0:0:0:70:LR4_SnareKKF.wav
64,192,123495,1,0,0:0:0:70:drum-hitnormal.wav
192,192,123495,1,0,0:0:0:70:hihat.wav
192,192,123816,1,0,0:0:0:70:LR4_SnareKKF.wav
320,192,123976,1,0,0:0:0:70:drum-hitnormal.wav
448,192,123976,1,0,0:0:0:70:hihat.wav
192,192,124137,1,0,0:0:0:70:LR4_SnareKKF.wav
64,192,124297,1,0,0:0:0:70:drum-hitnormal.wav
448,192,124297,1,0,0:0:0:70:hihat.wav
320,192,124458,1,0,0:0:0:70:drum-hitnormal.wav
64,192,124618,1,0,0:0:0:70:drum-hitnormal.wav
448,192,124778,1,0,0:0:0:70:drum-hitnormal.wav
192,192,124939,1,0,0:0:0:70:drum-hitnormal.wav
320,192,125099,1,0,0:0:0:70:drum-hitnormal.wav
64,192,125260,1,0,0:0:0:70:drum-hitnormal.wav
448,192,125420,1,0,0:0:0:70:drum-hitnormal.wav
192,192,125581,1,0,0:0:0:70:drum-hitnormal.wav
320,192,125741,1,0,0:0:0:70:drum-hitnormal.wav
64,192,125901,128,0,126543:0:0:0:70:drum-hitnormal.wav
192,192,126543,128,0,126704:0:0:0:70:drum-hitnormal.wav
320,192,126704,128,0,127024:0:0:0:70:drum-hitnormal.wav
192,192,127024,128,0,127185:0:0:0:70:drum-hitnormal.wav
448,192,127185,128,0,129752:0:0:0:70:drum-hitnormal.wav
64,192,127185,1,0,0:0:0:70:normal-hitfinish.wav
192,192,127345,1,0,0:0:0:0:
320,192,127506,1,0,0:0:0:0:
192,192,127827,1,0,0:0:0:0:
64,192,127987,1,0,0:0:0:0:
192,192,128308,1,0,0:0:0:0:
320,192,128468,1,0,0:0:0:0:
64,192,128789,1,0,0:0:0:0:
192,192,128950,1,0,0:0:0:0:
64,192,129270,1,0,0:0:0:0:
320,192,129431,1,0,0:0:0:0:
64,192,129591,1,0,0:0:0:0:
192,192,129752,1,0,0:0:0:70:LR_RBell_F5.wav
448,192,129912,1,0,0:0:0:0:
64,192,130073,1,0,0:0:0:0:
192,192,130393,1,0,0:0:0:0:
320,192,130554,1,0,0:0:0:0:
64,192,130875,1,0,0:0:0:0:
448,192,131035,1,0,0:0:0:0:
64,192,131356,1,0,0:0:0:0:
320,192,131516,1,0,0:0:0:0:
192,192,131837,1,0,0:0:0:0:
320,192,131998,1,0,0:0:0:0:
192,192,132158,1,0,0:0:0:0:
64,192,132319,1,0,0:0:0:70:LR_RBell_F5.wav
320,192,132479,1,0,0:0:0:0:
448,192,132639,1,0,0:0:0:0:
192,192,132960,1,0,0:0:0:0:
448,192,133121,1,0,0:0:0:0:
64,192,133442,1,0,0:0:0:0:
448,192,133602,1,0,0:0:0:0:
64,192,133923,1,0,0:0:0:0:
320,192,134083,1,0,0:0:0:0:
192,192,134404,1,0,0:0:0:0:
448,192,134565,1,0,0:0:0:0:
192,192,134725,1,0,0:0:0:0:
320,192,134885,1,0,0:0:0:70:LR_RBell_F5.wav
64,192,135046,1,0,0:0:0:0:
448,192,135206,1,0,0:0:0:0:
64,192,135527,1,0,0:0:0:0:
320,192,135688,1,0,0:0:0:0:
192,192,136008,1,0,0:0:0:0:
448,192,136169,1,0,0:0:0:0:
64,192,136490,1,0,0:0:0:0:
192,192,136650,1,0,0:0:0:0:
320,192,136971,1,0,0:0:0:0:
448,192,137131,1,0,0:0:0:0:
64,192,137292,1,0,0:0:0:0:
192,192,137452,1,0,0:0:0:70:normal-hitfinish.wav
448,192,137452,1,0,0:0:0:70:LR_RBell_F5.wav
320,192,137773,1,0,0:0:0:0:
192,192,138094,1,0,0:0:0:0:
64,192,138415,1,0,0:0:0:0:
448,192,138575,1,0,0:0:0:0:
320,192,138736,1,0,0:0:0:0:
192,192,139057,1,0,0:0:0:0:
320,192,139377,1,0,0:0:0:0:
64,192,139698,1,0,0:0:0:0:
448,192,139859,1,0,0:0:0:0:
320,192,140019,1,0,0:0:0:70:LR_RBell_F5.wav
192,192,140340,1,0,0:0:0:0:
64,192,140661,1,0,0:0:0:0:
192,192,140821,1,0,0:0:0:0:
320,192,140982,1,0,0:0:0:0:
448,192,141142,1,0,0:0:0:0:
448,192,141303,1,0,0:0:0:0:
192,192,141463,1,0,0:0:0:0:
320,192,141623,1,0,0:0:0:0:
64,192,141784,1,0,0:0:0:0:
192,192,141944,1,0,0:0:0:0:
448,192,142105,1,0,0:0:0:0:
320,192,142265,1,0,0:0:0:0:
192,192,142426,1,0,0:0:0:0:
448,192,142586,1,0,0:0:0:70:LR_RBell_F5.wav
320,192,142907,1,0,0:0:0:0:
192,192,143228,1,0,0:0:0:0:
64,192,143549,1,0,0:0:0:0:
320,192,143709,1,0,0:0:0:0:
192,192,143869,1,0,0:0:0:0:
448,192,144190,1,0,0:0:0:0:
64,192,144511,1,0,0:0:0:0:
192,192,144832,1,0,0:0:0:0:
448,192,144992,1,0,0:0:0:0:
320,192,145153,1,0,0:0:0:70:LR_RBell_F5.wav
192,192,145474,1,0,0:0:0:0:
64,192,145795,1,0,0:0:0:0:
192,192,145955,1,0,0:0:0:0:
320,192,146115,1,0,0:0:0:0:
448,192,146276,1,0,0:0:0:0:
448,192,146436,1,0,0:0:0:0:
192,192,146597,1,0,0:0:0:0:
320,192,146757,1,0,0:0:0:0:
64,192,146918,1,0,0:0:0:0:
192,192,147078,1,0,0:0:0:0:
448,192,147238,1,0,0:0:0:0:
320,192,147399,1,0,0:0:0:0:
64,192,147559,1,0,0:0:0:0:
448,192,147720,128,0,148843:0:0:0:70:kick.wav
64,192,148522,1,0,0:0:0:0:
192,192,148682,1,0,0:0:0:0:
320,192,148843,1,0,0:0:0:0:
192,192,149003,128,0,149324:0:0:0:70:drum-hitnormal.wav
448,192,149003,1,0,0:0:0:70:normal-hitfinish.wav
64,192,149484,1,0,0:0:0:0:
64,192,149645,128,0,149805:0:0:0:70:drum-hitnormal.wav
192,192,149966,1,0,0:0:0:70:drum-hitnormal.wav
320,192,150126,128,0,150287:0:0:0:0:
320,192,150447,1,0,0:0:0:0:
192,192,150607,1,0,0:0:0:70:drum-hitnormal.wav
64,192,150768,1,0,0:0:0:0:
192,192,150928,1,0,0:0:0:70:drum-hitnormal.wav
448,192,151089,1,0,0:0:0:0:
320,192,151169,1,0,0:0:0:0:
192,192,151249,1,0,0:0:0:70:drum-hitnormal.wav
64,192,151409,1,0,0:0:0:0:
192,192,151570,128,0,151730:0:0:0:70:drum-hitnormal.wav
320,192,151891,128,0,152051:0:0:0:70:drum-hitnormal.wav
192,192,152212,1,0,0:0:0:70:drum-hitnormal.wav
64,192,152372,1,0,0:0:0:0:
192,192,152532,1,0,0:0:0:70:drum-hitnormal.wav
320,192,152693,128,0,152853:0:0:0:0:
448,192,153014,128,0,153335:0:0:0:0:
192,192,153335,1,0,0:0:0:0:
64,192,153495,1,0,0:0:0:70:drum-hitnormal.wav
320,192,153655,1,0,0:0:0:0:
192,192,153816,1,0,0:0:0:70:drum-hitnormal.wav
64,192,153976,1,0,0:0:0:0:
192,192,154137,128,0,154458:0:0:0:70:drum-hitnormal.wav
448,192,154618,1,0,0:0:0:0:
448,192,154778,128,0,155099:0:0:0:70:drum-hitnormal.wav
320,192,155260,128,0,155420:0:0:0:0:
320,192,155581,1,0,0:0:0:0:
448,192,155741,1,0,0:0:0:70:drum-hitnormal.wav
192,192,155901,1,0,0:0:0:0:
320,192,156062,1,0,0:0:0:70:drum-hitnormal.wav
448,192,156222,1,0,0:0:0:0:
320,192,156303,1,0,0:0:0:0:
192,192,156383,1,0,0:0:0:70:drum-hitnormal.wav
64,192,156543,1,0,0:0:0:0:
320,192,156704,128,0,156864:0:0:0:70:drum-hitnormal.wav
448,192,157024,128,0,157345:0:0:0:70:drum-hitnormal.wav
320,192,157345,1,0,0:0:0:70:drum-hitnormal.wav
192,192,157506,128,0,157666:0:0:0:0:
192,192,157827,128,0,157987:0:0:0:0:
192,192,158147,128,0,158468:0:0:0:0:
320,192,158468,1,0,0:0:0:0:
448,192,158629,1,0,0:0:0:70:drum-hitnormal.wav
64,192,158789,1,0,0:0:0:0:
192,192,158950,1,0,0:0:0:70:drum-hitnormal.wav
320,192,159110,1,0,0:0:0:0:
64,192,159270,1,0,0:0:0:70:drum-hitnormal.wav
448,192,159270,128,0,159591:0:0:0:70:normal-hitfinish.wav
320,192,159752,1,0,0:0:0:0:
320,192,159912,128,0,160073:0:0:0:70:drum-hitnormal.wav
192,192,160233,1,0,0:0:0:70:drum-hitnormal.wav
448,192,160393,128,0,160554:0:0:0:0:
448,192,160714,1,0,0:0:0:0:
320,192,160875,1,0,0:0:0:70:drum-hitnormal.wav
64,192,161035,1,0,0:0:0:0:
192,192,161196,1,0,0:0:0:70:drum-hitnormal.wav
448,192,161356,1,0,0:0:0:0:
320,192,161436,1,0,0:0:0:0:
192,192,161516,1,0,0:0:0:70:drum-hitnormal.wav
64,192,161677,1,0,0:0:0:0:
192,192,161837,128,0,161998:0:0:0:70:drum-hitnormal.wav
448,192,161998,1,0,0:0:0:0:
320,192,162158,128,0,162319:0:0:0:70:drum-hitnormal.wav
192,192,162479,1,0,0:0:0:70:drum-hitnormal.wav
64,192,162639,1,0,0:0:0:0:
192,192,162800,1,0,0:0:0:70:drum-hitnormal.wav
320,192,162960,128,0,163121:0:0:0:0:
448,192,163281,128,0,163602:0:0:0:0:
320,192,163602,1,0,0:0:0:0:
192,192,163762,1,0,0:0:0:70:drum-hitnormal.wav
64,192,163923,1,0,0:0:0:0:
192,192,164083,1,0,0:0:0:70:drum-hitnormal.wav
320,192,164244,1,0,0:0:0:0:
448,192,164404,128,0,164725:0:0:0:70:drum-hitnormal.wav
192,192,164885,1,0,0:0:0:0:
192,192,165046,128,0,165367:0:0:0:70:drum-hitnormal.wav
320,192,165527,128,0,165688:0:0:0:0:
320,192,165848,1,0,0:0:0:0:
192,192,166008,1,0,0:0:0:70:drum-hitnormal.wav
64,192,166169,1,0,0:0:0:0:
192,192,166329,1,0,0:0:0:70:drum-hitnormal.wav
448,192,166490,1,0,0:0:0:0:
320,192,166570,1,0,0:0:0:0:
192,192,166650,1,0,0:0:0:70:drum-hitnormal.wav
64,192,166811,1,0,0:0:0:0:
320,192,166971,128,0,167131:0:0:0:70:drum-hitnormal.wav
448,192,167292,128,0,167613:0:0:0:70:drum-hitnormal.wav
320,192,167613,1,0,0:0:0:70:drum-hitnormal.wav
192,192,167773,128,0,167934:0:0:0:0:
192,192,168094,128,0,168254:0:0:0:0:
64,192,168415,1,0,0:0:0:70:drum-hitnormal.wav
320,192,168415,1,0,0:0:0:0:
192,192,168736,1,0,0:0:0:70:drum-hitnormal.wav
320,192,168736,1,0,0:0:0:0:
64,192,168896,128,0,169217:0:0:0:70:drum-hitnormal.wav
448,192,168896,128,0,169217:0:0:0:0:
64,192,169538,1,0,0:0:0:70:LR_RBell_F5.wav
448,192,169538,1,0,0:0:0:70:normal-hitfinish.wav
320,192,169859,1,0,0:0:0:0:
192,192,170180,1,0,0:0:0:0:
320,192,170500,1,0,0:0:0:0:
64,192,170821,1,0,0:0:0:0:
448,192,171142,1,0,0:0:0:0:
192,192,171463,1,0,0:0:0:0:
320,192,171784,1,0,0:0:0:0:
448,192,172105,1,0,0:0:0:70:LR_RBell_F5.wav
320,192,172426,1,0,0:0:0:0:
192,192,172746,1,0,0:0:0:0:
448,192,173067,1,0,0:0:0:0:
64,192,173388,1,0,0:0:0:0:
320,192,173709,1,0,0:0:0:0:
192,192,174030,1,0,0:0:0:0:
448,192,174351,1,0,0:0:0:0:
64,192,174672,1,0,0:0:0:70:LR_RBell_F5.wav
320,192,174992,1,0,0:0:0:0:
192,192,175313,1,0,0:0:0:0:
448,192,175634,1,0,0:0:0:0:
320,192,175955,1,0,0:0:0:0:
192,192,176276,1,0,0:0:0:0:
448,192,176597,1,0,0:0:0:0:
64,192,176918,1,0,0:0:0:0:
320,192,177238,1,0,0:0:0:70:LR_RBell_F5.wav
448,192,177559,1,0,0:0:0:0:
64,192,177880,1,0,0:0:0:0:
320,192,178201,1,0,0:0:0:0:
192,192,178522,1,0,0:0:0:0:
448,192,178843,1,0,0:0:0:0:
320,192,179164,1,0,0:0:0:0:
64,192,179484,1,0,0:0:0:0:
