osu file format v14

[General]
AudioFilename: audio.mp3
AudioLeadIn: 0
PreviewTime: 147717
Countdown: 0
SampleSet: Normal
StackLeniency: 0.7
Mode: 3
LetterboxInBreaks: 0
SpecialStyle: 0
WidescreenStoryboard: 1

[Editor]
DistanceSpacing: 1
BeatDivisor: 8
GridSize: 4
TimelineZoom: 2.1

[Metadata]
Title:Magical Musical Master
TitleUnicode:Magical Musical Master
Artist:sakuzyo
ArtistUnicode:削除
Creator:Das-[Hikari]-
Version:Another
Source:
Tags:VitMaster remix Pop Candy Wonderland madoka2574 Diverse System artcore orchestra
BeatmapID:1592262
BeatmapSetID:513701

[Difficulty]
HPDrainRate:8.5
CircleSize:4
OverallDifficulty:8.5
ApproachRate:5
SliderMultiplier:1.6
SliderTickRate:1

[Events]
//Background and Video events
0,0,"mmm.jpg",0,0
//Break Periods
//Storyboard Layer 0 (Background)
//Storyboard Layer 1 (Fail)
//Storyboard Layer 2 (Pass)
//Storyboard Layer 3 (Foreground)
//Storyboard Sound Samples

[TimingPoints]
1410,320.855614973262,4,1,1,70,1,0
61730,-45.4545454545455,4,1,1,70,0,0
61811,-166.666666666667,4,1,1,70,0,0
62051,-100,4,1,1,70,0,0
62212,-45.4545454545455,4,1,1,70,0,0
62292,-166.666666666667,4,1,1,70,0,0
62532,-100,4,1,1,70,0,0
62693,-45.4545454545455,4,1,1,70,0,0
62773,-166.666666666667,4,1,1,70,0,0
63014,-100,4,1,1,70,0,0
63174,-45.4545454545455,4,1,1,70,0,0
63254,-166.666666666667,4,1,1,70,0,0
63495,-100,4,1,1,70,0,0
63655,-66.6666666666667,4,1,1,70,0,0
63736,-200,4,1,1,70,0,0
63816,-66.6666666666667,4,1,1,70,0,0
63896,-200,4,1,1,70,0,0
63976,-66.6666666666667,4,1,1,70,0,0
64137,-200,4,1,1,70,0,0
64297,-100,4,1,1,70,0,0
65581,-100,4,1,1,70,0,1
84752,-66.6666666666667,4,1,1,70,0,1
84832,-133.333333333333,4,1,1,70,0,1
84992,-66.6666666666667,4,1,1,70,0,1
85153,-200,4,1,1,70,0,1
85313,-66.6666666666667,4,1,1,70,0,1
85393,-200,4,1,1,70,0,1
85474,-100,4,1,1,70,0,1
86115,-100,4,1,1,70,0,0
104083,-45.4545454545455,4,1,1,70,0,0
104164,-166.666666666667,4,1,1,70,0,0
104404,-100,4,1,1,70,0,0
104565,-45.4545454545455,4,1,1,70,0,0
104645,-166.666666666667,4,1,1,70,0,0
104885,-100,4,1,1,70,0,0
105046,-45.4545454545455,4,1,1,70,0,0
105126,-166.666666666667,4,1,1,70,0,0
105367,-100,4,1,1,70,0,0
105527,-45.4545454545455,4,1,1,70,0,0
105607,-166.666666666667,4,1,1,70,0,0
105848,-100,4,1,1,70,0,0
106008,-66.6666666666667,4,1,1,70,0,0
106089,-200,4,1,1,70,0,0
106169,-66.6666666666667,4,1,1,70,0,0
106249,-200,4,1,1,70,0,0
106329,-66.6666666666667,4,1,1,70,0,0
106409,-200,4,1,1,70,0,0
106490,-66.6666666666667,4,1,1,70,0,0
106570,-200,4,1,1,70,0,0
106650,-100,4,1,1,70,0,0
149003,-100,4,1,1,70,0,1
168174,-66.6666666666667,4,1,1,70,0,1
168254,-133.333333333333,4,1,1,70,0,1
168415,-66.6666666666667,4,1,1,70,0,1
168575,-200,4,1,1,70,0,1
168736,-66.6666666666667,4,1,1,70,0,1
168816,-200,4,1,1,70,0,1
168896,-71.4285714285714,4,1,1,70,0,1
169057,-166.666666666667,4,1,1,70,0,1
169217,-71.4285714285714,4,1,1,70,0,1
169377,-166.666666666667,4,1,1,70,0,1
169538,-100,4,1,1,70,0,0

[HitObjects]
64,192,1410,5,0,0:0:0:70:normal-hitfinish.wav
320,192,1410,1,0,0:0:0:70:LR_RBell_F5.wav
448,192,1410,1,0,0:0:0:0:
192,192,1570,1,0,0:0:0:0:
320,192,1730,1,0,0:0:0:0:
64,192,1891,1,0,0:0:0:0:
448,192,2051,1,0,0:0:0:0:
192,192,2212,1,0,0:0:0:0:
320,192,2372,1,0,0:0:0:0:
64,192,2532,1,0,0:0:0:0:
320,192,2693,1,0,0:0:0:0:
192,192,2853,1,0,0:0:0:0:
448,192,3014,1,0,0:0:0:0:
64,192,3174,1,0,0:0:0:0:
448,192,3335,1,0,0:0:0:0:
192,192,3495,1,0,0:0:0:0:
320,192,3655,1,0,0:0:0:0:
64,192,3816,1,0,0:0:0:0:
320,192,3976,1,0,0:0:0:70:LR_RBell_F5.wav
448,192,3976,1,0,0:0:0:0:
64,192,4137,1,0,0:0:0:0:
320,192,4297,1,0,0:0:0:0:
192,192,4458,1,0,0:0:0:0:
448,192,4618,1,0,0:0:0:0:
192,192,4778,1,0,0:0:0:0:
320,192,4939,1,0,0:0:0:0:
64,192,5099,1,0,0:0:0:0:
320,192,5260,1,0,0:0:0:0:
192,192,5420,1,0,0:0:0:0:
448,192,5581,1,0,0:0:0:0:
64,192,5741,1,0,0:0:0:0:
320,192,5901,1,0,0:0:0:0:
64,192,6062,1,0,0:0:0:0:
448,192,6222,1,0,0:0:0:0:
192,192,6383,1,0,0:0:0:0:
64,192,6543,1,0,0:0:0:70:LR_RBell_F5.wav
320,192,6543,1,0,0:0:0:0:
192,192,6704,1,0,0:0:0:0:
448,192,6864,1,0,0:0:0:0:
192,192,7024,1,0,0:0:0:0:
64,192,7185,1,0,0:0:0:0:
192,192,7345,1,0,0:0:0:0:
320,192,7506,1,0,0:0:0:0:
192,192,7666,1,0,0:0:0:0:
448,192,7827,1,0,0:0:0:0:
64,192,7987,1,0,0:0:0:0:
192,192,8147,1,0,0:0:0:0:
320,192,8308,1,0,0:0:0:0:
64,192,8468,1,0,0:0:0:0:
192,192,8629,1,0,0:0:0:0:
448,192,8789,1,0,0:0:0:0:
320,192,8950,1,0,0:0:0:0:
64,192,9110,1,0,0:0:0:70:LR_RBell_F5.wav
448,192,9110,1,0,0:0:0:0:
192,192,9270,1,0,0:0:0:0:
448,192,9431,1,0,0:0:0:0:
64,192,9591,1,0,0:0:0:0:
192,192,9752,1,0,0:0:0:0:
320,192,9912,1,0,0:0:0:0:
64,192,10073,1,0,0:0:0:0:
192,192,10233,1,0,0:0:0:0:
448,192,10393,1,0,0:0:0:0:
320,192,10554,1,0,0:0:0:0:
64,192,10714,1,0,0:0:0:0:
192,192,10875,1,0,0:0:0:0:
448,192,11035,1,0,0:0:0:0:
192,192,11196,1,0,0:0:0:0:
448,192,11356,1,0,0:0:0:0:
192,192,11516,128,0,11677:0:0:0:0:
64,192,11677,1,0,0:0:0:70:normal-hitfinish.wav
448,192,11677,1,0,0:0:0:70:LR_RBell_F5.wav
320,192,11837,1,0,0:0:0:0:
448,192,11998,1,0,0:0:0:0:
192,192,12158,1,0,0:0:0:0:
320,192,12319,1,0,0:0:0:0:
64,192,12479,1,0,0:0:0:0:
192,192,12639,1,0,0:0:0:0:
448,192,12800,1,0,0:0:0:0:
320,192,12960,1,0,0:0:0:0:
64,192,13121,1,0,0:0:0:0:
448,192,13281,1,0,0:0:0:0:
192,192,13442,1,0,0:0:0:0:
320,192,13602,1,0,0:0:0:0:
64,192,13762,1,0,0:0:0:0:
192,192,13923,1,0,0:0:0:0:
448,192,14083,1,0,0:0:0:0:
64,192,14244,1,0,0:0:0:70:LR_RBell_F5.wav
320,192,14244,1,0,0:0:0:0:
192,192,14404,1,0,0:0:0:0:
448,192,14565,1,0,0:0:0:0:
320,192,14725,1,0,0:0:0:0:
64,192,14885,1,0,0:0:0:0:
192,192,15046,1,0,0:0:0:0:
320,192,15206,1,0,0:0:0:0:
448,192,15367,1,0,0:0:0:0:
448,192,15527,1,0,0:0:0:0:
192,192,15688,1,0,0:0:0:0:
320,192,15848,1,0,0:0:0:0:
64,192,16008,1,0,0:0:0:0:
320,192,16169,128,0,16329:0:0:0:0:
448,192,16329,1,0,0:0:0:0:
320,192,16410,1,0,0:0:0:0:
192,192,16490,1,0,0:0:0:0:
64,192,16650,1,0,0:0:0:0:
320,192,16811,1,0,0:0:0:70:LR_RBell_F5.wav
448,192,16811,1,0,0:0:0:0:
192,192,16971,1,0,0:0:0:0:
320,192,17131,1,0,0:0:0:0:
64,192,17292,1,0,0:0:0:0:
320,192,17452,1,0,0:0:0:0:
64,192,17613,1,0,0:0:0:0:
192,192,17773,1,0,0:0:0:0:
448,192,17934,1,0,0:0:0:0:
320,192,18094,1,0,0:0:0:0:
192,192,18174,1,0,0:0:0:0:
64,192,18254,1,0,0:0:0:0:
192,192,18335,1,0,0:0:0:0:
320,192,18415,1,0,0:0:0:0:
448,192,18495,1,0,0:0:0:0:
64,192,18575,1,0,0:0:0:0:
192,192,18655,1,0,0:0:0:0:
448,192,18736,1,0,0:0:0:0:
320,192,18816,1,0,0:0:0:0:
192,192,18896,1,0,0:0:0:0:
64,192,18976,1,0,0:0:0:0:
448,192,19057,1,0,0:0:0:0:
320,192,19137,1,0,0:0:0:0:
192,192,19217,1,0,0:0:0:0:
448,192,19297,1,0,0:0:0:0:
64,192,19377,1,0,0:0:0:70:LR_RBell_F5.wav
320,192,19377,1,0,0:0:0:0:
192,192,19458,1,0,0:0:0:0:
320,192,19538,1,0,0:0:0:0:
192,192,19618,1,0,0:0:0:0:
64,192,19698,1,0,0:0:0:0:
448,192,19698,1,0,0:0:0:0:
320,192,19778,1,0,0:0:0:0:
192,192,19859,1,0,0:0:0:0:
320,192,19939,1,0,0:0:0:0:
64,192,20019,1,0,0:0:0:0:
448,192,20019,1,0,0:0:0:0:
192,192,20099,1,0,0:0:0:0:
320,192,20180,1,0,0:0:0:0:
448,192,20180,1,0,0:0:0:0:
192,192,20260,1,0,0:0:0:0:
64,192,20340,1,0,0:0:0:0:
448,192,20340,1,0,0:0:0:0:
320,192,20420,1,0,0:0:0:0:
64,192,20500,1,0,0:0:0:0:
192,192,20500,1,0,0:0:0:0:
320,192,20581,1,0,0:0:0:0:
64,192,20661,1,0,0:0:0:0:
448,192,20661,1,0,0:0:0:0:
192,192,20741,1,0,0:0:0:0:
320,192,20821,1,0,0:0:0:0:
448,192,20821,1,0,0:0:0:0:
64,192,20901,1,0,0:0:0:0:
192,192,20982,1,0,0:0:0:0:
320,192,20982,1,0,0:0:0:0:
448,192,21062,1,0,0:0:0:0:
64,192,21142,1,0,0:0:0:0:
192,192,21142,1,0,0:0:0:0:
320,192,21222,1,0,0:0:0:0:
64,192,21303,1,0,0:0:0:0:
448,192,21303,1,0,0:0:0:0:
192,192,21383,1,0,0:0:0:0:
320,192,21463,1,0,0:0:0:0:
448,192,21463,1,0,0:0:0:0:
64,192,21543,1,0,0:0:0:0:
192,192,21543,1,0,0:0:0:0:
320,192,21623,1,0,0:0:0:0:
448,192,21623,1,0,0:0:0:0:
192,192,21704,1,0,0:0:0:0:
64,192,21784,1,0,0:0:0:0:
320,192,21784,1,0,0:0:0:0:
448,192,21864,1,0,0:0:0:0:
64,192,21944,128,0,23147:0:0:0:70:kick.wav
192,192,21944,128,0,23147:0:0:0:0:
64,192,23228,1,0,0:0:0:70:drum-hitnormal.wav
320,192,23228,128,0,23549:0:0:0:70:normal-hitfinish.wav
448,192,23228,1,0,0:0:0:0:
192,192,23388,1,0,0:0:0:0:
64,192,23549,1,0,0:0:0:70:drum-hitnormal.wav
448,192,23549,1,0,0:0:0:0:
192,192,23709,1,0,0:0:0:0:
192,192,23869,128,0,24511:0:0:0:70:drum-hitnormal.wav
448,192,23869,1,0,0:0:0:0:
320,192,24030,1,0,0:0:0:0:
64,192,24190,1,0,0:0:0:70:drum-hitnormal.wav
448,192,24190,1,0,0:0:0:0:
320,192,24351,1,0,0:0:0:0:
64,192,24511,1,0,0:0:0:70:drum-hitnormal.wav
448,192,24511,1,0,0:0:0:0:
192,192,24672,1,0,0:0:0:0:
320,192,24832,1,0,0:0:0:70:drum-hitnormal.wav
448,192,24832,1,0,0:0:0:0:
64,192,24992,1,0,0:0:0:0:
192,192,25073,1,0,0:0:0:0:
320,192,25153,1,0,0:0:0:70:drum-hitnormal.wav
448,192,25153,128,0,25313:0:0:0:0:
192,192,25313,128,0,25474:0:0:0:0:
64,192,25474,1,0,0:0:0:70:drum-hitnormal.wav
320,192,25474,128,0,25634:0:0:0:0:
64,192,25634,128,0,25795:0:0:0:0:
192,192,25795,128,0,25955:0:0:0:70:drum-hitnormal.wav
448,192,25795,1,0,0:0:0:0:
64,192,25955,128,0,26115:0:0:0:0:
192,192,26115,128,0,26276:0:0:0:70:drum-hitnormal.wav
320,192,26115,1,0,0:0:0:0:
448,192,26276,128,0,26436:0:0:0:0:
64,192,26436,1,0,0:0:0:70:drum-hitnormal.wav
192,192,26436,128,0,27078:0:0:0:0:
320,192,26597,1,0,0:0:0:0:
64,192,26757,1,0,0:0:0:70:drum-hitnormal.wav
448,192,26757,1,0,0:0:0:0:
320,192,26918,1,0,0:0:0:0:
64,192,27078,1,0,0:0:0:70:drum-hitnormal.wav
448,192,27078,1,0,0:0:0:0:
320,192,27238,1,0,0:0:0:0:
192,192,27399,1,0,0:0:0:70:drum-hitnormal.wav
448,192,27399,1,0,0:0:0:0:
64,192,27559,128,0,27720:0:0:0:0:
192,192,27720,128,0,28041:0:0:0:70:drum-hitnormal.wav
320,192,27720,1,0,0:0:0:0:
448,192,27880,1,0,0:0:0:0:
64,192,28041,1,0,0:0:0:70:drum-hitnormal.wav
320,192,28041,1,0,0:0:0:0:
448,192,28201,1,0,0:0:0:0:
64,192,28361,1,0,0:0:0:70:drum-hitnormal.wav
320,192,28361,128,0,28682:0:0:0:0:
192,192,28522,1,0,0:0:0:0:
64,192,28682,1,0,0:0:0:70:drum-hitnormal.wav
448,192,28682,1,0,0:0:0:0:
192,192,28843,1,0,0:0:0:0:
192,192,29003,128,0,29645:0:0:0:70:drum-hitnormal.wav
320,192,29003,1,0,0:0:0:0:
448,192,29164,1,0,0:0:0:0:
64,192,29324,1,0,0:0:0:70:drum-hitnormal.wav
320,192,29324,1,0,0:0:0:0:
448,192,29484,1,0,0:0:0:0:
64,192,29645,1,0,0:0:0:70:drum-hitnormal.wav
320,192,29645,1,0,0:0:0:0:
192,192,29805,1,0,0:0:0:0:
320,192,29966,1,0,0:0:0:70:drum-hitnormal.wav
448,192,29966,1,0,0:0:0:0:
192,192,30126,1,0,0:0:0:0:
320,192,30206,1,0,0:0:0:0:
64,192,30287,1,0,0:0:0:70:drum-hitnormal.wav
448,192,30287,128,0,30447:0:0:0:0:
320,192,30447,128,0,30607:0:0:0:0:
192,192,30607,128,0,30768:0:0:0:70:drum-hitnormal.wav
448,192,30607,1,0,0:0:0:0:
64,192,30768,128,0,30928:0:0:0:0:
192,192,30928,128,0,31089:0:0:0:70:drum-hitnormal.wav
320,192,30928,1,0,0:0:0:0:
64,192,31089,128,0,31249:0:0:0:0:
192,192,31249,128,0,31409:0:0:0:70:drum-hitnormal.wav
448,192,31249,1,0,0:0:0:0:
448,192,31409,128,0,31570:0:0:0:0:
64,192,31570,1,0,0:0:0:70:drum-hitnormal.wav
320,192,31570,128,0,32212:0:0:0:0:
192,192,31730,1,0,0:0:0:0:
64,192,31891,1,0,0:0:0:70:drum-hitnormal.wav
448,192,31891,1,0,0:0:0:0:
192,192,32051,1,0,0:0:0:0:
64,192,32212,1,0,0:0:0:70:drum-hitnormal.wav
448,192,32212,1,0,0:0:0:0:
320,192,32372,1,0,0:0:0:0:
192,192,32532,1,0,0:0:0:70:drum-hitnormal.wav
448,192,32532,1,0,0:0:0:0:
64,192,32693,1,0,0:0:0:0:
192,192,32773,1,0,0:0:0:0:
320,192,32853,1,0,0:0:0:70:drum-hitnormal.wav
448,192,32853,128,0,33014:0:0:0:0:
192,192,33014,128,0,33174:0:0:0:0:
320,192,33174,128,0,33335:0:0:0:70:drum-hitnormal.wav
448,192,33174,1,0,0:0:0:0:
64,192,33335,128,0,33495:0:0:0:0:
192,192,33495,1,0,0:0:0:70:drum-hitnormal.wav
448,192,33495,1,0,0:0:0:70:normal-hitfinish.wav
320,192,33655,1,0,0:0:0:0:
64,192,33816,128,0,33976:0:0:0:70:drum-hitnormal.wav
448,192,33816,1,0,0:0:0:0:
192,192,33976,128,0,34297:0:0:0:0:
320,192,34137,1,0,0:0:0:70:drum-hitnormal.wav
448,192,34137,1,0,0:0:0:0:
64,192,34297,128,0,34778:0:0:0:0:
192,192,34458,1,0,0:0:0:70:drum-hitnormal.wav
448,192,34458,1,0,0:0:0:0:
320,192,34618,1,0,0:0:0:0:
192,192,34778,1,0,0:0:0:70:drum-hitnormal.wav
448,192,34778,128,0,35099:0:0:0:0:
64,192,34939,1,0,0:0:0:0:
192,192,35099,1,0,0:0:0:70:drum-hitnormal.wav
320,192,35099,128,0,35260:0:0:0:0:
448,192,35260,128,0,35581:0:0:0:0:
64,192,35420,1,0,0:0:0:70:drum-hitnormal.wav
192,192,35420,1,0,0:0:0:0:
320,192,35581,128,0,36062:0:0:0:0:
192,192,35741,1,0,0:0:0:70:drum-hitnormal.wav
448,192,35741,1,0,0:0:0:0:
64,192,35901,1,0,0:0:0:0:
192,192,36062,128,0,36383:0:0:0:70:drum-hitnormal.wav
448,192,36062,1,0,0:0:0:0:
320,192,36222,1,0,0:0:0:0:
64,192,36383,128,0,36543:0:0:0:70:drum-hitnormal.wav
448,192,36383,1,0,0:0:0:0:
192,192,36543,128,0,36864:0:0:0:0:
320,192,36704,1,0,0:0:0:70:drum-hitnormal.wav
448,192,36704,1,0,0:0:0:0:
64,192,36864,128,0,37024:0:0:0:0:
192,192,37024,128,0,37185:0:0:0:70:drum-hitnormal.wav
448,192,37024,1,0,0:0:0:0:
320,192,37185,128,0,37506:0:0:0:0:
64,192,37345,1,0,0:0:0:70:drum-hitnormal.wav
192,192,37345,1,0,0:0:0:0:
448,192,37506,128,0,37666:0:0:0:0:
192,192,37666,128,0,37827:0:0:0:70:drum-hitnormal.wav
320,192,37666,1,0,0:0:0:0:
64,192,37827,128,0,37987:0:0:0:0:
192,192,37987,1,0,0:0:0:70:drum-hitnormal.wav
448,192,37987,128,0,38147:0:0:0:0:
320,192,38147,128,0,38308:0:0:0:0:
64,192,38308,128,0,38468:0:0:0:70:drum-hitnormal.wav
448,192,38308,1,0,0:0:0:0:
192,192,38468,128,0,38629:0:0:0:0:
64,192,38629,128,0,39912:0:0:0:70:drum-hitnormal.wav
448,192,38629,1,0,0:0:0:0:
320,192,38789,1,0,0:0:0:0:
192,192,38950,1,0,0:0:0:70:drum-hitnormal.wav
448,192,38950,1,0,0:0:0:0:
320,192,39110,1,0,0:0:0:0:
320,192,39270,1,0,0:0:0:70:drum-hitnormal.wav
448,192,39270,1,0,0:0:0:0:
192,192,39431,1,0,0:0:0:0:
320,192,39591,1,0,0:0:0:70:drum-hitnormal.wav
448,192,39591,1,0,0:0:0:0:
448,192,39752,1,0,0:0:0:0:
192,192,39912,1,0,0:0:0:70:drum-hitnormal.wav
320,192,39912,1,0,0:0:0:0:
448,192,40073,1,0,0:0:0:0:
64,192,40233,128,0,40393:0:0:0:70:drum-hitnormal.wav
320,192,40233,1,0,0:0:0:0:
192,192,40393,128,0,40554:0:0:0:0:
320,192,40554,128,0,40714:0:0:0:70:drum-hitnormal.wav
448,192,40554,1,0,0:0:0:0:
192,192,40714,128,0,40875:0:0:0:0:
64,192,40875,1,0,0:0:0:70:drum-hitnormal.wav
320,192,40875,128,0,41196:0:0:0:0:
192,192,41035,1,0,0:0:0:0:
64,192,41196,128,0,41757:0:0:0:70:drum-hitnormal.wav
448,192,41196,1,0,0:0:0:0:
320,192,41276,1,0,0:0:0:0:
192,192,41356,1,0,0:0:0:0:
448,192,41436,1,0,0:0:0:0:
320,192,41516,1,0,0:0:0:70:drum-hitnormal.wav
192,192,41597,1,0,0:0:0:0:
448,192,41677,1,0,0:0:0:0:
320,192,41757,1,0,0:0:0:0:
192,192,41837,1,0,0:0:0:70:drum-hitnormal.wav
448,192,41837,128,0,42399:0:0:0:0:
320,192,41918,1,0,0:0:0:0:
64,192,41998,1,0,0:0:0:0:
192,192,42078,1,0,0:0:0:0:
320,192,42158,1,0,0:0:0:70:drum-hitnormal.wav
64,192,42238,1,0,0:0:0:0:
192,192,42319,1,0,0:0:0:0:
320,192,42399,1,0,0:0:0:0:
192,192,42479,1,0,0:0:0:70:drum-hitnormal.wav
64,192,42479,1,0,0:0:0:70:kick.wav
320,192,42519,1,0,0:0:0:0:
448,192,42559,1,0,0:0:0:0:
64,192,42599,1,0,0:0:0:0:
192,192,42639,1,0,0:0:0:0:
320,192,42680,1,0,0:0:0:0:
448,192,42720,1,0,0:0:0:0:
64,192,42760,1,0,0:0:0:0:
192,192,42800,1,0,0:0:0:0:
448,192,42840,1,0,0:0:0:0:
320,192,42880,1,0,0:0:0:0:
64,192,42920,1,0,0:0:0:0:
192,192,42960,1,0,0:0:0:0:
448,192,43000,1,0,0:0:0:0:
320,192,43041,1,0,0:0:0:0:
64,192,43081,1,0,0:0:0:0:
192,192,43121,128,0,43762:0:0:0:0:
448,192,43281,1,0,0:0:0:0:
320,192,43442,1,0,0:0:0:0:
64,192,43602,1,0,0:0:0:0:
320,192,43762,1,0,0:0:0:70:drum-hitnormal.wav
448,192,43762,1,0,0:0:0:70:normal-hitfinish.wav
320,192,44083,1,0,0:0:0:0:
192,192,44244,1,0,0:0:0:0:
64,192,44404,1,0,0:0:0:70:LR4_SnareKKF.wav
448,192,44404,1,0,0:0:0:0:
320,192,44565,1,0,0:0:0:0:
192,192,44725,1,0,0:0:0:0:
64,192,44885,1,0,0:0:0:70:drum-hitnormal.wav
320,192,44885,1,0,0:0:0:0:
192,192,45046,1,0,0:0:0:70:drum-hitnormal.wav
448,192,45046,1,0,0:0:0:0:
320,192,45367,1,0,0:0:0:0:
192,192,45527,1,0,0:0:0:70:drum-hitnormal.wav
448,192,45527,1,0,0:0:0:0:
64,192,45688,1,0,0:0:0:70:LR4_SnareKKF.wav
320,192,45688,1,0,0:0:0:0:
448,192,45848,1,0,0:0:0:0:
320,192,46008,1,0,0:0:0:0:
192,192,46169,1,0,0:0:0:0:
64,192,46329,1,0,0:0:0:70:drum-hitnormal.wav
320,192,46329,1,0,0:0:0:0:
192,192,46650,1,0,0:0:0:0:
320,192,46971,1,0,0:0:0:70:LR4_SnareKKF.wav
448,192,46971,1,0,0:0:0:0:
192,192,47292,1,0,0:0:0:0:
64,192,47452,1,0,0:0:0:70:drum-hitnormal.wav
448,192,47452,1,0,0:0:0:0:
64,192,47613,1,0,0:0:0:70:drum-hitnormal.wav
192,192,47613,1,0,0:0:0:0:
320,192,47773,1,0,0:0:0:0:
64,192,47934,1,0,0:0:0:70:drum-hitnormal.wav
448,192,47934,1,0,0:0:0:0:
192,192,48094,1,0,0:0:0:0:
64,192,48254,1,0,0:0:0:70:LR4_SnareKKF.wav
320,192,48254,1,0,0:0:0:0:
448,192,48415,1,0,0:0:0:0:
192,192,48575,1,0,0:0:0:70:drum-hitnormal.wav
320,192,48575,1,0,0:0:0:0:
64,192,48736,1,0,0:0:0:0:
320,192,48896,1,0,0:0:0:70:drum-hitnormal.wav
448,192,48896,1,0,0:0:0:0:
192,192,49217,1,0,0:0:0:0:
64,192,49377,1,0,0:0:0:0:
192,192,49538,1,0,0:0:0:70:LR4_SnareKKF.wav
320,192,49538,1,0,0:0:0:0:
448,192,49698,1,0,0:0:0:0:
320,192,49859,1,0,0:0:0:0:
64,192,50019,1,0,0:0:0:70:drum-hitnormal.wav
192,192,50019,1,0,0:0:0:0:
320,192,50180,1,0,0:0:0:70:drum-hitnormal.wav
448,192,50180,1,0,0:0:0:0:
192,192,50500,1,0,0:0:0:0:
64,192,50661,1,0,0:0:0:70:drum-hitnormal.wav
320,192,50661,1,0,0:0:0:0:
192,192,50821,1,0,0:0:0:70:LR4_SnareKKF.wav
448,192,50821,1,0,0:0:0:0:
320,192,50982,1,0,0:0:0:0:
192,192,51142,1,0,0:0:0:0:
64,192,51303,1,0,0:0:0:0:
192,192,51463,1,0,0:0:0:70:drum-hitnormal.wav
448,192,51463,1,0,0:0:0:0:
320,192,51784,1,0,0:0:0:0:
64,192,52105,1,0,0:0:0:70:LR4_SnareKKF.wav
448,192,52105,1,0,0:0:0:0:
192,192,52426,1,0,0:0:0:0:
320,192,52586,1,0,0:0:0:70:drum-hitnormal.wav
448,192,52586,1,0,0:0:0:0:
64,192,52746,1,0,0:0:0:70:drum-hitnormal.wav
448,192,52746,1,0,0:0:0:0:
64,192,53067,1,0,0:0:0:70:drum-hitnormal.wav
192,192,53067,1,0,0:0:0:0:
64,192,53388,1,0,0:0:0:70:LR4_SnareKKF.wav
320,192,53388,1,0,0:0:0:0:
448,192,53549,1,0,0:0:0:0:
64,192,53709,1,0,0:0:0:70:drum-hitnormal.wav
320,192,53709,1,0,0:0:0:0:
192,192,53869,1,0,0:0:0:0:
64,192,54030,128,0,54672:0:0:0:70:drum-hitnormal.wav
320,192,54030,1,0,0:0:0:70:normal-hitfinish.wav
448,192,54030,1,0,0:0:0:0:
448,192,54351,1,0,0:0:0:0:
320,192,54511,1,0,0:0:0:0:
192,192,54672,128,0,55313:0:0:0:70:LR4_SnareKKF.wav
320,192,54672,1,0,0:0:0:0:
448,192,54672,1,0,0:0:0:0:
64,192,54832,1,0,0:0:0:0:
448,192,54992,1,0,0:0:0:0:
64,192,55153,1,0,0:0:0:70:drum-hitnormal.wav
320,192,55153,1,0,0:0:0:0:
64,192,55313,1,0,0:0:0:70:drum-hitnormal.wav
320,192,55313,128,0,55955:0:0:0:0:
448,192,55313,1,0,0:0:0:0:
64,192,55634,1,0,0:0:0:0:
192,192,55795,1,0,0:0:0:70:drum-hitnormal.wav
448,192,55795,1,0,0:0:0:0:
64,192,55955,1,0,0:0:0:70:LR4_SnareKKF.wav
192,192,55955,1,0,0:0:0:0:
448,192,55955,128,0,56597:0:0:0:0:
320,192,56115,1,0,0:0:0:0:
192,192,56276,1,0,0:0:0:0:
64,192,56436,1,0,0:0:0:0:
64,192,56597,1,0,0:0:0:70:drum-hitnormal.wav
192,192,56597,128,0,57238:0:0:0:0:
320,192,56597,1,0,0:0:0:0:
320,192,56918,1,0,0:0:0:0:
64,192,57238,1,0,0:0:0:70:LR4_SnareKKF.wav
320,192,57238,128,0,57880:0:0:0:0:
448,192,57238,1,0,0:0:0:0:
448,192,57559,1,0,0:0:0:0:
64,192,57720,1,0,0:0:0:70:drum-hitnormal.wav
192,192,57720,1,0,0:0:0:0:
64,192,57880,1,0,0:0:0:70:drum-hitnormal.wav
192,192,57880,1,0,0:0:0:0:
448,192,57880,128,0,58522:0:0:0:0:
320,192,58041,1,0,0:0:0:0:
64,192,58201,1,0,0:0:0:70:drum-hitnormal.wav
320,192,58201,1,0,0:0:0:0:
192,192,58361,1,0,0:0:0:0:
64,192,58522,1,0,0:0:0:70:LR4_SnareKKF.wav
192,192,58522,1,0,0:0:0:0:
320,192,58522,128,0,59164:0:0:0:0:
448,192,58682,1,0,0:0:0:0:
64,192,58843,1,0,0:0:0:70:drum-hitnormal.wav
192,192,58843,1,0,0:0:0:0:
64,192,59003,1,0,0:0:0:0:
192,192,59164,1,0,0:0:0:70:drum-hitnormal.wav
448,192,59164,1,0,0:0:0:0:
320,192,59484,1,0,0:0:0:0:
192,192,59645,1,0,0:0:0:0:
64,192,59805,1,0,0:0:0:70:LR4_SnareKKF.wav
320,192,59805,1,0,0:0:0:0:
448,192,59966,1,0,0:0:0:0:
192,192,60126,1,0,0:0:0:0:
64,192,60287,1,0,0:0:0:70:drum-hitnormal.wav
448,192,60287,1,0,0:0:0:0:
192,192,60447,1,0,0:0:0:70:drum-hitnormal.wav
320,192,60447,1,0,0:0:0:0:
448,192,60768,1,0,0:0:0:0:
192,192,60928,1,0,0:0:0:70:drum-hitnormal.wav
320,192,60928,1,0,0:0:0:0:
64,192,61089,1,0,0:0:0:70:LR4_SnareKKF.wav
448,192,61089,1,0,0:0:0:0:
320,192,61249,1,0,0:0:0:0:
192,192,61410,1,0,0:0:0:0:
64,192,61570,1,0,0:0:0:0:
192,192,61730,128,0,62051:0:0:0:70:drum-hitnormal.wav
448,192,61730,128,0,62051:0:0:0:0:
64,192,62051,1,0,0:0:0:70:LR4_SnareKKF.wav
320,192,62051,1,0,0:0:0:0:
64,192,62212,128,0,62532:0:0:0:70:drum-hitnormal.wav
320,192,62212,128,0,62532:0:0:0:0:
192,192,62532,1,0,0:0:0:70:LR4_SnareKKF.wav
448,192,62532,1,0,0:0:0:0:
64,192,62693,128,0,63014:0:0:0:70:drum-hitnormal.wav
448,192,62693,128,0,63014:0:0:0:0:
192,192,63014,1,0,0:0:0:70:LR4_SnareKKF.wav
320,192,63014,1,0,0:0:0:0:
192,192,63174,128,0,63495:0:0:0:70:drum-hitnormal.wav
320,192,63174,128,0,63495:0:0:0:0:
64,192,63495,1,0,0:0:0:70:LR4_SnareKKF.wav
448,192,63495,1,0,0:0:0:0:
64,192,63655,128,0,63816:0:0:0:70:drum-hitnormal.wav
192,192,63655,128,0,63816:0:0:0:0:
320,192,63816,1,0,0:0:0:70:LR4_SnareKKF.wav
448,192,63816,1,0,0:0:0:0:
64,192,63976,1,0,0:0:0:70:drum-hitnormal.wav
192,192,63976,1,0,0:0:0:0:
448,192,63976,128,0,64297:0:0:0:0:
64,192,64297,128,0,65420:0:0:0:70:kick.wav
192,192,64297,1,0,0:0:0:70:drum-hitnormal.wav
320,192,64297,1,0,0:0:0:0:
192,192,65099,1,0,0:0:0:0:
320,192,65260,1,0,0:0:0:0:
448,192,65420,1,0,0:0:0:0:
64,192,65581,1,0,0:0:0:70:drum-hitnormal.wav
192,192,65581,1,0,0:0:0:70:normal-hitfinish.wav
320,192,65581,128,0,65901:0:0:0:0:
192,192,65741,1,0,0:0:0:0:
64,192,65901,1,0,0:0:0:70:drum-hitnormal.wav
448,192,65901,1,0,0:0:0:0:
192,192,66062,1,0,0:0:0:0:
192,192,66222,128,0,66543:0:0:0:70:drum-hitnormal.wav
448,192,66222,1,0,0:0:0:0:
320,192,66383,1,0,0:0:0:0:
64,192,66543,1,0,0:0:0:70:drum-hitnormal.wav
448,192,66543,1,0,0:0:0:0:
320,192,66704,128,0,66864:0:0:0:0:
64,192,66864,1,0,0:0:0:70:drum-hitnormal.wav
192,192,66864,1,0,0:0:0:0:
320,192,67024,1,0,0:0:0:0:
64,192,67185,1,0,0:0:0:70:drum-hitnormal.wav
448,192,67185,1,0,0:0:0:0:
192,192,67345,1,0,0:0:0:0:
64,192,67506,1,0,0:0:0:70:drum-hitnormal.wav
320,192,67506,128,0,67666:0:0:0:0:
448,192,67666,1,0,0:0:0:0:
320,192,67746,1,0,0:0:0:0:
192,192,67827,1,0,0:0:0:70:drum-hitnormal.wav
448,192,67827,1,0,0:0:0:0:
64,192,67987,1,0,0:0:0:0:
192,192,68147,128,0,68308:0:0:0:70:drum-hitnormal.wav
448,192,68147,1,0,0:0:0:0:
320,192,68308,1,0,0:0:0:0:
64,192,68468,1,0,0:0:0:70:drum-hitnormal.wav
320,192,68468,128,0,68629:0:0:0:0:
192,192,68629,1,0,0:0:0:0:
64,192,68789,1,0,0:0:0:70:drum-hitnormal.wav
448,192,68789,1,0,0:0:0:0:
192,192,68950,1,0,0:0:0:0:
64,192,69110,1,0,0:0:0:70:drum-hitnormal.wav
320,192,69110,1,0,0:0:0:0:
448,192,69270,1,0,0:0:0:0:
192,192,69431,1,0,0:0:0:70:drum-hitnormal.wav
320,192,69431,1,0,0:0:0:0:
448,192,69591,128,0,69912:0:0:0:0:
64,192,69752,1,0,0:0:0:70:drum-hitnormal.wav
192,192,69752,1,0,0:0:0:0:
320,192,69912,128,0,70073:0:0:0:0:
192,192,70073,128,0,70233:0:0:0:70:drum-hitnormal.wav
448,192,70073,1,0,0:0:0:0:
64,192,70233,128,0,70393:0:0:0:0:
192,192,70393,1,0,0:0:0:70:drum-hitnormal.wav
320,192,70393,128,0,70554:0:0:0:0:
448,192,70554,128,0,70714:0:0:0:0:
64,192,70714,1,0,0:0:0:70:drum-hitnormal.wav
320,192,70714,128,0,71035:0:0:0:0:
192,192,70875,1,0,0:0:0:0:
64,192,71035,1,0,0:0:0:70:drum-hitnormal.wav
448,192,71035,1,0,0:0:0:0:
192,192,71196,1,0,0:0:0:0:
192,192,71356,128,0,71677:0:0:0:70:drum-hitnormal.wav
448,192,71356,1,0,0:0:0:0:
320,192,71516,1,0,0:0:0:0:
64,192,71677,1,0,0:0:0:70:drum-hitnormal.wav
448,192,71677,1,0,0:0:0:0:
320,192,71837,128,0,71998:0:0:0:0:
192,192,71998,1,0,0:0:0:70:drum-hitnormal.wav
448,192,71998,1,0,0:0:0:0:
320,192,72158,1,0,0:0:0:0:
64,192,72319,1,0,0:0:0:70:drum-hitnormal.wav
448,192,72319,1,0,0:0:0:0:
192,192,72479,1,0,0:0:0:0:
64,192,72639,1,0,0:0:0:70:drum-hitnormal.wav
320,192,72639,128,0,72800:0:0:0:0:
448,192,72800,1,0,0:0:0:0:
320,192,72880,1,0,0:0:0:0:
192,192,72960,1,0,0:0:0:70:drum-hitnormal.wav
448,192,72960,1,0,0:0:0:0:
64,192,73121,1,0,0:0:0:0:
192,192,73281,128,0,73442:0:0:0:70:drum-hitnormal.wav
448,192,73281,1,0,0:0:0:0:
320,192,73442,1,0,0:0:0:0:
64,192,73602,1,0,0:0:0:70:drum-hitnormal.wav
320,192,73602,128,0,73923:0:0:0:0:
192,192,73762,1,0,0:0:0:0:
192,192,73923,128,0,74083:0:0:0:70:drum-hitnormal.wav
448,192,73923,1,0,0:0:0:0:
64,192,74083,128,0,74244:0:0:0:0:
320,192,74244,1,0,0:0:0:70:drum-hitnormal.wav
448,192,74244,1,0,0:0:0:0:
64,192,74404,128,0,74565:0:0:0:0:
192,192,74565,1,0,0:0:0:70:drum-hitnormal.wav
448,192,74565,1,0,0:0:0:0:
64,192,74725,128,0,75046:0:0:0:0:
320,192,74885,1,0,0:0:0:70:drum-hitnormal.wav
448,192,74885,1,0,0:0:0:0:
192,192,75046,128,0,75206:0:0:0:0:
64,192,75206,1,0,0:0:0:70:drum-hitnormal.wav
320,192,75206,128,0,75688:0:0:0:0:
192,192,75367,1,0,0:0:0:0:
64,192,75527,1,0,0:0:0:70:drum-hitnormal.wav
448,192,75527,1,0,0:0:0:0:
192,192,75688,1,0,0:0:0:0:
64,192,75848,1,0,0:0:0:70:drum-hitnormal.wav
320,192,75848,1,0,0:0:0:70:normal-hitfinish.wav
448,192,75848,1,0,0:0:0:0:
192,192,76008,1,0,0:0:0:0:
64,192,76169,1,0,0:0:0:70:drum-hitnormal.wav
448,192,76169,1,0,0:0:0:0:
320,192,76329,1,0,0:0:0:0:
64,192,76490,1,0,0:0:0:70:drum-hitnormal.wav
320,192,76490,128,0,76811:0:0:0:0:
192,192,76650,1,0,0:0:0:0:
64,192,76811,1,0,0:0:0:70:drum-hitnormal.wav
448,192,76811,1,0,0:0:0:0:
192,192,76971,128,0,77131:0:0:0:0:
320,192,77131,1,0,0:0:0:70:drum-hitnormal.wav
448,192,77131,1,0,0:0:0:0:
192,192,77292,1,0,0:0:0:0:
320,192,77452,1,0,0:0:0:70:drum-hitnormal.wav
448,192,77452,1,0,0:0:0:0:
64,192,77613,1,0,0:0:0:0:
192,192,77773,128,0,77934:0:0:0:70:drum-hitnormal.wav
448,192,77773,1,0,0:0:0:0:
320,192,77934,1,0,0:0:0:0:
192,192,78014,1,0,0:0:0:0:
64,192,78094,1,0,0:0:0:70:drum-hitnormal.wav
448,192,78094,1,0,0:0:0:0:
320,192,78254,1,0,0:0:0:0:
64,192,78415,128,0,78575:0:0:0:70:drum-hitnormal.wav
448,192,78415,1,0,0:0:0:0:
192,192,78575,1,0,0:0:0:0:
64,192,78736,1,0,0:0:0:70:drum-hitnormal.wav
448,192,78736,128,0,78896:0:0:0:0:
320,192,78896,1,0,0:0:0:0:
192,192,79057,1,0,0:0:0:70:drum-hitnormal.wav
448,192,79057,1,0,0:0:0:0:
64,192,79217,1,0,0:0:0:0:
192,192,79377,1,0,0:0:0:70:drum-hitnormal.wav
448,192,79377,1,0,0:0:0:0:
320,192,79538,1,0,0:0:0:0:
64,192,79698,1,0,0:0:0:70:drum-hitnormal.wav
192,192,79698,1,0,0:0:0:0:
448,192,79859,128,0,80180:0:0:0:0:
192,192,80019,1,0,0:0:0:70:drum-hitnormal.wav
320,192,80019,1,0,0:0:0:0:
320,192,80180,128,0,80340:0:0:0:0:
192,192,80340,128,0,80500:0:0:0:70:drum-hitnormal.wav
448,192,80340,1,0,0:0:0:0:
64,192,80500,128,0,80661:0:0:0:0:
192,192,80661,128,0,80821:0:0:0:70:drum-hitnormal.wav
448,192,80661,1,0,0:0:0:0:
320,192,80821,128,0,80982:0:0:0:0:
64,192,80982,1,0,0:0:0:70:drum-hitnormal.wav
448,192,80982,1,0,0:0:0:70:hihat.wav
192,192,81062,1,0,0:0:0:0:
320,192,81142,1,0,0:0:0:0:
192,192,81222,1,0,0:0:0:0:
64,192,81303,1,0,0:0:0:70:drum-hitnormal.wav
448,192,81303,1,0,0:0:0:0:
320,192,81383,1,0,0:0:0:0:
64,192,81463,1,0,0:0:0:0:
448,192,81463,1,0,0:0:0:0:
192,192,81543,1,0,0:0:0:0:
320,192,81623,1,0,0:0:0:70:drum-hitnormal.wav
448,192,81623,1,0,0:0:0:0:
192,192,81704,1,0,0:0:0:0:
64,192,81784,1,0,0:0:0:0:
320,192,81864,1,0,0:0:0:0:
192,192,81944,1,0,0:0:0:70:drum-hitnormal.wav
448,192,81944,1,0,0:0:0:0:
320,192,82024,1,0,0:0:0:0:
192,192,82105,1,0,0:0:0:0:
64,192,82105,1,0,0:0:0:0:
448,192,82185,1,0,0:0:0:0:
64,192,82265,1,0,0:0:0:70:drum-hitnormal.wav
320,192,82265,1,0,0:0:0:70:hihat.wav
192,192,82345,1,0,0:0:0:0:
448,192,82426,1,0,0:0:0:0:
320,192,82426,1,0,0:0:0:0:
192,192,82506,1,0,0:0:0:0:
320,192,82586,1,0,0:0:0:70:drum-hitnormal.wav
64,192,82586,1,0,0:0:0:0:
448,192,82666,1,0,0:0:0:0:
64,192,82746,1,0,0:0:0:0:
192,192,82746,1,0,0:0:0:0:
320,192,82827,1,0,0:0:0:0:
192,192,82907,1,0,0:0:0:70:drum-hitnormal.wav
448,192,82907,1,0,0:0:0:0:
64,192,82987,1,0,0:0:0:0:
320,192,83067,1,0,0:0:0:0:
448,192,83067,1,0,0:0:0:0:
64,192,83147,1,0,0:0:0:0:
192,192,83147,1,0,0:0:0:0:
448,192,83228,1,0,0:0:0:70:drum-hitnormal.wav
320,192,83228,1,0,0:0:0:0:
192,192,83308,1,0,0:0:0:0:
320,192,83388,1,0,0:0:0:0:
64,192,83388,1,0,0:0:0:0:
448,192,83468,1,0,0:0:0:0:
64,192,83549,1,0,0:0:0:70:drum-hitnormal.wav
192,192,83549,1,0,0:0:0:70:hihat.wav
320,192,83629,1,0,0:0:0:0:
448,192,83709,1,0,0:0:0:0:
64,192,83789,1,0,0:0:0:0:
192,192,83869,1,0,0:0:0:70:drum-hitnormal.wav
320,192,83869,1,0,0:0:0:0:
448,192,83950,1,0,0:0:0:0:
64,192,84030,1,0,0:0:0:0:
192,192,84110,1,0,0:0:0:0:
448,192,84190,1,0,0:0:0:70:drum-hitnormal.wav
320,192,84190,1,0,0:0:0:70:hihat.wav
64,192,84270,1,0,0:0:0:0:
320,192,84351,1,0,0:0:0:0:
192,192,84351,1,0,0:0:0:0:
448,192,84431,1,0,0:0:0:0:
64,192,84511,1,0,0:0:0:70:drum-hitnormal.wav
192,192,84511,1,0,0:0:0:0:
320,192,84591,1,0,0:0:0:0:
64,192,84672,1,0,0:0:0:0:
448,192,84672,1,0,0:0:0:0:
192,192,84752,1,0,0:0:0:0:
64,192,84992,1,0,0:0:0:70:drum-hitnormal.wav
320,192,84992,1,0,0:0:0:0:
192,192,85313,1,0,0:0:0:70:drum-hitnormal.wav
320,192,85313,1,0,0:0:0:0:
64,192,85474,128,0,85795:0:0:0:70:drum-hitnormal.wav
448,192,85474,128,0,85795:0:0:0:0:
320,192,85634,1,0,0:0:0:0:
192,192,85795,1,0,0:0:0:0:
64,192,85955,1,0,0:0:0:0:
192,192,86115,1,0,0:0:0:70:drum-hitnormal.wav
320,192,86115,1,0,0:0:0:70:normal-hitfinish.wav
448,192,86115,1,0,0:0:0:0:
64,192,86436,1,0,0:0:0:70:drum-hitnormal.wav
448,192,86436,1,0,0:0:0:0:
320,192,86597,1,0,0:0:0:0:
64,192,86757,1,0,0:0:0:70:LR4_SnareKKF.wav
192,192,86757,1,0,0:0:0:0:
320,192,86918,1,0,0:0:0:0:
192,192,87078,1,0,0:0:0:70:drum-hitnormal.wav
448,192,87078,1,0,0:0:0:0:
64,192,87238,1,0,0:0:0:70:drum-hitnormal.wav
320,192,87238,1,0,0:0:0:0:
64,192,87399,1,0,0:0:0:70:drum-hitnormal.wav
448,192,87399,1,0,0:0:0:0:
192,192,87720,1,0,0:0:0:70:drum-hitnormal.wav
448,192,87720,1,0,0:0:0:0:
64,192,87880,1,0,0:0:0:70:drum-hitnormal.wav
320,192,87880,1,0,0:0:0:0:
192,192,88041,1,0,0:0:0:70:LR4_SnareKKF.wav
320,192,88041,1,0,0:0:0:0:
448,192,88201,1,0,0:0:0:0:
64,192,88361,1,0,0:0:0:70:drum-hitnormal.wav
320,192,88361,1,0,0:0:0:0:
192,192,88522,1,0,0:0:0:0:
64,192,88682,1,0,0:0:0:70:drum-hitnormal.wav
448,192,88682,1,0,0:0:0:0:
192,192,89003,1,0,0:0:0:70:drum-hitnormal.wav
320,192,89003,1,0,0:0:0:0:
320,192,89324,1,0,0:0:0:70:LR4_SnareKKF.wav
448,192,89324,1,0,0:0:0:0:
192,192,89645,1,0,0:0:0:70:drum-hitnormal.wav
448,192,89645,1,0,0:0:0:0:
64,192,89805,1,0,0:0:0:70:drum-hitnormal.wav
320,192,89805,1,0,0:0:0:0:
64,192,89966,1,0,0:0:0:70:drum-hitnormal.wav
192,192,89966,1,0,0:0:0:0:
448,192,90126,1,0,0:0:0:0:
192,192,90287,1,0,0:0:0:70:drum-hitnormal.wav
320,192,90287,1,0,0:0:0:0:
64,192,90447,1,0,0:0:0:0:
192,192,90607,1,0,0:0:0:70:LR4_SnareKKF.wav
448,192,90607,1,0,0:0:0:0:
320,192,90768,1,0,0:0:0:0:
64,192,90928,1,0,0:0:0:70:drum-hitnormal.wav
192,192,90928,1,0,0:0:0:0:
448,192,91089,1,0,0:0:0:0:
64,192,91249,1,0,0:0:0:70:drum-hitnormal.wav
320,192,91249,1,0,0:0:0:0:
320,192,91570,1,0,0:0:0:70:drum-hitnormal.wav
448,192,91570,1,0,0:0:0:0:
192,192,91730,1,0,0:0:0:0:
64,192,91891,1,0,0:0:0:70:LR4_SnareKKF.wav
448,192,91891,1,0,0:0:0:0:
320,192,92051,1,0,0:0:0:0:
192,192,92212,1,0,0:0:0:70:drum-hitnormal.wav
448,192,92212,1,0,0:0:0:0:
64,192,92372,1,0,0:0:0:70:drum-hitnormal.wav
320,192,92372,1,0,0:0:0:0:
192,192,92532,1,0,0:0:0:70:drum-hitnormal.wav
320,192,92532,1,0,0:0:0:0:
320,192,92853,1,0,0:0:0:70:drum-hitnormal.wav
448,192,92853,1,0,0:0:0:0:
64,192,93014,1,0,0:0:0:70:drum-hitnormal.wav
192,192,93014,1,0,0:0:0:0:
64,192,93174,1,0,0:0:0:70:LR4_SnareKKF.wav
448,192,93174,1,0,0:0:0:0:
320,192,93335,1,0,0:0:0:0:
192,192,93495,1,0,0:0:0:70:drum-hitnormal.wav
448,192,93495,1,0,0:0:0:0:
64,192,93655,1,0,0:0:0:0:
192,192,93816,1,0,0:0:0:70:drum-hitnormal.wav
320,192,93816,1,0,0:0:0:0:
192,192,94137,1,0,0:0:0:70:drum-hitnormal.wav
448,192,94137,1,0,0:0:0:0:
320,192,94458,1,0,0:0:0:70:LR4_SnareKKF.wav
448,192,94458,1,0,0:0:0:0:
64,192,94778,1,0,0:0:0:70:drum-hitnormal.wav
320,192,94778,1,0,0:0:0:0:
192,192,94939,1,0,0:0:0:70:drum-hitnormal.wav
448,192,94939,1,0,0:0:0:0:
64,192,95099,1,0,0:0:0:70:drum-hitnormal.wav
192,192,95099,1,0,0:0:0:0:
64,192,95420,1,0,0:0:0:70:drum-hitnormal.wav
192,192,95420,1,0,0:0:0:0:
192,192,95741,1,0,0:0:0:70:LR4_SnareKKF.wav
320,192,95741,1,0,0:0:0:0:
448,192,95901,1,0,0:0:0:0:
64,192,96062,1,0,0:0:0:70:drum-hitnormal.wav
320,192,96062,1,0,0:0:0:0:
192,192,96222,1,0,0:0:0:0:
64,192,96383,128,0,97024:0:0:0:70:drum-hitnormal.wav
320,192,96383,1,0,0:0:0:70:normal-hitfinish.wav
448,192,96383,1,0,0:0:0:0:
192,192,96704,1,0,0:0:0:70:drum-hitnormal.wav
320,192,96704,1,0,0:0:0:0:
448,192,96864,1,0,0:0:0:0:
192,192,97024,128,0,97666:0:0:0:70:LR4_SnareKKF.wav
320,192,97024,1,0,0:0:0:0:
448,192,97024,1,0,0:0:0:0:
64,192,97185,1,0,0:0:0:0:
320,192,97345,1,0,0:0:0:70:drum-hitnormal.wav
448,192,97345,1,0,0:0:0:0:
64,192,97506,1,0,0:0:0:70:drum-hitnormal.wav
320,192,97506,1,0,0:0:0:0:
64,192,97666,1,0,0:0:0:70:drum-hitnormal.wav
320,192,97666,128,0,98308:0:0:0:0:
448,192,97666,1,0,0:0:0:0:
64,192,97987,1,0,0:0:0:70:drum-hitnormal.wav
448,192,97987,1,0,0:0:0:0:
64,192,98147,1,0,0:0:0:70:drum-hitnormal.wav
192,192,98147,1,0,0:0:0:0:
64,192,98308,1,0,0:0:0:70:LR4_SnareKKF.wav
192,192,98308,1,0,0:0:0:0:
448,192,98308,128,0,98950:0:0:0:0:
320,192,98468,1,0,0:0:0:0:
64,192,98629,1,0,0:0:0:70:drum-hitnormal.wav
192,192,98629,1,0,0:0:0:0:
320,192,98789,1,0,0:0:0:0:
64,192,98950,1,0,0:0:0:70:drum-hitnormal.wav
192,192,98950,128,0,99591:0:0:0:0:
320,192,98950,1,0,0:0:0:0:
320,192,99270,1,0,0:0:0:70:drum-hitnormal.wav
448,192,99270,1,0,0:0:0:0:
64,192,99591,1,0,0:0:0:70:LR4_SnareKKF.wav
320,192,99591,128,0,100233:0:0:0:0:
448,192,99591,1,0,0:0:0:0:
192,192,99912,1,0,0:0:0:70:drum-hitnormal.wav
448,192,99912,1,0,0:0:0:0:
64,192,100073,1,0,0:0:0:70:drum-hitnormal.wav
192,192,100073,1,0,0:0:0:0:
64,192,100233,1,0,0:0:0:70:drum-hitnormal.wav
192,192,100233,1,0,0:0:0:0:
448,192,100233,128,0,100875:0:0:0:0:
320,192,100393,1,0,0:0:0:0:
64,192,100554,1,0,0:0:0:70:drum-hitnormal.wav
320,192,100554,1,0,0:0:0:0:
192,192,100714,1,0,0:0:0:0:
64,192,100875,1,0,0:0:0:70:LR4_SnareKKF.wav
192,192,100875,1,0,0:0:0:0:
320,192,100875,128,0,101516:0:0:0:0:
448,192,101035,1,0,0:0:0:0:
64,192,101196,1,0,0:0:0:70:drum-hitnormal.wav
192,192,101196,1,0,0:0:0:0:
64,192,101356,1,0,0:0:0:0:
192,192,101516,1,0,0:0:0:70:drum-hitnormal.wav
448,192,101516,1,0,0:0:0:0:
192,192,101837,1,0,0:0:0:70:drum-hitnormal.wav
320,192,101837,1,0,0:0:0:0:
64,192,101998,1,0,0:0:0:0:
192,192,102158,1,0,0:0:0:70:LR4_SnareKKF.wav
448,192,102158,1,0,0:0:0:0:
320,192,102319,1,0,0:0:0:0:
192,192,102479,1,0,0:0:0:70:drum-hitnormal.wav
448,192,102479,1,0,0:0:0:0:
64,192,102639,1,0,0:0:0:70:drum-hitnormal.wav
320,192,102639,1,0,0:0:0:0:
192,192,102800,1,0,0:0:0:70:drum-hitnormal.wav
320,192,102800,1,0,0:0:0:0:
192,192,103121,1,0,0:0:0:70:drum-hitnormal.wav
448,192,103121,1,0,0:0:0:0:
320,192,103281,1,0,0:0:0:0:
64,192,103442,1,0,0:0:0:70:LR4_SnareKKF.wav
448,192,103442,1,0,0:0:0:0:
320,192,103602,1,0,0:0:0:0:
192,192,103762,1,0,0:0:0:70:drum-hitnormal.wav
448,192,103762,1,0,0:0:0:0:
64,192,103923,1,0,0:0:0:0:
192,192,104083,128,0,104404:0:0:0:70:drum-hitnormal.wav
448,192,104083,128,0,104404:0:0:0:0:
64,192,104404,1,0,0:0:0:70:LR4_SnareKKF.wav
320,192,104404,1,0,0:0:0:0:
64,192,104565,128,0,104885:0:0:0:70:drum-hitnormal.wav
448,192,104565,128,0,104885:0:0:0:0:
192,192,104885,1,0,0:0:0:70:LR4_SnareKKF.wav
320,192,104885,1,0,0:0:0:0:
64,192,105046,128,0,105367:0:0:0:70:drum-hitnormal.wav
320,192,105046,128,0,105367:0:0:0:0:
192,192,105367,1,0,0:0:0:70:LR4_SnareKKF.wav
448,192,105367,1,0,0:0:0:0:
192,192,105527,128,0,105848:0:0:0:70:drum-hitnormal.wav
320,192,105527,128,0,105848:0:0:0:0:
64,192,105848,1,0,0:0:0:70:LR4_SnareKKF.wav
448,192,105848,1,0,0:0:0:0:
320,192,106008,128,0,106169:0:0:0:70:drum-hitnormal.wav
448,192,106008,128,0,106169:0:0:0:0:
64,192,106169,128,0,106329:0:0:0:70:LR4_SnareKKF.wav
192,192,106169,1,0,0:0:0:0:
192,192,106329,128,0,106490:0:0:0:70:drum-hitnormal.wav
448,192,106329,128,0,106490:0:0:0:0:
320,192,106490,128,0,106650:0:0:0:70:drum-hitnormal.wav
64,192,106490,1,0,0:0:0:0:
192,192,106650,1,0,0:0:0:70:drum-hitnormal.wav
448,192,106650,128,0,106811:0:0:0:0:
320,192,106811,128,0,107131:0:0:0:0:
64,192,106971,1,0,0:0:0:70:drum-hitnormal.wav
192,192,106971,1,0,0:0:0:0:
448,192,107131,128,0,107292:0:0:0:0:
192,192,107292,1,0,0:0:0:70:drum-hitnormal.wav
320,192,107292,1,0,0:0:0:0:
448,192,107372,1,0,0:0:0:0:
320,192,107452,1,0,0:0:0:0:
192,192,107532,1,0,0:0:0:0:
64,192,107613,1,0,0:0:0:70:drum-hitnormal.wav
448,192,107613,1,0,0:0:0:0:
320,192,107693,1,0,0:0:0:0:
192,192,107773,128,0,107934:0:0:0:0:
64,192,107934,128,0,108094:0:0:0:70:drum-hitnormal.wav
448,192,107934,1,0,0:0:0:0:
192,192,108094,128,0,108254:0:0:0:0:
320,192,108254,128,0,108736:0:0:0:70:drum-hitnormal.wav
448,192,108254,1,0,0:0:0:0:
192,192,108415,1,0,0:0:0:0:
64,192,108575,1,0,0:0:0:70:drum-hitnormal.wav
448,192,108575,1,0,0:0:0:0:
192,192,108736,128,0,108896:0:0:0:0:
64,192,108896,128,0,109057:0:0:0:70:drum-hitnormal.wav
448,192,108896,1,0,0:0:0:0:
192,192,109057,128,0,109217:0:0:0:0:
64,192,109217,1,0,0:0:0:70:drum-hitnormal.wav
320,192,109217,128,0,109377:0:0:0:0:
192,192,109377,128,0,109538:0:0:0:0:
64,192,109538,1,0,0:0:0:70:drum-hitnormal.wav
320,192,109538,128,0,109698:0:0:0:0:
448,192,109698,128,0,109859:0:0:0:0:
64,192,109859,128,0,110019:0:0:0:70:drum-hitnormal.wav
320,192,109859,1,0,0:0:0:0:
192,192,110019,128,0,110180:0:0:0:0:
320,192,110180,128,0,110340:0:0:0:70:drum-hitnormal.wav
448,192,110180,1,0,0:0:0:0:
192,192,110340,128,0,110661:0:0:0:0:
64,192,110500,1,0,0:0:0:70:drum-hitnormal.wav
448,192,110500,1,0,0:0:0:0:
320,192,110661,128,0,110821:0:0:0:0:
64,192,110821,1,0,0:0:0:70:drum-hitnormal.wav
448,192,110821,128,0,110982:0:0:0:0:
192,192,110982,128,0,111303:0:0:0:0:
64,192,111142,1,0,0:0:0:70:drum-hitnormal.wav
448,192,111142,1,0,0:0:0:0:
320,192,111303,1,0,0:0:0:0:
448,192,111383,1,0,0:0:0:0:
192,192,111463,128,0,111623:0:0:0:70:drum-hitnormal.wav
320,192,111463,1,0,0:0:0:0:
64,192,111623,128,0,111784:0:0:0:0:
320,192,111784,128,0,111944:0:0:0:70:drum-hitnormal.wav
448,192,111784,1,0,0:0:0:0:
64,192,111944,128,0,112105:0:0:0:0:
192,192,112105,128,0,112265:0:0:0:70:drum-hitnormal.wav
320,192,112105,1,0,0:0:0:0:
448,192,112265,128,0,112426:0:0:0:0:
64,192,112426,1,0,0:0:0:70:drum-hitnormal.wav
192,192,112426,128,0,112586:0:0:0:0:
320,192,112586,128,0,112746:0:0:0:0:
192,192,112746,1,0,0:0:0:70:drum-hitnormal.wav
448,192,112746,128,0,112907:0:0:0:0:
320,192,112907,128,0,113388:0:0:0:0:
64,192,113067,1,0,0:0:0:70:drum-hitnormal.wav
192,192,113067,1,0,0:0:0:0:
192,192,113228,1,0,0:0:0:0:
64,192,113388,1,0,0:0:0:70:drum-hitnormal.wav
448,192,113388,128,0,113549:0:0:0:0:
192,192,113549,128,0,113869:0:0:0:0:
320,192,113709,1,0,0:0:0:70:drum-hitnormal.wav
448,192,113709,1,0,0:0:0:0:
448,192,113869,1,0,0:0:0:0:
320,192,113950,1,0,0:0:0:0:
64,192,114030,1,0,0:0:0:70:drum-hitnormal.wav
192,192,114030,128,0,114190:0:0:0:0:
320,192,114190,128,0,114351:0:0:0:0:
64,192,114351,1,0,0:0:0:70:drum-hitnormal.wav
448,192,114351,128,0,114511:0:0:0:0:
192,192,114511,1,0,0:0:0:0:
320,192,114591,1,0,0:0:0:0:
64,192,114672,1,0,0:0:0:70:drum-hitnormal.wav
448,192,114672,1,0,0:0:0:0:
192,192,114752,1,0,0:0:0:0:
320,192,114832,1,0,0:0:0:0:
192,192,114912,1,0,0:0:0:0:
64,192,114992,1,0,0:0:0:70:drum-hitnormal.wav
448,192,114992,1,0,0:0:0:0:
320,192,115073,1,0,0:0:0:0:
192,192,115153,1,0,0:0:0:0:
320,192,115233,1,0,0:0:0:0:
64,192,115313,1,0,0:0:0:70:drum-hitnormal.wav
448,192,115313,1,0,0:0:0:0:
192,192,115393,1,0,0:0:0:0:
320,192,115474,1,0,0:0:0:0:
64,192,115554,1,0,0:0:0:0:
192,192,115634,1,0,0:0:0:70:drum-hitnormal.wav
448,192,115634,1,0,0:0:0:0:
320,192,115714,1,0,0:0:0:0:
192,192,115795,1,0,0:0:0:0:
320,192,115875,1,0,0:0:0:0:
64,192,115955,1,0,0:0:0:70:drum-hitnormal.wav
448,192,115955,1,0,0:0:0:0:
192,192,116035,1,0,0:0:0:0:
320,192,116115,1,0,0:0:0:0:
192,192,116196,1,0,0:0:0:0:
64,192,116276,1,0,0:0:0:70:drum-hitnormal.wav
448,192,116276,1,0,0:0:0:0:
320,192,116356,1,0,0:0:0:0:
192,192,116436,1,0,0:0:0:0:
320,192,116516,1,0,0:0:0:0:
64,192,116597,1,0,0:0:0:70:drum-hitnormal.wav
448,192,116597,128,0,116918:0:0:0:0:
192,192,116918,1,0,0:0:0:70:drum-hitnormal.wav
320,192,116918,1,0,0:0:0:70:normal-hitfinish.wav
320,192,117078,128,0,117238:0:0:0:0:
64,192,117238,1,0,0:0:0:70:drum-hitnormal.wav
192,192,117238,128,0,117399:0:0:0:0:
320,192,117399,128,0,117559:0:0:0:0:
64,192,117559,1,0,0:0:0:70:drum-hitnormal.wav
448,192,117559,1,0,0:0:0:0:
320,192,117639,1,0,0:0:0:0:
192,192,117720,1,0,0:0:0:0:
64,192,117800,1,0,0:0:0:0:
320,192,117880,1,0,0:0:0:70:drum-hitnormal.wav
448,192,117880,1,0,0:0:0:0:
192,192,118000,1,0,0:0:0:0:
320,192,118041,128,0,118201:0:0:0:0:
192,192,118201,128,0,118361:0:0:0:70:drum-hitnormal.wav
64,192,118201,1,0,0:0:0:0:
320,192,118361,128,0,118522:0:0:0:0:
64,192,118522,1,0,0:0:0:70:drum-hitnormal.wav
448,192,118522,128,0,119003:0:0:0:0:
320,192,118682,1,0,0:0:0:0:
64,192,118843,1,0,0:0:0:70:drum-hitnormal.wav
192,192,118843,1,0,0:0:0:0:
320,192,119003,128,0,119164:0:0:0:0:
64,192,119164,128,0,119324:0:0:0:70:drum-hitnormal.wav
448,192,119164,1,0,0:0:0:0:
192,192,119324,128,0,119484:0:0:0:0:
64,192,119484,1,0,0:0:0:70:drum-hitnormal.wav
320,192,119484,128,0,119645:0:0:0:0:
192,192,119645,128,0,119805:0:0:0:0:
64,192,119805,1,0,0:0:0:70:drum-hitnormal.wav
320,192,119805,128,0,119966:0:0:0:0:
448,192,119966,128,0,120126:0:0:0:0:
64,192,120126,128,0,120287:0:0:0:70:drum-hitnormal.wav
320,192,120126,1,0,0:0:0:0:
192,192,120287,128,0,120447:0:0:0:0:
64,192,120447,1,0,0:0:0:70:drum-hitnormal.wav
320,192,120447,128,0,120607:0:0:0:0:
448,192,120607,128,0,120928:0:0:0:0:
64,192,120768,1,0,0:0:0:70:drum-hitnormal.wav
320,192,120768,1,0,0:0:0:0:
192,192,120928,128,0,121089:0:0:0:0:
320,192,121089,128,0,121249:0:0:0:70:drum-hitnormal.wav
448,192,121089,1,0,0:0:0:0:
64,192,121249,128,0,121570:0:0:0:0:
192,192,121409,1,0,0:0:0:70:drum-hitnormal.wav
320,192,121409,1,0,0:0:0:0:
448,192,121570,128,0,121891:0:0:0:0:
192,192,121730,1,0,0:0:0:70:drum-hitnormal.wav
320,192,121730,1,0,0:0:0:0:
64,192,122051,1,0,0:0:0:70:drum-hitnormal.wav
448,192,122051,1,0,0:0:0:70:hihat.wav
192,192,122131,1,0,0:0:0:0:
320,192,122212,1,0,0:0:0:0:
192,192,122292,1,0,0:0:0:0:
64,192,122372,1,0,0:0:0:70:LR4_SnareKKF.wav
448,192,122372,1,0,0:0:0:0:
320,192,122452,1,0,0:0:0:0:
64,192,122532,1,0,0:0:0:70:drum-hitnormal.wav
192,192,122532,1,0,0:0:0:70:hihat.wav
320,192,122613,1,0,0:0:0:0:
192,192,122693,1,0,0:0:0:0:
448,192,122773,1,0,0:0:0:0:
64,192,122853,1,0,0:0:0:70:LR4_SnareKKF.wav
320,192,122853,1,0,0:0:0:0:
192,192,122934,1,0,0:0:0:0:
320,192,123014,1,0,0:0:0:70:drum-hitnormal.wav
448,192,123014,1,0,0:0:0:70:hihat.wav
64,192,123094,1,0,0:0:0:0:
192,192,123174,1,0,0:0:0:0:
320,192,123254,1,0,0:0:0:0:
64,192,123335,1,0,0:0:0:70:LR4_SnareKKF.wav
192,192,123335,1,0,0:0:0:0:
320,192,123415,1,0,0:0:0:0:
64,192,123495,1,0,0:0:0:70:drum-hitnormal.wav
448,192,123495,1,0,0:0:0:70:hihat.wav
192,192,123575,1,0,0:0:0:0:
320,192,123655,1,0,0:0:0:0:
448,192,123736,1,0,0:0:0:0:
64,192,123816,1,0,0:0:0:70:LR4_SnareKKF.wav
320,192,123816,1,0,0:0:0:0:
192,192,123896,1,0,0:0:0:0:
64,192,123976,1,0,0:0:0:70:drum-hitnormal.wav
448,192,123976,1,0,0:0:0:70:hihat.wav
320,192,124057,1,0,0:0:0:0:
192,192,124137,1,0,0:0:0:70:LR4_SnareKKF.wav
448,192,124137,1,0,0:0:0:0:
320,192,124217,1,0,0:0:0:0:
64,192,124297,1,0,0:0:0:70:drum-hitnormal.wav
192,192,124297,1,0,0:0:0:70:hihat.wav
448,192,124377,1,0,0:0:0:0:
64,192,124458,1,0,0:0:0:70:drum-hitnormal.wav
320,192,124458,1,0,0:0:0:0:
192,192,124538,1,0,0:0:0:0:
320,192,124618,1,0,0:0:0:70:drum-hitnormal.wav
448,192,124618,1,0,0:0:0:70:hihat.wav
192,192,124698,1,0,0:0:0:0:
64,192,124778,1,0,0:0:0:70:drum-hitnormal.wav
448,192,124778,1,0,0:0:0:0:
320,192,124859,1,0,0:0:0:0:
64,192,124939,1,0,0:0:0:70:drum-hitnormal.wav
192,192,124939,1,0,0:0:0:0:
320,192,125019,1,0,0:0:0:0:
64,192,125099,1,0,0:0:0:70:drum-hitnormal.wav
448,192,125099,1,0,0:0:0:0:
192,192,125180,1,0,0:0:0:0:
320,192,125260,1,0,0:0:0:70:drum-hitnormal.wav
448,192,125260,1,0,0:0:0:70:hihat.wav
192,192,125340,1,0,0:0:0:0:
64,192,125420,1,0,0:0:0:70:drum-hitnormal.wav
448,192,125420,1,0,0:0:0:0:
320,192,125500,1,0,0:0:0:0:
64,192,125581,1,0,0:0:0:70:drum-hitnormal.wav
192,192,125581,1,0,0:0:0:0:
320,192,125661,1,0,0:0:0:0:
64,192,125741,1,0,0:0:0:70:drum-hitnormal.wav
448,192,125741,1,0,0:0:0:0:
192,192,125821,1,0,0:0:0:0:
320,192,125901,1,0,0:0:0:70:drum-hitnormal.wav
448,192,125901,1,0,0:0:0:70:hihat.wav
64,192,125982,1,0,0:0:0:70:drum-hitnormal.wav
192,192,125982,1,0,0:0:0:0:
320,192,126062,1,0,0:0:0:70:drum-hitnormal.wav
448,192,126062,1,0,0:0:0:0:
64,192,126142,1,0,0:0:0:70:drum-hitnormal.wav
192,192,126142,1,0,0:0:0:0:
320,192,126222,1,0,0:0:0:70:drum-hitnormal.wav
448,192,126222,1,0,0:0:0:0:
64,192,126303,1,0,0:0:0:70:drum-hitnormal.wav
192,192,126303,1,0,0:0:0:0:
320,192,126383,1,0,0:0:0:70:drum-hitnormal.wav
448,192,126383,1,0,0:0:0:0:
64,192,126463,1,0,0:0:0:70:drum-hitnormal.wav
192,192,126463,1,0,0:0:0:0:
320,192,126543,1,0,0:0:0:70:drum-hitnormal.wav
448,192,126543,1,0,0:0:0:70:hihat.wav
192,192,126623,1,0,0:0:0:70:drum-hitnormal.wav
64,192,126704,128,0,127024:0:0:0:70:drum-hitnormal.wav
448,192,126704,1,0,0:0:0:0:
320,192,126784,1,0,0:0:0:70:drum-hitnormal.wav
192,192,126864,1,0,0:0:0:70:drum-hitnormal.wav
320,192,126944,1,0,0:0:0:70:drum-hitnormal.wav
192,192,127024,128,0,127185:0:0:0:70:drum-hitnormal.wav
448,192,127024,1,0,0:0:0:0:
320,192,127105,1,0,0:0:0:70:drum-hitnormal.wav
64,192,127185,1,0,0:0:0:70:drum-hitnormal.wav
448,192,127185,128,0,129752:0:0:0:70:normal-hitfinish.wav
320,192,127345,1,0,0:0:0:0:
192,192,127506,1,0,0:0:0:0:
64,192,127666,1,0,0:0:0:0:
320,192,127827,1,0,0:0:0:0:
64,192,127987,1,0,0:0:0:0:
192,192,128147,1,0,0:0:0:0:
320,192,128308,1,0,0:0:0:0:
64,192,128468,1,0,0:0:0:0:
320,192,128629,1,0,0:0:0:0:
192,192,128789,1,0,0:0:0:0:
64,192,128950,1,0,0:0:0:0:
320,192,129110,1,0,0:0:0:0:
64,192,129270,1,0,0:0:0:0:
192,192,129431,1,0,0:0:0:0:
64,192,129591,1,0,0:0:0:0:
192,192,129752,1,0,0:0:0:70:LR_RBell_F5.wav
320,192,129752,1,0,0:0:0:0:
448,192,129912,1,0,0:0:0:0:
64,192,130073,1,0,0:0:0:0:
192,192,130233,1,0,0:0:0:0:
448,192,130393,1,0,0:0:0:0:
64,192,130554,1,0,0:0:0:0:
448,192,130714,1,0,0:0:0:0:
192,192,130875,1,0,0:0:0:0:
320,192,131035,1,0,0:0:0:0:
64,192,131196,1,0,0:0:0:0:
320,192,131356,1,0,0:0:0:0:
448,192,131516,1,0,0:0:0:0:
320,192,131677,1,0,0:0:0:0:
64,192,131837,1,0,0:0:0:0:
448,192,131998,1,0,0:0:0:0:
192,192,132158,1,0,0:0:0:0:
320,192,132319,1,0,0:0:0:70:LR_RBell_F5.wav
448,192,132319,1,0,0:0:0:0:
64,192,132479,1,0,0:0:0:0:
320,192,132639,1,0,0:0:0:0:
192,192,132800,1,0,0:0:0:0:
448,192,132960,1,0,0:0:0:0:
64,192,133121,1,0,0:0:0:0:
320,192,133281,1,0,0:0:0:0:
192,192,133442,1,0,0:0:0:0:
448,192,133602,1,0,0:0:0:0:
64,192,133762,1,0,0:0:0:0:
320,192,133923,1,0,0:0:0:0:
448,192,134083,1,0,0:0:0:0:
192,192,134244,1,0,0:0:0:0:
64,192,134404,1,0,0:0:0:0:
448,192,134565,1,0,0:0:0:0:
320,192,134725,1,0,0:0:0:0:
64,192,134885,1,0,0:0:0:70:LR_RBell_F5.wav
448,192,134885,1,0,0:0:0:0:
192,192,135046,1,0,0:0:0:0:
448,192,135206,1,0,0:0:0:0:
64,192,135367,1,0,0:0:0:0:
192,192,135527,1,0,0:0:0:0:
320,192,135688,1,0,0:0:0:0:
64,192,135848,1,0,0:0:0:0:
320,192,136008,1,0,0:0:0:0:
448,192,136169,1,0,0:0:0:0:
192,192,136329,1,0,0:0:0:0:
64,192,136490,1,0,0:0:0:0:
320,192,136650,1,0,0:0:0:0:
192,192,136811,1,0,0:0:0:0:
448,192,136971,1,0,0:0:0:0:
64,192,137131,1,0,0:0:0:0:
320,192,137292,128,0,137452:0:0:0:0:
64,192,137452,1,0,0:0:0:70:normal-hitfinish.wav
448,192,137452,1,0,0:0:0:70:LR_RBell_F5.wav
192,192,137613,1,0,0:0:0:0:
448,192,137773,1,0,0:0:0:0:
192,192,137934,1,0,0:0:0:0:
320,192,138094,1,0,0:0:0:0:
64,192,138254,1,0,0:0:0:0:
192,192,138415,1,0,0:0:0:0:
448,192,138575,1,0,0:0:0:0:
320,192,138736,1,0,0:0:0:0:
64,192,138896,1,0,0:0:0:0:
320,192,139057,1,0,0:0:0:0:
192,192,139217,1,0,0:0:0:0:
448,192,139377,1,0,0:0:0:0:
64,192,139538,1,0,0:0:0:0:
192,192,139698,1,0,0:0:0:0:
448,192,139859,1,0,0:0:0:0:
192,192,140019,1,0,0:0:0:70:LR_RBell_F5.wav
320,192,140019,1,0,0:0:0:0:
64,192,140180,1,0,0:0:0:0:
320,192,140340,1,0,0:0:0:0:
192,192,140500,1,0,0:0:0:0:
64,192,140661,1,0,0:0:0:0:
192,192,140821,1,0,0:0:0:0:
320,192,140982,1,0,0:0:0:0:
448,192,141142,1,0,0:0:0:0:
448,192,141303,1,0,0:0:0:0:
192,192,141463,1,0,0:0:0:0:
320,192,141623,1,0,0:0:0:0:
64,192,141784,1,0,0:0:0:0:
320,192,141944,128,0,142105:0:0:0:0:
448,192,142105,1,0,0:0:0:0:
320,192,142185,1,0,0:0:0:0:
192,192,142265,1,0,0:0:0:0:
64,192,142426,1,0,0:0:0:0:
320,192,142586,1,0,0:0:0:70:LR_RBell_F5.wav
448,192,142586,1,0,0:0:0:0:
192,192,142746,1,0,0:0:0:0:
448,192,142907,1,0,0:0:0:0:
64,192,143067,1,0,0:0:0:0:
320,192,143228,1,0,0:0:0:0:
192,192,143388,1,0,0:0:0:0:
320,192,143549,1,0,0:0:0:0:
448,192,143709,1,0,0:0:0:0:
320,192,143869,1,0,0:0:0:0:
448,192,143950,1,0,0:0:0:0:
192,192,144030,1,0,0:0:0:0:
64,192,144110,1,0,0:0:0:0:
320,192,144190,1,0,0:0:0:0:
448,192,144270,1,0,0:0:0:0:
64,192,144351,1,0,0:0:0:0:
192,192,144431,1,0,0:0:0:0:
448,192,144511,1,0,0:0:0:0:
320,192,144591,1,0,0:0:0:0:
192,192,144672,1,0,0:0:0:0:
64,192,144752,1,0,0:0:0:0:
320,192,144832,1,0,0:0:0:0:
448,192,144912,1,0,0:0:0:0:
64,192,144992,1,0,0:0:0:0:
192,192,145073,1,0,0:0:0:0:
320,192,145153,1,0,0:0:0:70:LR_RBell_F5.wav
448,192,145153,1,0,0:0:0:0:
64,192,145233,1,0,0:0:0:0:
192,192,145313,1,0,0:0:0:0:
320,192,145393,1,0,0:0:0:0:
64,192,145474,1,0,0:0:0:0:
192,192,145474,1,0,0:0:0:0:
320,192,145554,1,0,0:0:0:0:
64,192,145634,1,0,0:0:0:0:
448,192,145634,1,0,0:0:0:0:
192,192,145714,1,0,0:0:0:0:
320,192,145795,1,0,0:0:0:0:
448,192,145795,1,0,0:0:0:0:
192,192,145875,1,0,0:0:0:0:
64,192,145955,1,0,0:0:0:0:
320,192,145955,1,0,0:0:0:0:
448,192,146035,1,0,0:0:0:0:
64,192,146115,1,0,0:0:0:0:
192,192,146115,1,0,0:0:0:0:
320,192,146196,1,0,0:0:0:0:
64,192,146276,1,0,0:0:0:0:
448,192,146276,1,0,0:0:0:0:
192,192,146356,1,0,0:0:0:0:
320,192,146436,1,0,0:0:0:0:
448,192,146436,1,0,0:0:0:0:
192,192,146516,1,0,0:0:0:0:
64,192,146597,1,0,0:0:0:0:
448,192,146597,1,0,0:0:0:0:
320,192,146677,1,0,0:0:0:0:
64,192,146757,1,0,0:0:0:0:
192,192,146757,1,0,0:0:0:0:
448,192,146837,1,0,0:0:0:0:
192,192,146918,1,0,0:0:0:0:
320,192,146918,1,0,0:0:0:0:
64,192,146998,1,0,0:0:0:0:
320,192,147078,1,0,0:0:0:0:
448,192,147078,1,0,0:0:0:0:
192,192,147158,1,0,0:0:0:0:
64,192,147238,1,0,0:0:0:0:
448,192,147238,1,0,0:0:0:0:
192,192,147319,1,0,0:0:0:0:
320,192,147319,1,0,0:0:0:0:
64,192,147399,1,0,0:0:0:0:
448,192,147399,1,0,0:0:0:0:
320,192,147479,1,0,0:0:0:0:
64,192,147559,1,0,0:0:0:0:
192,192,147559,1,0,0:0:0:0:
320,192,147639,1,0,0:0:0:0:
64,192,147720,128,0,148843:0:0:0:70:kick.wav
192,192,147720,128,0,148522:0:0:0:0:
448,192,148522,1,0,0:0:0:0:
192,192,148682,1,0,0:0:0:0:
320,192,148843,1,0,0:0:0:0:
64,192,149003,1,0,0:0:0:70:drum-hitnormal.wav
192,192,149003,128,0,149324:0:0:0:70:normal-hitfinish.wav
448,192,149003,1,0,0:0:0:0:
320,192,149164,1,0,0:0:0:0:
64,192,149324,1,0,0:0:0:70:drum-hitnormal.wav
448,192,149324,1,0,0:0:0:0:
320,192,149484,1,0,0:0:0:0:
64,192,149645,1,0,0:0:0:70:drum-hitnormal.wav
320,192,149645,128,0,149966:0:0:0:0:
192,192,149805,1,0,0:0:0:0:
64,192,149966,1,0,0:0:0:70:drum-hitnormal.wav
448,192,149966,1,0,0:0:0:0:
192,192,150126,128,0,150287:0:0:0:0:
320,192,150287,1,0,0:0:0:70:drum-hitnormal.wav
448,192,150287,1,0,0:0:0:0:
192,192,150447,1,0,0:0:0:0:
64,192,150607,1,0,0:0:0:70:drum-hitnormal.wav
448,192,150607,1,0,0:0:0:0:
320,192,150768,1,0,0:0:0:0:
192,192,150928,128,0,151089:0:0:0:70:drum-hitnormal.wav
448,192,150928,1,0,0:0:0:0:
320,192,151089,1,0,0:0:0:0:
192,192,151169,1,0,0:0:0:0:
64,192,151249,1,0,0:0:0:70:drum-hitnormal.wav
448,192,151249,1,0,0:0:0:0:
192,192,151409,1,0,0:0:0:0:
64,192,151570,1,0,0:0:0:70:drum-hitnormal.wav
320,192,151570,128,0,151730:0:0:0:0:
192,192,151730,1,0,0:0:0:0:
192,192,151891,128,0,152051:0:0:0:70:drum-hitnormal.wav
448,192,151891,1,0,0:0:0:0:
320,192,152051,1,0,0:0:0:0:
64,192,152212,1,0,0:0:0:70:drum-hitnormal.wav
448,192,152212,1,0,0:0:0:0:
192,192,152372,1,0,0:0:0:0:
64,192,152532,1,0,0:0:0:70:drum-hitnormal.wav
448,192,152532,1,0,0:0:0:0:
320,192,152693,1,0,0:0:0:0:
64,192,152853,1,0,0:0:0:70:drum-hitnormal.wav
192,192,152853,1,0,0:0:0:0:
448,192,153014,128,0,153335:0:0:0:0:
192,192,153174,1,0,0:0:0:70:drum-hitnormal.wav
320,192,153174,1,0,0:0:0:0:
320,192,153335,128,0,153495:0:0:0:0:
192,192,153495,128,0,153655:0:0:0:70:drum-hitnormal.wav
448,192,153495,1,0,0:0:0:0:
64,192,153655,128,0,153816:0:0:0:0:
192,192,153816,128,0,153976:0:0:0:70:drum-hitnormal.wav
448,192,153816,1,0,0:0:0:0:
320,192,153976,128,0,154137:0:0:0:0:
192,192,154137,1,0,0:0:0:70:drum-hitnormal.wav
448,192,154137,128,0,154458:0:0:0:0:
320,192,154297,1,0,0:0:0:0:
64,192,154458,1,0,0:0:0:70:drum-hitnormal.wav
192,192,154458,1,0,0:0:0:0:
320,192,154618,1,0,0:0:0:0:
192,192,154778,1,0,0:0:0:70:drum-hitnormal.wav
320,192,154778,128,0,155099:0:0:0:0:
448,192,154939,1,0,0:0:0:0:
64,192,155099,1,0,0:0:0:70:drum-hitnormal.wav
192,192,155099,1,0,0:0:0:0:
192,192,155260,128,0,155420:0:0:0:0:
320,192,155420,1,0,0:0:0:70:drum-hitnormal.wav
448,192,155420,1,0,0:0:0:0:
192,192,155581,1,0,0:0:0:0:
64,192,155741,1,0,0:0:0:70:drum-hitnormal.wav
448,192,155741,1,0,0:0:0:0:
320,192,155901,1,0,0:0:0:0:
192,192,156062,128,0,156222:0:0:0:70:drum-hitnormal.wav
448,192,156062,1,0,0:0:0:0:
320,192,156222,1,0,0:0:0:0:
192,192,156303,1,0,0:0:0:0:
64,192,156383,1,0,0:0:0:70:drum-hitnormal.wav
448,192,156383,1,0,0:0:0:0:
192,192,156543,1,0,0:0:0:0:
64,192,156704,1,0,0:0:0:70:drum-hitnormal.wav
320,192,156704,128,0,156864:0:0:0:0:
192,192,156864,1,0,0:0:0:0:
192,192,157024,128,0,157345:0:0:0:70:drum-hitnormal.wav
448,192,157024,1,0,0:0:0:0:
320,192,157185,1,0,0:0:0:0:
64,192,157345,1,0,0:0:0:70:drum-hitnormal.wav
448,192,157345,128,0,157506:0:0:0:0:
320,192,157506,128,0,157666:0:0:0:0:
64,192,157666,1,0,0:0:0:70:drum-hitnormal.wav
192,192,157666,1,0,0:0:0:0:
320,192,157827,128,0,157987:0:0:0:0:
192,192,157987,1,0,0:0:0:70:drum-hitnormal.wav
448,192,157987,1,0,0:0:0:0:
64,192,158147,128,0,158468:0:0:0:0:
320,192,158308,1,0,0:0:0:70:drum-hitnormal.wav
448,192,158308,1,0,0:0:0:0:
192,192,158468,128,0,158629:0:0:0:0:
320,192,158629,128,0,159110:0:0:0:70:drum-hitnormal.wav
448,192,158629,1,0,0:0:0:0:
64,192,158789,1,0,0:0:0:0:
192,192,158950,1,0,0:0:0:70:drum-hitnormal.wav
448,192,158950,1,0,0:0:0:0:
64,192,159110,1,0,0:0:0:0:
192,192,159270,1,0,0:0:0:70:drum-hitnormal.wav
320,192,159270,1,0,0:0:0:70:normal-hitfinish.wav
448,192,159270,1,0,0:0:0:0:
64,192,159431,1,0,0:0:0:0:
320,192,159591,1,0,0:0:0:70:drum-hitnormal.wav
448,192,159591,1,0,0:0:0:0:
192,192,159752,1,0,0:0:0:0:
192,192,159912,128,0,160233:0:0:0:70:drum-hitnormal.wav
448,192,159912,1,0,0:0:0:0:
320,192,160073,1,0,0:0:0:0:
64,192,160233,1,0,0:0:0:70:drum-hitnormal.wav
448,192,160233,1,0,0:0:0:0:
320,192,160393,128,0,160554:0:0:0:0:
192,192,160554,1,0,0:0:0:70:drum-hitnormal.wav
448,192,160554,1,0,0:0:0:0:
320,192,160714,1,0,0:0:0:0:
64,192,160875,1,0,0:0:0:70:drum-hitnormal.wav
192,192,160875,1,0,0:0:0:0:
448,192,161035,1,0,0:0:0:0:
64,192,161196,1,0,0:0:0:70:drum-hitnormal.wav
320,192,161196,128,0,161356:0:0:0:0:
448,192,161356,1,0,0:0:0:0:
320,192,161436,1,0,0:0:0:0:
192,192,161516,1,0,0:0:0:70:drum-hitnormal.wav
448,192,161516,1,0,0:0:0:0:
320,192,161677,1,0,0:0:0:0:
64,192,161837,1,0,0:0:0:70:drum-hitnormal.wav
448,192,161837,128,0,161998:0:0:0:0:
320,192,161998,1,0,0:0:0:0:
64,192,162158,128,0,162319:0:0:0:70:drum-hitnormal.wav
448,192,162158,1,0,0:0:0:0:
192,192,162319,1,0,0:0:0:0:
64,192,162479,1,0,0:0:0:70:drum-hitnormal.wav
320,192,162479,1,0,0:0:0:0:
448,192,162639,1,0,0:0:0:0:
64,192,162800,1,0,0:0:0:70:drum-hitnormal.wav
320,192,162800,1,0,0:0:0:0:
192,192,162960,1,0,0:0:0:0:
320,192,163121,1,0,0:0:0:70:drum-hitnormal.wav
448,192,163121,1,0,0:0:0:0:
448,192,163281,128,0,163602:0:0:0:0:
64,192,163442,1,0,0:0:0:70:drum-hitnormal.wav
192,192,163442,1,0,0:0:0:0:
320,192,163602,128,0,163762:0:0:0:0:
64,192,163762,1,0,0:0:0:70:drum-hitnormal.wav
192,192,163762,128,0,163923:0:0:0:0:
64,192,163923,128,0,164083:0:0:0:0:
192,192,164083,128,0,164244:0:0:0:70:drum-hitnormal.wav
448,192,164083,1,0,0:0:0:0:
320,192,164244,128,0,164404:0:0:0:0:
64,192,164404,1,0,0:0:0:70:drum-hitnormal.wav
448,192,164404,1,0,0:0:0:70:hihat.wav
192,192,164484,1,0,0:0:0:0:
320,192,164565,1,0,0:0:0:0:
192,192,164645,1,0,0:0:0:0:
64,192,164725,1,0,0:0:0:70:drum-hitnormal.wav
448,192,164725,1,0,0:0:0:0:
320,192,164805,1,0,0:0:0:0:
192,192,164885,1,0,0:0:0:0:
448,192,164885,1,0,0:0:0:0:
64,192,164966,1,0,0:0:0:0:
192,192,165046,1,0,0:0:0:70:drum-hitnormal.wav
320,192,165046,1,0,0:0:0:0:
448,192,165126,1,0,0:0:0:0:
64,192,165206,1,0,0:0:0:0:
192,192,165287,1,0,0:0:0:0:
320,192,165367,1,0,0:0:0:70:drum-hitnormal.wav
448,192,165367,1,0,0:0:0:0:
64,192,165447,1,0,0:0:0:0:
192,192,165527,1,0,0:0:0:0:
448,192,165527,1,0,0:0:0:0:
320,192,165607,1,0,0:0:0:0:
64,192,165688,1,0,0:0:0:70:drum-hitnormal.wav
192,192,165688,1,0,0:0:0:70:hihat.wav
448,192,165768,1,0,0:0:0:0:
64,192,165848,1,0,0:0:0:0:
320,192,165848,1,0,0:0:0:0:
192,192,165928,1,0,0:0:0:0:
320,192,166008,1,0,0:0:0:70:drum-hitnormal.wav
448,192,166008,1,0,0:0:0:0:
64,192,166089,1,0,0:0:0:0:
192,192,166169,1,0,0:0:0:0:
320,192,166169,1,0,0:0:0:0:
448,192,166249,1,0,0:0:0:0:
64,192,166329,1,0,0:0:0:70:drum-hitnormal.wav
192,192,166329,1,0,0:0:0:0:
320,192,166409,1,0,0:0:0:0:
64,192,166490,1,0,0:0:0:0:
448,192,166490,1,0,0:0:0:0:
192,192,166570,1,0,0:0:0:0:
320,192,166570,1,0,0:0:0:0:
64,192,166650,1,0,0:0:0:70:drum-hitnormal.wav
448,192,166650,1,0,0:0:0:0:
192,192,166730,1,0,0:0:0:0:
320,192,166811,1,0,0:0:0:0:
448,192,166811,1,0,0:0:0:0:
64,192,166891,1,0,0:0:0:0:
192,192,166971,1,0,0:0:0:70:drum-hitnormal.wav
320,192,166971,1,0,0:0:0:70:hihat.wav
448,192,167051,1,0,0:0:0:0:
64,192,167131,1,0,0:0:0:0:
192,192,167212,1,0,0:0:0:0:
320,192,167292,1,0,0:0:0:70:drum-hitnormal.wav
448,192,167292,1,0,0:0:0:0:
64,192,167372,1,0,0:0:0:0:
192,192,167452,1,0,0:0:0:0:
448,192,167532,1,0,0:0:0:0:
64,192,167613,1,0,0:0:0:70:drum-hitnormal.wav
320,192,167613,1,0,0:0:0:70:hihat.wav
192,192,167693,1,0,0:0:0:0:
320,192,167773,1,0,0:0:0:0:
448,192,167773,1,0,0:0:0:0:
192,192,167853,1,0,0:0:0:0:
64,192,167934,1,0,0:0:0:70:drum-hitnormal.wav
448,192,167934,1,0,0:0:0:0:
320,192,168014,1,0,0:0:0:0:
64,192,168094,1,0,0:0:0:0:
192,192,168094,1,0,0:0:0:0:
320,192,168174,1,0,0:0:0:0:
64,192,168415,1,0,0:0:0:70:drum-hitnormal.wav
320,192,168415,1,0,0:0:0:0:
192,192,168736,1,0,0:0:0:70:drum-hitnormal.wav
320,192,168736,1,0,0:0:0:0:
64,192,168896,128,0,169217:0:0:0:70:drum-hitnormal.wav
448,192,168896,128,0,169217:0:0:0:0:
64,192,169538,1,0,0:0:0:70:LR_RBell_F5.wav
320,192,169538,1,0,0:0:0:70:normal-hitfinish.wav
448,192,169538,1,0,0:0:0:0:
192,192,169698,1,0,0:0:0:0:
448,192,169859,1,0,0:0:0:0:
64,192,170019,1,0,0:0:0:0:
192,192,170180,1,0,0:0:0:0:
320,192,170340,1,0,0:0:0:0:
64,192,170500,1,0,0:0:0:0:
192,192,170661,1,0,0:0:0:0:
448,192,170821,1,0,0:0:0:0:
64,192,170982,1,0,0:0:0:0:
192,192,171142,1,0,0:0:0:0:
320,192,171303,1,0,0:0:0:0:
64,192,171463,1,0,0:0:0:0:
192,192,171623,1,0,0:0:0:0:
448,192,171784,1,0,0:0:0:0:
64,192,171944,1,0,0:0:0:0:
192,192,172105,1,0,0:0:0:70:LR_RBell_F5.wav
448,192,172105,1,0,0:0:0:0:
320,192,172265,1,0,0:0:0:0:
448,192,172426,1,0,0:0:0:0:
64,192,172586,1,0,0:0:0:0:
192,192,172746,1,0,0:0:0:0:
320,192,172907,1,0,0:0:0:0:
64,192,173067,1,0,0:0:0:0:
192,192,173228,1,0,0:0:0:0:
448,192,173388,1,0,0:0:0:0:
64,192,173549,1,0,0:0:0:0:
192,192,173709,1,0,0:0:0:0:
320,192,173869,1,0,0:0:0:0:
64,192,174030,1,0,0:0:0:0:
192,192,174190,1,0,0:0:0:0:
448,192,174351,1,0,0:0:0:0:
64,192,174511,1,0,0:0:0:0:
192,192,174672,1,0,0:0:0:70:LR_RBell_F5.wav
320,192,174672,1,0,0:0:0:0:
448,192,174832,1,0,0:0:0:0:
64,192,174992,1,0,0:0:0:0:
320,192,175313,1,0,0:0:0:0:
192,192,175474,1,0,0:0:0:0:
448,192,175634,1,0,0:0:0:0:
64,192,175795,1,0,0:0:0:0:
192,192,175955,1,0,0:0:0:0:
320,192,176276,1,0,0:0:0:0:
192,192,176436,1,0,0:0:0:0:
448,192,176757,1,0,0:0:0:0:
64,192,176918,1,0,0:0:0:0:
320,192,177078,1,0,0:0:0:0:
64,192,177238,1,0,0:0:0:70:LR_RBell_F5.wav
448,192,177238,1,0,0:0:0:0:
320,192,177399,1,0,0:0:0:0:
192,192,177559,1,0,0:0:0:0:
448,192,177720,1,0,0:0:0:0:
320,192,177800,1,0,0:0:0:0:
64,192,177880,1,0,0:0:0:0:
192,192,177960,1,0,0:0:0:0:
320,192,178041,1,0,0:0:0:0:
448,192,178121,1,0,0:0:0:0:
64,192,178201,1,0,0:0:0:0:
192,192,178281,1,0,0:0:0:0:
320,192,178361,1,0,0:0:0:0:
448,192,178442,1,0,0:0:0:0:
64,192,178522,1,0,0:0:0:0:
192,192,178602,1,0,0:0:0:0:
320,192,178682,1,0,0:0:0:0:
192,192,178762,1,0,0:0:0:0:
64,192,178843,1,0,0:0:0:0:
320,192,178923,1,0,0:0:0:0:
192,192,179003,1,0,0:0:0:0:
320,192,179083,1,0,0:0:0:0:
448,192,179164,1,0,0:0:0:0:
64,192,179244,1,0,0:0:0:0:
192,192,179324,1,0,0:0:0:0:
320,192,179404,1,0,0:0:0:0:
64,192,179484,1,0,0:0:0:0:
192,192,179484,1,0,0:0:0:0:
320,192,179565,1,0,0:0:0:0:
448,192,179565,1,0,0:0:0:0:
64,192,179645,1,0,0:0:0:0:
192,192,179645,1,0,0:0:0:0:
320,192,179725,1,0,0:0:0:0:
448,192,179725,1,0,0:0:0:0:
