osu file format v14

[General]
AudioFilename: audio.mp3
AudioLeadIn: 0
PreviewTime: 40436
Countdown: 0
SampleSet: Soft
StackLeniency: 0.7
Mode: 3
LetterboxInBreaks: 0
SpecialStyle: 1
WidescreenStoryboard: 1

[Editor]
Bookmarks: 28048,40436,46629,48177,49726,51274,65210,77597,86887,88242,96177
DistanceSpacing: 2
BeatDivisor: 4
GridSize: 16
TimelineZoom: 3.999998

[Metadata]
Title:Laplace
TitleUnicode:Laplace
Artist:sakuzyo
ArtistUnicode:削除
Creator:pocket-Gao
Version:8K Another
Source:BMS
Tags:
BeatmapID:1658190
BeatmapSetID:790198

[Difficulty]
HPDrainRate:8.5
CircleSize:8
OverallDifficulty:8.5
ApproachRate:5
SliderMultiplier:1.4
SliderTickRate:1

[Events]
//Background and Video events
0,0,"1.jpg",0,0
//Break Periods
//Storyboard Layer 0 (Background)
//Storyboard Layer 1 (Fail)
//Storyboard Layer 2 (Pass)
//Storyboard Layer 3 (Foreground)
//Storyboard Layer 4 (Overlay)
//Storyboard Sound Samples

[TimingPoints]
178,387.096774193548,4,2,0,1,1,0
89984,-100,4,2,0,1,0,1
100629,-100,4,2,0,1,0,0

[HitObjects]
416,192,952,128,0,3274:0:0:0:0:
32,192,3274,5,0,0:0:0:0:
96,192,3274,1,0,0:0:0:0:
224,192,3274,1,0,0:0:0:0:
224,192,3855,1,0,0:0:0:0:
288,192,3952,1,0,0:0:0:0:
96,192,4048,1,0,0:0:0:0:
352,192,4629,1,0,0:0:0:0:
96,192,4823,1,0,0:0:0:0:
416,192,5403,1,0,0:0:0:0:
480,192,5500,1,0,0:0:0:0:
96,192,5597,1,0,0:0:0:0:
416,192,5597,1,0,0:0:0:0:
352,192,5790,1,0,0:0:0:0:
288,192,6177,1,0,0:0:0:0:
96,192,6371,1,0,0:0:0:0:
224,192,6371,1,0,0:0:0:0:
224,192,6952,1,0,0:0:0:0:
288,192,7048,1,0,0:0:0:0:
96,192,7145,1,0,0:0:0:0:
160,192,7726,1,0,0:0:0:0:
96,192,7919,1,0,0:0:0:0:
416,192,8500,1,0,0:0:0:0:
96,192,8694,5,0,0:0:0:0:
352,192,8694,1,0,0:0:0:0:
224,192,8887,1,0,0:0:0:0:
288,192,8984,1,0,0:0:0:0:
160,192,9274,1,0,0:0:0:0:
32,192,9468,5,0,0:0:0:0:
96,192,9468,1,0,0:0:0:0:
480,192,9468,1,0,0:0:0:0:
352,192,9468,1,0,0:0:0:0:
288,192,9661,1,0,0:0:0:0:
352,192,10048,1,0,0:0:0:0:
416,192,10145,1,0,0:0:0:0:
96,192,10242,1,0,0:0:0:0:
416,192,10823,1,0,0:0:0:0:
96,192,11016,1,0,0:0:0:0:
288,192,11597,1,0,0:0:0:0:
224,192,11694,1,0,0:0:0:0:
160,192,11790,1,0,0:0:0:0:
352,192,11790,1,0,0:0:0:0:
416,192,11984,1,0,0:0:0:0:
352,192,12371,1,0,0:0:0:0:
416,192,12565,1,0,0:0:0:0:
160,192,12565,1,0,0:0:0:0:
352,192,13145,1,0,0:0:0:0:
96,192,13339,1,0,0:0:0:0:
32,192,13919,1,0,0:0:0:0:
480,192,13919,1,0,0:0:0:0:
288,192,13919,1,0,0:0:0:0:
160,192,13919,1,0,0:0:0:0:
224,192,14113,1,0,0:0:0:0:
160,192,14307,1,0,0:0:0:0:
352,192,14500,1,0,0:0:0:0:
416,192,14694,1,0,0:0:0:0:
288,192,14887,1,0,0:0:0:0:
160,192,14887,1,0,0:0:0:0:
352,192,15081,1,0,0:0:0:0:
224,192,15081,1,0,0:0:0:0:
416,192,15177,1,0,0:0:0:0:
288,192,15274,1,0,0:0:0:0:
480,192,15468,1,0,0:0:0:0:
416,192,15661,1,0,0:0:0:0:
288,192,15661,1,0,0:0:0:0:
96,192,15661,1,0,0:0:0:0:
32,192,15661,1,0,0:0:0:0:
480,192,15855,1,0,0:0:0:0:
352,192,16048,1,0,0:0:0:0:
416,192,16242,1,0,0:0:0:0:
160,192,16242,1,0,0:0:0:0:
224,192,16339,1,0,0:0:0:0:
352,192,16436,1,0,0:0:0:0:
160,192,16436,1,0,0:0:0:0:
416,192,16532,1,0,0:0:0:0:
224,192,16629,1,0,0:0:0:0:
288,192,16726,1,0,0:0:0:0:
160,192,16823,1,0,0:0:0:0:
224,192,16823,1,0,0:0:0:0:
352,192,16919,1,0,0:0:0:0:
96,192,17016,1,0,0:0:0:0:
288,192,17016,1,0,0:0:0:0:
352,192,17113,1,0,0:0:0:0:
288,192,17210,1,0,0:0:0:0:
160,192,17210,1,0,0:0:0:0:
96,192,17307,1,0,0:0:0:0:
416,192,17403,1,0,0:0:0:0:
352,192,17597,1,0,0:0:0:0:
224,192,17597,1,0,0:0:0:0:
480,192,17790,1,0,0:0:0:0:
352,192,17790,1,0,0:0:0:0:
416,192,17887,1,0,0:0:0:0:
288,192,17887,1,0,0:0:0:0:
352,192,17984,1,0,0:0:0:0:
224,192,17984,1,0,0:0:0:0:
96,192,17984,1,0,0:0:0:0:
160,192,18081,1,0,0:0:0:0:
416,192,18177,1,0,0:0:0:0:
480,192,18274,1,0,0:0:0:0:
96,192,18371,1,0,0:0:0:0:
352,192,18371,1,0,0:0:0:0:
288,192,18468,1,0,0:0:0:0:
352,192,18565,1,0,0:0:0:0:
288,192,18661,1,0,0:0:0:0:
224,192,18758,1,0,0:0:0:0:
416,192,18758,1,0,0:0:0:0:
160,192,18758,1,0,0:0:0:0:
352,192,18952,1,0,0:0:0:0:
416,192,19145,1,0,0:0:0:0:
288,192,19145,1,0,0:0:0:0:
224,192,19339,1,0,0:0:0:0:
96,192,19339,1,0,0:0:0:0:
160,192,19436,1,0,0:0:0:0:
416,192,19436,1,0,0:0:0:0:
352,192,19532,1,0,0:0:0:0:
480,192,19532,1,0,0:0:0:0:
288,192,19726,1,0,0:0:0:0:
160,192,19726,1,0,0:0:0:0:
352,192,19823,1,0,0:0:0:0:
224,192,19823,1,0,0:0:0:0:
96,192,19919,1,0,0:0:0:0:
288,192,20016,1,0,0:0:0:0:
160,192,20113,1,0,0:0:0:0:
352,192,20113,1,0,0:0:0:0:
224,192,20210,1,0,0:0:0:0:
288,192,20307,1,0,0:0:0:0:
96,192,20307,1,0,0:0:0:0:
96,192,20500,1,0,0:0:0:0:
160,192,20694,1,0,0:0:0:0:
288,192,20694,1,0,0:0:0:0:
416,192,20887,1,0,0:0:0:0:
288,192,20887,1,0,0:0:0:0:
480,192,20984,1,0,0:0:0:0:
224,192,20984,1,0,0:0:0:0:
352,192,21081,1,0,0:0:0:0:
160,192,21081,1,0,0:0:0:0:
416,192,21177,1,0,0:0:0:0:
224,192,21274,1,0,0:0:0:0:
352,192,21274,1,0,0:0:0:0:
160,192,21371,1,0,0:0:0:0:
288,192,21371,1,0,0:0:0:0:
480,192,21468,1,0,0:0:0:0:
352,192,21468,1,0,0:0:0:0:
224,192,21565,1,0,0:0:0:0:
288,192,21661,1,0,0:0:0:0:
416,192,21661,1,0,0:0:0:0:
224,192,21758,1,0,0:0:0:0:
416,192,21855,1,0,0:0:0:0:
288,192,21855,1,0,0:0:0:0:
96,192,21855,1,0,0:0:0:0:
160,192,21952,1,0,0:0:0:0:
96,192,22048,1,0,0:0:0:0:
352,192,22048,1,0,0:0:0:0:
480,192,22242,1,0,0:0:0:0:
352,192,22242,1,0,0:0:0:0:
224,192,22436,1,0,0:0:0:0:
96,192,22436,1,0,0:0:0:0:
288,192,22532,1,0,0:0:0:0:
224,192,22629,1,0,0:0:0:0:
352,192,22629,1,0,0:0:0:0:
160,192,22726,1,0,0:0:0:0:
416,192,22823,1,0,0:0:0:0:
288,192,22823,1,0,0:0:0:0:
352,192,22919,1,0,0:0:0:0:
416,192,23016,1,0,0:0:0:0:
288,192,23016,1,0,0:0:0:0:
352,192,23113,1,0,0:0:0:0:
224,192,23210,1,0,0:0:0:0:
96,192,23210,1,0,0:0:0:0:
160,192,23307,1,0,0:0:0:0:
416,192,23403,1,0,0:0:0:0:
288,192,23403,1,0,0:0:0:0:
480,192,23403,1,0,0:0:0:0:
160,192,23500,1,0,0:0:0:0:
352,192,23597,1,0,0:0:0:0:
224,192,23790,1,0,0:0:0:0:
96,192,23790,1,0,0:0:0:0:
288,192,23790,1,0,0:0:0:0:
480,192,23984,1,0,0:0:0:0:
352,192,23984,1,0,0:0:0:0:
416,192,24081,1,0,0:0:0:0:
288,192,24081,1,0,0:0:0:0:
352,192,24177,1,0,0:0:0:0:
224,192,24177,1,0,0:0:0:0:
160,192,24177,1,0,0:0:0:0:
416,192,24274,1,0,0:0:0:0:
288,192,24371,1,0,0:0:0:0:
224,192,24371,1,0,0:0:0:0:
352,192,24468,1,0,0:0:0:0:
96,192,24565,1,0,0:0:0:0:
224,192,24565,1,0,0:0:0:0:
288,192,24661,1,0,0:0:0:0:
160,192,24758,1,0,0:0:0:0:
416,192,24758,1,0,0:0:0:0:
224,192,24855,1,0,0:0:0:0:
160,192,24952,1,0,0:0:0:0:
480,192,24952,1,0,0:0:0:0:
352,192,24952,1,0,0:0:0:0:
288,192,25048,1,0,0:0:0:0:
416,192,25145,1,0,0:0:0:0:
288,192,25242,1,0,0:0:0:0:
160,192,25339,5,0,0:0:0:0:
96,192,25339,1,0,0:0:0:0:
288,192,25532,1,0,0:0:0:0:
224,192,25629,1,0,0:0:0:0:
160,192,25629,1,0,0:0:0:0:
288,192,25726,1,0,0:0:0:0:
96,192,25726,1,0,0:0:0:0:
352,192,25823,1,0,0:0:0:0:
416,192,25919,1,0,0:0:0:0:
288,192,25919,1,0,0:0:0:0:
352,192,26016,1,0,0:0:0:0:
160,192,26016,1,0,0:0:0:0:
288,192,26113,1,0,0:0:0:0:
480,192,26113,1,0,0:0:0:0:
160,192,26210,1,0,0:0:0:0:
224,192,26307,1,0,0:0:0:0:
416,192,26307,1,0,0:0:0:0:
352,192,26403,1,0,0:0:0:0:
160,192,26403,1,0,0:0:0:0:
32,192,26500,5,0,0:0:0:0:
416,192,26500,1,0,0:0:0:0:
288,192,26500,1,0,0:0:0:0:
96,192,26500,1,0,0:0:0:0:
224,192,26694,1,0,0:0:0:0:
352,192,26790,1,0,0:0:0:0:
480,192,26887,1,0,0:0:0:0:
416,192,26984,1,0,0:0:0:0:
288,192,27081,1,0,0:0:0:0:
160,192,27177,1,0,0:0:0:0:
224,192,27226,1,0,0:0:0:0:
480,192,27274,1,0,0:0:0:0:
32,192,27371,1,0,0:0:0:0:
96,192,27371,1,0,0:0:0:0:
352,192,27371,1,0,0:0:0:0:
32,192,27565,1,0,0:0:0:0:
96,192,27565,1,0,0:0:0:0:
352,192,27565,1,0,0:0:0:0:
416,192,27661,1,0,0:0:0:0:
160,192,27758,1,0,0:0:0:0:
352,192,27855,1,0,0:0:0:0:
224,192,27855,1,0,0:0:0:0:
32,192,28048,1,0,0:0:0:0:
288,192,28048,1,0,0:0:0:0:
416,192,28048,1,0,0:0:0:0:
96,192,28048,1,0,0:0:0:0:
160,192,28145,1,0,0:0:0:0:
224,192,28242,1,0,0:0:0:0:
416,192,28242,1,0,0:0:0:0:
288,192,28339,1,0,0:0:0:0:
224,192,28436,1,0,0:0:0:0:
96,192,28436,1,0,0:0:0:0:
352,192,28436,1,0,0:0:0:0:
160,192,28532,1,0,0:0:0:0:
224,192,28629,1,0,0:0:0:0:
480,192,28629,1,0,0:0:0:0:
160,192,28726,1,0,0:0:0:0:
416,192,28726,1,0,0:0:0:0:
96,192,28823,1,0,0:0:0:0:
352,192,28823,1,0,0:0:0:0:
224,192,28919,1,0,0:0:0:0:
480,192,29016,1,0,0:0:0:0:
352,192,29016,1,0,0:0:0:0:
288,192,29113,1,0,0:0:0:0:
416,192,29210,1,0,0:0:0:0:
160,192,29210,1,0,0:0:0:0:
96,192,29210,1,0,0:0:0:0:
224,192,29307,1,0,0:0:0:0:
416,192,29403,1,0,0:0:0:0:
288,192,29403,1,0,0:0:0:0:
224,192,29500,1,0,0:0:0:0:
160,192,29597,1,0,0:0:0:0:
352,192,29597,1,0,0:0:0:0:
480,192,29597,1,0,0:0:0:0:
416,192,29694,1,0,0:0:0:0:
288,192,29790,1,0,0:0:0:0:
160,192,29790,1,0,0:0:0:0:
352,192,29887,1,0,0:0:0:0:
224,192,29984,1,0,0:0:0:0:
96,192,29984,1,0,0:0:0:0:
416,192,29984,1,0,0:0:0:0:
352,192,30081,1,0,0:0:0:0:
224,192,30177,1,0,0:0:0:0:
96,192,30177,1,0,0:0:0:0:
416,192,30274,1,0,0:0:0:0:
288,192,30274,1,0,0:0:0:0:
160,192,30371,1,0,0:0:0:0:
480,192,30371,1,0,0:0:0:0:
224,192,30468,1,0,0:0:0:0:
96,192,30565,1,0,0:0:0:0:
288,192,30565,1,0,0:0:0:0:
160,192,30661,1,0,0:0:0:0:
480,192,30758,1,0,0:0:0:0:
352,192,30758,1,0,0:0:0:0:
224,192,30758,1,0,0:0:0:0:
160,192,30855,1,0,0:0:0:0:
416,192,30952,1,0,0:0:0:0:
288,192,30952,1,0,0:0:0:0:
224,192,31048,1,0,0:0:0:0:
352,192,31145,1,0,0:0:0:0:
160,192,31145,1,0,0:0:0:0:
480,192,31145,1,0,0:0:0:0:
288,192,31242,1,0,0:0:0:0:
352,192,31339,1,0,0:0:0:0:
224,192,31339,1,0,0:0:0:0:
160,192,31436,1,0,0:0:0:0:
224,192,31532,1,0,0:0:0:0:
96,192,31532,1,0,0:0:0:0:
416,192,31532,1,0,0:0:0:0:
352,192,31629,1,0,0:0:0:0:
480,192,31726,1,0,0:0:0:0:
288,192,31726,1,0,0:0:0:0:
416,192,31823,1,0,0:0:0:0:
96,192,31823,1,0,0:0:0:0:
352,192,31919,1,0,0:0:0:0:
160,192,31919,1,0,0:0:0:0:
96,192,32016,1,0,0:0:0:0:
224,192,32113,1,0,0:0:0:0:
480,192,32113,1,0,0:0:0:0:
160,192,32210,1,0,0:0:0:0:
416,192,32210,1,0,0:0:0:0:
352,192,32307,1,0,0:0:0:0:
224,192,32307,1,0,0:0:0:0:
480,192,32307,1,0,0:0:0:0:
96,192,32403,1,0,0:0:0:0:
160,192,32500,1,0,0:0:0:0:
288,192,32500,1,0,0:0:0:0:
416,192,32597,1,0,0:0:0:0:
352,192,32694,1,0,0:0:0:0:
480,192,32694,1,0,0:0:0:0:
224,192,32694,1,0,0:0:0:0:
288,192,32790,1,0,0:0:0:0:
224,192,32887,1,0,0:0:0:0:
96,192,32887,1,0,0:0:0:0:
352,192,32984,1,0,0:0:0:0:
480,192,33081,1,0,0:0:0:0:
288,192,33081,1,0,0:0:0:0:
160,192,33081,1,0,0:0:0:0:
416,192,33177,1,0,0:0:0:0:
224,192,33274,1,0,0:0:0:0:
352,192,33274,1,0,0:0:0:0:
160,192,33371,1,0,0:0:0:0:
288,192,33468,1,0,0:0:0:0:
416,192,33468,1,0,0:0:0:0:
224,192,33565,1,0,0:0:0:0:
160,192,33661,1,0,0:0:0:0:
352,192,33661,1,0,0:0:0:0:
288,192,33758,1,0,0:0:0:0:
96,192,33855,1,0,0:0:0:0:
352,192,33855,1,0,0:0:0:0:
224,192,33855,1,0,0:0:0:0:
160,192,33952,1,0,0:0:0:0:
480,192,34048,1,0,0:0:0:0:
288,192,34048,1,0,0:0:0:0:
416,192,34145,1,0,0:0:0:0:
352,192,34145,1,0,0:0:0:0:
96,192,34242,1,0,0:0:0:0:
480,192,34242,1,0,0:0:0:0:
224,192,34242,1,0,0:0:0:0:
288,192,34339,1,0,0:0:0:0:
352,192,34436,1,0,0:0:0:0:
224,192,34436,1,0,0:0:0:0:
416,192,34532,1,0,0:0:0:0:
288,192,34629,1,0,0:0:0:0:
160,192,34629,1,0,0:0:0:0:
96,192,34629,1,0,0:0:0:0:
224,192,34726,1,0,0:0:0:0:
288,192,34823,1,0,0:0:0:0:
480,192,34823,1,0,0:0:0:0:
224,192,34919,1,0,0:0:0:0:
416,192,34919,1,0,0:0:0:0:
160,192,35016,1,0,0:0:0:0:
352,192,35016,1,0,0:0:0:0:
416,192,35113,1,0,0:0:0:0:
224,192,35210,1,0,0:0:0:0:
288,192,35210,1,0,0:0:0:0:
160,192,35307,1,0,0:0:0:0:
352,192,35403,1,0,0:0:0:0:
480,192,35403,1,0,0:0:0:0:
96,192,35403,1,0,0:0:0:0:
288,192,35500,1,0,0:0:0:0:
416,192,35597,1,0,0:0:0:0:
160,192,35597,1,0,0:0:0:0:
224,192,35694,1,0,0:0:0:0:
480,192,35790,1,0,0:0:0:0:
288,192,35790,1,0,0:0:0:0:
160,192,35790,1,0,0:0:0:0:
224,192,35887,1,0,0:0:0:0:
96,192,35984,1,0,0:0:0:0:
352,192,35984,1,0,0:0:0:0:
288,192,36081,1,0,0:0:0:0:
416,192,36177,1,0,0:0:0:0:
96,192,36177,1,0,0:0:0:0:
224,192,36177,1,0,0:0:0:0:
160,192,36274,1,0,0:0:0:0:
288,192,36371,1,0,0:0:0:0:
96,192,36371,1,0,0:0:0:0:
416,192,36468,1,0,0:0:0:0:
224,192,36468,1,0,0:0:0:0:
160,192,36565,1,0,0:0:0:0:
352,192,36565,1,0,0:0:0:0:
96,192,36661,1,0,0:0:0:0:
480,192,36758,1,0,0:0:0:0:
352,192,36758,1,0,0:0:0:0:
288,192,36855,1,0,0:0:0:0:
416,192,36952,1,0,0:0:0:0:
224,192,36952,1,0,0:0:0:0:
160,192,36952,1,0,0:0:0:0:
352,192,37048,1,0,0:0:0:0:
224,192,37145,1,0,0:0:0:0:
480,192,37145,1,0,0:0:0:0:
160,192,37242,1,0,0:0:0:0:
416,192,37242,1,0,0:0:0:0:
96,192,37339,1,0,0:0:0:0:
352,192,37339,1,0,0:0:0:0:
480,192,37339,1,0,0:0:0:0:
224,192,37436,1,0,0:0:0:0:
480,192,37532,1,0,0:0:0:0:
352,192,37532,1,0,0:0:0:0:
288,192,37629,1,0,0:0:0:0:
160,192,37726,1,0,0:0:0:0:
96,192,37726,1,0,0:0:0:0:
352,192,37726,1,0,0:0:0:0:
224,192,37823,1,0,0:0:0:0:
288,192,37919,1,0,0:0:0:0:
416,192,37919,1,0,0:0:0:0:
480,192,38016,1,0,0:0:0:0:
352,192,38113,1,0,0:0:0:0:
224,192,38113,1,0,0:0:0:0:
160,192,38210,1,0,0:0:0:0:
416,192,38307,1,0,0:0:0:0:
288,192,38307,1,0,0:0:0:0:
352,192,38403,1,0,0:0:0:0:
160,192,38500,1,0,0:0:0:0:
96,192,38500,1,0,0:0:0:0:
416,192,38500,1,0,0:0:0:0:
224,192,38597,1,0,0:0:0:0:
160,192,38694,1,0,0:0:0:0:
352,192,38694,1,0,0:0:0:0:
224,192,38790,1,0,0:0:0:0:
416,192,38790,1,0,0:0:0:0:
288,192,38887,1,0,0:0:0:0:
480,192,38887,1,0,0:0:0:0:
96,192,38887,1,0,0:0:0:0:
352,192,38984,1,0,0:0:0:0:
224,192,39081,1,0,0:0:0:0:
160,192,39081,1,0,0:0:0:0:
352,192,39177,1,0,0:0:0:0:
416,192,39274,1,0,0:0:0:0:
288,192,39274,1,0,0:0:0:0:
480,192,39274,1,0,0:0:0:0:
224,192,39371,1,0,0:0:0:0:
288,192,39468,1,0,0:0:0:0:
352,192,39468,1,0,0:0:0:0:
416,192,39565,1,0,0:0:0:0:
96,192,39661,1,0,0:0:0:0:
160,192,39686,1,0,0:0:0:0:
288,192,39710,1,0,0:0:0:0:
416,192,39758,1,0,0:0:0:0:
480,192,39782,1,0,0:0:0:0:
96,192,39855,1,0,0:0:0:0:
352,192,39855,1,0,0:0:0:0:
224,192,39952,1,0,0:0:0:0:
160,192,40048,1,0,0:0:0:0:
288,192,40048,1,0,0:0:0:0:
352,192,40048,1,0,0:0:0:0:
96,192,40145,1,0,0:0:0:0:
224,192,40145,1,0,0:0:0:0:
288,192,40242,1,0,0:0:0:0:
416,192,40242,1,0,0:0:0:0:
224,192,40339,1,0,0:0:0:0:
352,192,40339,1,0,0:0:0:0:
288,192,40436,1,0,0:0:0:0:
160,192,40436,1,0,0:0:0:0:
96,192,40436,1,0,0:0:0:0:
416,192,40436,1,0,0:0:0:0:
352,192,40629,1,0,0:0:0:0:
160,192,40629,1,0,0:0:0:0:
288,192,40726,1,0,0:0:0:0:
352,192,40823,1,0,0:0:0:0:
480,192,40823,1,0,0:0:0:0:
224,192,40919,1,0,0:0:0:0:
160,192,41016,1,0,0:0:0:0:
416,192,41113,1,0,0:0:0:0:
288,192,41113,1,0,0:0:0:0:
352,192,41210,1,0,0:0:0:0:
160,192,41307,1,0,0:0:0:0:
288,192,41403,1,0,0:0:0:0:
416,192,41403,1,0,0:0:0:0:
224,192,41500,1,0,0:0:0:0:
96,192,41597,1,0,0:0:0:0:
288,192,41597,1,0,0:0:0:0:
160,192,41694,1,0,0:0:0:0:
352,192,41790,1,0,0:0:0:0:
288,192,41887,1,0,0:0:0:0:
160,192,41984,1,0,0:0:0:0:
224,192,41984,1,0,0:0:0:0:
96,192,41984,1,0,0:0:0:0:
416,192,42081,1,0,0:0:0:0:
352,192,42177,1,0,0:0:0:0:
224,192,42177,1,0,0:0:0:0:
160,192,42274,1,0,0:0:0:0:
480,192,42371,1,0,0:0:0:0:
352,192,42371,1,0,0:0:0:0:
416,192,42468,1,0,0:0:0:0:
288,192,42565,1,0,0:0:0:0:
224,192,42661,1,0,0:0:0:0:
160,192,42661,1,0,0:0:0:0:
352,192,42758,1,0,0:0:0:0:
416,192,42855,1,0,0:0:0:0:
288,192,42952,1,0,0:0:0:0:
224,192,42952,1,0,0:0:0:0:
352,192,43048,1,0,0:0:0:0:
224,192,43145,1,0,0:0:0:0:
416,192,43145,1,0,0:0:0:0:
160,192,43242,1,0,0:0:0:0:
96,192,43339,1,0,0:0:0:0:
480,192,43339,1,0,0:0:0:0:
352,192,43339,1,0,0:0:0:0:
416,192,43436,1,0,0:0:0:0:
288,192,43436,1,0,0:0:0:0:
96,192,43532,1,0,0:0:0:0:
352,192,43532,1,0,0:0:0:0:
224,192,43532,1,0,0:0:0:0:
160,192,43629,1,0,0:0:0:0:
480,192,43726,1,0,0:0:0:0:
352,192,43726,1,0,0:0:0:0:
224,192,43823,1,0,0:0:0:0:
96,192,43823,1,0,0:0:0:0:
160,192,43919,1,0,0:0:0:0:
288,192,43919,1,0,0:0:0:0:
96,192,44016,1,0,0:0:0:0:
480,192,44113,1,0,0:0:0:0:
352,192,44113,1,0,0:0:0:0:
224,192,44210,1,0,0:0:0:0:
416,192,44307,1,0,0:0:0:0:
352,192,44403,1,0,0:0:0:0:
288,192,44500,1,0,0:0:0:0:
160,192,44500,1,0,0:0:0:0:
416,192,44597,1,0,0:0:0:0:
480,192,44694,1,0,0:0:0:0:
352,192,44694,1,0,0:0:0:0:
224,192,44790,1,0,0:0:0:0:
160,192,44887,1,0,0:0:0:0:
352,192,44984,1,0,0:0:0:0:
224,192,44984,1,0,0:0:0:0:
288,192,45081,1,0,0:0:0:0:
160,192,45081,1,0,0:0:0:0:
96,192,45081,1,0,0:0:0:0:
480,192,45177,1,0,0:0:0:0:
352,192,45274,1,0,0:0:0:0:
416,192,45274,1,0,0:0:0:0:
480,192,45371,1,0,0:0:0:0:
288,192,45468,5,0,0:0:0:0:
160,192,45468,1,0,0:0:0:0:
352,192,45565,1,0,0:0:0:0:
416,192,45661,1,0,0:0:0:0:
480,192,45758,1,0,0:0:0:0:
160,192,45758,1,0,0:0:0:0:
96,192,45855,1,0,0:0:0:0:
288,192,45855,1,0,0:0:0:0:
224,192,45855,1,0,0:0:0:0:
160,192,45952,1,0,0:0:0:0:
480,192,46048,1,0,0:0:0:0:
352,192,46048,1,0,0:0:0:0:
288,192,46145,1,0,0:0:0:0:
96,192,46242,1,0,0:0:0:0:
224,192,46242,1,0,0:0:0:0:
160,192,46242,1,0,0:0:0:0:
288,192,46339,1,0,0:0:0:0:
352,192,46436,1,0,0:0:0:0:
160,192,46436,1,0,0:0:0:0:
416,192,46532,1,0,0:0:0:0:
224,192,46532,1,0,0:0:0:0:
32,192,46629,5,0,0:0:0:0:
352,192,46629,1,0,0:0:0:0:
480,192,46629,1,0,0:0:0:0:
288,192,46629,1,0,0:0:0:0:
160,192,46726,1,0,0:0:0:0:
224,192,46823,1,0,0:0:0:0:
96,192,46823,1,0,0:0:0:0:
416,192,46919,1,0,0:0:0:0:
96,192,47016,1,0,0:0:0:0:
288,192,47016,1,0,0:0:0:0:
352,192,47113,1,0,0:0:0:0:
160,192,47210,1,0,0:0:0:0:
224,192,47234,1,0,0:0:0:0:
352,192,47258,1,0,0:0:0:0:
416,192,47282,1,0,0:0:0:0:
480,192,47307,1,0,0:0:0:0:
96,192,47403,1,0,0:0:0:0:
160,192,47403,1,0,0:0:0:0:
288,192,47500,1,0,0:0:0:0:
96,192,47597,1,0,0:0:0:0:
224,192,47597,1,0,0:0:0:0:
352,192,47694,1,0,0:0:0:0:
160,192,47790,1,0,0:0:0:0:
288,192,47790,1,0,0:0:0:0:
96,192,47790,1,0,0:0:0:0:
352,192,47887,1,0,0:0:0:0:
224,192,47887,1,0,0:0:0:0:
160,192,47984,1,0,0:0:0:0:
416,192,47984,1,0,0:0:0:0:
288,192,48081,1,0,0:0:0:0:
32,192,48177,1,0,0:0:0:0:
352,192,48177,1,0,0:0:0:0:
96,192,48177,1,0,0:0:0:0:
480,192,48177,1,0,0:0:0:0:
224,192,48274,1,0,0:0:0:0:
160,192,48371,1,0,0:0:0:0:
224,192,48468,1,0,0:0:0:0:
416,192,48468,1,0,0:0:0:0:
288,192,48565,1,0,0:0:0:0:
480,192,48565,1,0,0:0:0:0:
160,192,48661,1,0,0:0:0:0:
224,192,48758,1,0,0:0:0:0:
352,192,48758,1,0,0:0:0:0:
96,192,48855,1,0,0:0:0:0:
160,192,48952,1,0,0:0:0:0:
480,192,48952,1,0,0:0:0:0:
288,192,48952,1,0,0:0:0:0:
416,192,49048,1,0,0:0:0:0:
288,192,49145,1,0,0:0:0:0:
352,192,49145,1,0,0:0:0:0:
160,192,49242,1,0,0:0:0:0:
416,192,49339,1,0,0:0:0:0:
96,192,49339,1,0,0:0:0:0:
288,192,49339,1,0,0:0:0:0:
224,192,49436,1,0,0:0:0:0:
352,192,49436,1,0,0:0:0:0:
480,192,49532,1,0,0:0:0:0:
160,192,49532,1,0,0:0:0:0:
416,192,49629,1,0,0:0:0:0:
224,192,49629,1,0,0:0:0:0:
32,192,49726,1,0,0:0:0:0:
480,192,49726,1,0,0:0:0:0:
352,192,49726,1,0,0:0:0:0:
160,192,49726,1,0,0:0:0:0:
96,192,49823,1,0,0:0:0:0:
160,192,49919,1,0,0:0:0:0:
288,192,49919,1,0,0:0:0:0:
416,192,50016,1,0,0:0:0:0:
480,192,50113,1,0,0:0:0:0:
352,192,50113,1,0,0:0:0:0:
224,192,50210,1,0,0:0:0:0:
160,192,50307,1,0,0:0:0:0:
352,192,50307,1,0,0:0:0:0:
288,192,50403,1,0,0:0:0:0:
96,192,50500,1,0,0:0:0:0:
480,192,50500,1,0,0:0:0:0:
224,192,50597,1,0,0:0:0:0:
352,192,50597,1,0,0:0:0:0:
96,192,50694,1,0,0:0:0:0:
480,192,50694,1,0,0:0:0:0:
224,192,50790,1,0,0:0:0:0:
352,192,50790,1,0,0:0:0:0:
96,192,50887,1,0,0:0:0:0:
416,192,50887,1,0,0:0:0:0:
224,192,50984,1,0,0:0:0:0:
352,192,50984,1,0,0:0:0:0:
416,192,51081,1,0,0:0:0:0:
288,192,51081,1,0,0:0:0:0:
96,192,51081,1,0,0:0:0:0:
224,192,51177,1,0,0:0:0:0:
32,192,51274,1,0,0:0:0:0:
352,192,51274,1,0,0:0:0:0:
288,192,51274,1,0,0:0:0:0:
352,192,52048,1,0,0:0:0:0:
224,192,52145,1,0,0:0:0:0:
288,192,52242,1,0,0:0:0:0:
416,192,52339,1,0,0:0:0:0:
160,192,52436,1,0,0:0:0:0:
352,192,52532,1,0,0:0:0:0:
288,192,52629,1,0,0:0:0:0:
416,192,52726,1,0,0:0:0:0:
32,192,52823,1,0,0:0:0:0:
160,192,52823,1,0,0:0:0:0:
480,192,53597,128,0,54274:0:0:0:0:
416,192,54371,128,0,55048:0:0:0:0:
224,192,55145,128,0,55823:0:0:0:0:
352,192,55919,128,0,56597:0:0:0:0:
160,192,56694,128,0,57371:0:0:0:0:
96,192,57468,128,0,58145:0:0:0:0:
416,192,58242,128,0,58629:0:0:0:0:
96,192,58629,1,0,0:0:0:0:
224,192,58629,1,0,0:0:0:0:
480,192,58823,1,0,0:0:0:0:
288,192,58823,1,0,0:0:0:0:
416,192,58919,1,0,0:0:0:0:
224,192,58919,1,0,0:0:0:0:
32,192,59016,5,0,0:0:0:0:
352,192,59016,1,0,0:0:0:0:
480,192,59016,1,0,0:0:0:0:
160,192,59016,1,0,0:0:0:0:
160,192,59210,1,0,0:0:0:0:
288,192,59210,1,0,0:0:0:0:
96,192,59403,1,0,0:0:0:0:
224,192,59403,1,0,0:0:0:0:
352,192,59403,1,0,0:0:0:0:
288,192,59597,1,0,0:0:0:0:
160,192,59694,1,0,0:0:0:0:
352,192,59790,1,0,0:0:0:0:
96,192,59887,1,0,0:0:0:0:
224,192,59984,1,0,0:0:0:0:
352,192,59984,1,0,0:0:0:0:
160,192,60081,1,0,0:0:0:0:
480,192,60177,1,0,0:0:0:0:
288,192,60177,1,0,0:0:0:0:
352,192,60177,1,0,0:0:0:0:
96,192,60371,1,0,0:0:0:0:
224,192,60468,1,0,0:0:0:0:
288,192,60565,1,0,0:0:0:0:
160,192,60565,1,0,0:0:0:0:
416,192,60758,1,0,0:0:0:0:
288,192,60758,1,0,0:0:0:0:
96,192,60952,1,0,0:0:0:0:
224,192,60952,1,0,0:0:0:0:
352,192,60952,1,0,0:0:0:0:
416,192,61145,1,0,0:0:0:0:
288,192,61242,1,0,0:0:0:0:
352,192,61339,1,0,0:0:0:0:
224,192,61436,1,0,0:0:0:0:
96,192,61532,1,0,0:0:0:0:
288,192,61532,1,0,0:0:0:0:
160,192,61629,1,0,0:0:0:0:
352,192,61726,1,0,0:0:0:0:
480,192,61726,1,0,0:0:0:0:
96,192,61726,1,0,0:0:0:0:
224,192,61919,1,0,0:0:0:0:
352,192,62016,1,0,0:0:0:0:
160,192,62113,1,0,0:0:0:0:
480,192,62113,1,0,0:0:0:0:
288,192,62113,1,0,0:0:0:0:
416,192,62307,1,0,0:0:0:0:
288,192,62307,1,0,0:0:0:0:
224,192,62500,1,0,0:0:0:0:
96,192,62500,1,0,0:0:0:0:
480,192,62500,1,0,0:0:0:0:
352,192,62694,1,0,0:0:0:0:
224,192,62790,1,0,0:0:0:0:
288,192,62887,1,0,0:0:0:0:
96,192,62984,1,0,0:0:0:0:
224,192,63081,1,0,0:0:0:0:
160,192,63081,1,0,0:0:0:0:
416,192,63177,1,0,0:0:0:0:
480,192,63274,1,0,0:0:0:0:
288,192,63274,1,0,0:0:0:0:
160,192,63468,1,0,0:0:0:0:
352,192,63468,1,0,0:0:0:0:
416,192,63565,1,0,0:0:0:0:
224,192,63565,1,0,0:0:0:0:
32,192,63661,1,0,0:0:0:0:
480,192,63661,1,0,0:0:0:0:
288,192,63661,1,0,0:0:0:0:
288,192,64048,1,0,0:0:0:0:
352,192,64145,1,0,0:0:0:0:
160,192,64242,1,0,0:0:0:0:
224,192,64339,1,0,0:0:0:0:
288,192,64436,1,0,0:0:0:0:
416,192,64436,1,0,0:0:0:0:
224,192,64532,1,0,0:0:0:0:
352,192,64629,1,0,0:0:0:0:
480,192,64629,1,0,0:0:0:0:
160,192,64726,1,0,0:0:0:0:
416,192,64823,1,0,0:0:0:0:
288,192,64823,1,0,0:0:0:0:
480,192,64919,1,0,0:0:0:0:
224,192,65016,1,0,0:0:0:0:
352,192,65016,1,0,0:0:0:0:
288,192,65113,1,0,0:0:0:0:
32,192,65210,1,0,0:0:0:0:
416,192,65210,1,0,0:0:0:0:
352,192,65210,1,0,0:0:0:0:
480,192,65210,1,0,0:0:0:0:
160,192,65210,1,0,0:0:0:0:
224,192,65307,1,0,0:0:0:0:
288,192,65403,1,0,0:0:0:0:
96,192,65403,1,0,0:0:0:0:
160,192,65403,1,0,0:0:0:0:
416,192,65500,1,0,0:0:0:0:
480,192,65597,1,0,0:0:0:0:
224,192,65597,1,0,0:0:0:0:
352,192,65597,1,0,0:0:0:0:
160,192,65694,1,0,0:0:0:0:
288,192,65790,1,0,0:0:0:0:
96,192,65790,1,0,0:0:0:0:
352,192,65887,1,0,0:0:0:0:
224,192,65984,1,0,0:0:0:0:
160,192,66081,1,0,0:0:0:0:
480,192,66177,1,0,0:0:0:0:
352,192,66177,1,0,0:0:0:0:
288,192,66177,1,0,0:0:0:0:
416,192,66274,1,0,0:0:0:0:
160,192,66371,1,0,0:0:0:0:
288,192,66468,1,0,0:0:0:0:
96,192,66565,1,0,0:0:0:0:
352,192,66565,1,0,0:0:0:0:
416,192,66565,1,0,0:0:0:0:
288,192,66661,1,0,0:0:0:0:
160,192,66758,1,0,0:0:0:0:
96,192,66758,1,0,0:0:0:0:
352,192,66855,1,0,0:0:0:0:
416,192,66855,1,0,0:0:0:0:
480,192,66855,1,0,0:0:0:0:
224,192,66952,1,0,0:0:0:0:
96,192,67048,1,0,0:0:0:0:
160,192,67048,1,0,0:0:0:0:
352,192,67145,1,0,0:0:0:0:
480,192,67145,1,0,0:0:0:0:
416,192,67145,1,0,0:0:0:0:
224,192,67242,1,0,0:0:0:0:
288,192,67339,1,0,0:0:0:0:
160,192,67339,1,0,0:0:0:0:
352,192,67436,1,0,0:0:0:0:
224,192,67532,1,0,0:0:0:0:
416,192,67629,1,0,0:0:0:0:
288,192,67726,1,0,0:0:0:0:
96,192,67726,1,0,0:0:0:0:
480,192,67823,1,0,0:0:0:0:
416,192,67823,1,0,0:0:0:0:
352,192,67823,1,0,0:0:0:0:
160,192,67919,1,0,0:0:0:0:
288,192,68016,1,0,0:0:0:0:
416,192,68016,1,0,0:0:0:0:
224,192,68113,1,0,0:0:0:0:
96,192,68113,1,0,0:0:0:0:
96,192,68210,1,0,0:0:0:0:
352,192,68307,1,0,0:0:0:0:
224,192,68307,1,0,0:0:0:0:
480,192,68307,1,0,0:0:0:0:
480,192,68500,1,0,0:0:0:0:
288,192,68500,1,0,0:0:0:0:
416,192,68500,1,0,0:0:0:0:
224,192,68597,1,0,0:0:0:0:
352,192,68694,1,0,0:0:0:0:
288,192,68694,1,0,0:0:0:0:
160,192,68694,1,0,0:0:0:0:
480,192,68887,1,0,0:0:0:0:
352,192,68887,1,0,0:0:0:0:
416,192,68984,1,0,0:0:0:0:
224,192,69081,1,0,0:0:0:0:
480,192,69081,1,0,0:0:0:0:
160,192,69129,1,0,0:0:0:0:
352,192,69177,1,0,0:0:0:0:
96,192,69177,1,0,0:0:0:0:
288,192,69226,1,0,0:0:0:0:
224,192,69274,1,0,0:0:0:0:
416,192,69274,1,0,0:0:0:0:
160,192,69371,1,0,0:0:0:0:
480,192,69468,1,0,0:0:0:0:
352,192,69468,1,0,0:0:0:0:
480,192,69565,1,0,0:0:0:0:
96,192,69661,1,0,0:0:0:0:
160,192,69661,1,0,0:0:0:0:
416,192,69758,1,0,0:0:0:0:
288,192,69758,1,0,0:0:0:0:
480,192,69855,1,0,0:0:0:0:
352,192,69855,1,0,0:0:0:0:
224,192,69952,1,0,0:0:0:0:
96,192,69952,1,0,0:0:0:0:
160,192,69952,1,0,0:0:0:0:
352,192,70048,1,0,0:0:0:0:
480,192,70145,1,0,0:0:0:0:
416,192,70145,1,0,0:0:0:0:
224,192,70242,1,0,0:0:0:0:
96,192,70242,1,0,0:0:0:0:
160,192,70242,1,0,0:0:0:0:
288,192,70339,1,0,0:0:0:0:
480,192,70436,1,0,0:0:0:0:
416,192,70436,1,0,0:0:0:0:
352,192,70532,1,0,0:0:0:0:
224,192,70532,1,0,0:0:0:0:
288,192,70629,1,0,0:0:0:0:
160,192,70629,1,0,0:0:0:0:
352,192,70726,1,0,0:0:0:0:
224,192,70774,1,0,0:0:0:0:
480,192,70823,1,0,0:0:0:0:
416,192,70919,1,0,0:0:0:0:
96,192,70919,1,0,0:0:0:0:
480,192,71016,1,0,0:0:0:0:
352,192,71113,1,0,0:0:0:0:
160,192,71210,1,0,0:0:0:0:
288,192,71210,1,0,0:0:0:0:
416,192,71210,1,0,0:0:0:0:
224,192,71307,1,0,0:0:0:0:
480,192,71403,1,0,0:0:0:0:
352,192,71403,1,0,0:0:0:0:
288,192,71403,1,0,0:0:0:0:
160,192,71500,1,0,0:0:0:0:
96,192,71597,1,0,0:0:0:0:
160,192,71694,1,0,0:0:0:0:
96,192,71790,1,0,0:0:0:0:
352,192,71790,1,0,0:0:0:0:
288,192,71887,1,0,0:0:0:0:
416,192,71984,1,0,0:0:0:0:
160,192,71984,1,0,0:0:0:0:
352,192,72081,1,0,0:0:0:0:
96,192,72177,1,0,0:0:0:0:
160,192,72242,1,0,0:0:0:0:
416,192,72274,1,0,0:0:0:0:
288,192,72307,1,0,0:0:0:0:
352,192,72371,1,0,0:0:0:0:
160,192,72436,1,0,0:0:0:0:
224,192,72500,1,0,0:0:0:0:
352,192,72565,1,0,0:0:0:0:
480,192,72565,1,0,0:0:0:0:
416,192,72629,1,0,0:0:0:0:
288,192,72694,1,0,0:0:0:0:
352,192,72758,1,0,0:0:0:0:
96,192,72758,1,0,0:0:0:0:
224,192,72855,1,0,0:0:0:0:
160,192,72855,1,0,0:0:0:0:
96,192,72952,1,0,0:0:0:0:
288,192,72952,1,0,0:0:0:0:
416,192,73048,1,0,0:0:0:0:
480,192,73145,1,0,0:0:0:0:
352,192,73145,1,0,0:0:0:0:
160,192,73242,1,0,0:0:0:0:
288,192,73339,1,0,0:0:0:0:
96,192,73339,1,0,0:0:0:0:
160,192,73436,1,0,0:0:0:0:
416,192,73532,1,0,0:0:0:0:
160,192,73629,1,0,0:0:0:0:
352,192,73726,1,0,0:0:0:0:
96,192,73726,1,0,0:0:0:0:
416,192,73774,1,0,0:0:0:0:
480,192,73823,1,0,0:0:0:0:
224,192,73823,1,0,0:0:0:0:
288,192,73871,1,0,0:0:0:0:
352,192,73919,1,0,0:0:0:0:
160,192,73919,1,0,0:0:0:0:
224,192,74113,1,0,0:0:0:0:
96,192,74113,1,0,0:0:0:0:
480,192,74307,1,0,0:0:0:0:
352,192,74307,1,0,0:0:0:0:
288,192,74307,1,0,0:0:0:0:
224,192,74403,1,0,0:0:0:0:
96,192,74500,1,0,0:0:0:0:
160,192,74500,1,0,0:0:0:0:
416,192,74500,1,0,0:0:0:0:
352,192,74597,1,0,0:0:0:0:
480,192,74597,1,0,0:0:0:0:
288,192,74694,1,0,0:0:0:0:
224,192,74694,1,0,0:0:0:0:
160,192,74790,1,0,0:0:0:0:
96,192,74790,1,0,0:0:0:0:
480,192,74887,1,0,0:0:0:0:
352,192,74887,1,0,0:0:0:0:
288,192,74887,1,0,0:0:0:0:
160,192,75081,1,0,0:0:0:0:
96,192,75081,1,0,0:0:0:0:
416,192,75081,1,0,0:0:0:0:
352,192,75177,1,0,0:0:0:0:
480,192,75177,1,0,0:0:0:0:
224,192,75274,1,0,0:0:0:0:
288,192,75371,1,0,0:0:0:0:
96,192,75468,1,0,0:0:0:0:
224,192,75565,1,0,0:0:0:0:
352,192,75565,1,0,0:0:0:0:
288,192,75661,1,0,0:0:0:0:
160,192,75758,1,0,0:0:0:0:
480,192,75855,1,0,0:0:0:0:
352,192,75855,1,0,0:0:0:0:
288,192,75952,1,0,0:0:0:0:
416,192,75952,1,0,0:0:0:0:
32,192,76048,1,0,0:0:0:0:
224,192,76048,1,0,0:0:0:0:
352,192,76048,1,0,0:0:0:0:
224,192,76823,1,0,0:0:0:0:
352,192,76823,1,0,0:0:0:0:
416,192,76919,1,0,0:0:0:0:
288,192,77016,1,0,0:0:0:0:
96,192,77016,1,0,0:0:0:0:
352,192,77113,1,0,0:0:0:0:
224,192,77210,1,0,0:0:0:0:
96,192,77210,1,0,0:0:0:0:
288,192,77307,1,0,0:0:0:0:
160,192,77403,1,0,0:0:0:0:
416,192,77403,1,0,0:0:0:0:
352,192,77500,1,0,0:0:0:0:
32,192,77597,1,0,0:0:0:0:
96,192,77597,1,0,0:0:0:0:
416,192,77597,1,0,0:0:0:0:
160,192,79726,1,0,0:0:0:0:
224,192,80307,1,0,0:0:0:0:
96,192,80694,1,0,0:0:0:0:
416,192,81468,1,0,0:0:0:0:
352,192,82242,1,0,0:0:0:0:
480,192,83016,1,0,0:0:0:0:
352,192,83403,1,0,0:0:0:0:
96,192,83403,1,0,0:0:0:0:
352,192,83597,1,0,0:0:0:0:
416,192,83790,1,0,0:0:0:0:
160,192,83790,1,0,0:0:0:0:
96,192,83984,1,0,0:0:0:0:
352,192,83984,1,0,0:0:0:0:
160,192,84177,1,0,0:0:0:0:
224,192,84371,1,0,0:0:0:0:
416,192,84371,1,0,0:0:0:0:
480,192,84565,1,0,0:0:0:0:
288,192,84758,1,0,0:0:0:0:
480,192,84952,1,0,0:0:0:0:
224,192,84952,1,0,0:0:0:0:
416,192,85145,1,0,0:0:0:0:
288,192,85145,1,0,0:0:0:0:
352,192,85339,1,0,0:0:0:0:
416,192,85532,1,0,0:0:0:0:
288,192,85726,1,0,0:0:0:0:
96,192,85726,1,0,0:0:0:0:
352,192,85919,1,0,0:0:0:0:
160,192,85919,1,0,0:0:0:0:
224,192,86113,1,0,0:0:0:0:
160,192,86307,1,0,0:0:0:0:
416,192,86307,1,0,0:0:0:0:
352,192,86500,1,0,0:0:0:0:
96,192,86694,1,0,0:0:0:0:
288,192,86694,1,0,0:0:0:0:
352,192,86887,1,0,0:0:0:0:
480,192,86887,1,0,0:0:0:0:
96,192,86984,1,0,0:0:0:0:
160,192,87081,1,0,0:0:0:0:
288,192,87177,1,0,0:0:0:0:
96,192,87274,1,0,0:0:0:0:
352,192,87274,1,0,0:0:0:0:
160,192,87371,1,0,0:0:0:0:
288,192,87468,1,0,0:0:0:0:
352,192,87565,1,0,0:0:0:0:
160,192,87661,1,0,0:0:0:0:
416,192,87661,1,0,0:0:0:0:
224,192,87758,1,0,0:0:0:0:
352,192,87855,1,0,0:0:0:0:
416,192,87952,1,0,0:0:0:0:
480,192,88048,1,0,0:0:0:0:
288,192,88048,1,0,0:0:0:0:
352,192,88145,1,0,0:0:0:0:
32,192,88242,5,0,0:0:0:0:
416,192,88242,1,0,0:0:0:0:
160,192,88242,1,0,0:0:0:0:
288,192,88242,1,0,0:0:0:0:
224,192,88242,1,0,0:0:0:0:
96,192,88339,1,0,0:0:0:0:
352,192,88436,1,0,0:0:0:0:
480,192,88436,128,0,89210:0:0:0:0:
416,192,89113,1,0,0:0:0:0:
160,192,89210,1,0,0:0:0:0:
288,192,89307,1,0,0:0:0:0:
96,192,89307,1,0,0:0:0:0:
224,192,89403,1,0,0:0:0:0:
96,192,89500,1,0,0:0:0:0:
416,192,89500,1,0,0:0:0:0:
160,192,89597,1,0,0:0:0:0:
352,192,89597,1,0,0:0:0:0:
96,192,89694,1,0,0:0:0:0:
416,192,89694,1,0,0:0:0:0:
352,192,89790,1,0,0:0:0:0:
224,192,89790,1,0,0:0:0:0:
160,192,89887,1,0,0:0:0:0:
416,192,89887,1,0,0:0:0:0:
32,192,89984,1,0,0:0:0:0:
224,192,89984,1,0,0:0:0:0:
96,192,89984,1,0,0:0:0:0:
352,192,89984,1,0,0:0:0:0:
416,192,90081,1,0,0:0:0:0:
480,192,90177,1,0,0:0:0:0:
288,192,90177,1,0,0:0:0:0:
352,192,90177,1,0,0:0:0:0:
224,192,90274,1,0,0:0:0:0:
288,192,90371,1,0,0:0:0:0:
160,192,90371,1,0,0:0:0:0:
96,192,90371,1,0,0:0:0:0:
224,192,90468,1,0,0:0:0:0:
480,192,90565,1,0,0:0:0:0:
160,192,90565,1,0,0:0:0:0:
416,192,90661,1,0,0:0:0:0:
288,192,90661,1,0,0:0:0:0:
480,192,90758,1,0,0:0:0:0:
224,192,90758,1,0,0:0:0:0:
160,192,90855,1,0,0:0:0:0:
352,192,90952,1,0,0:0:0:0:
224,192,90952,1,0,0:0:0:0:
96,192,90952,1,0,0:0:0:0:
416,192,91048,1,0,0:0:0:0:
288,192,91145,1,0,0:0:0:0:
160,192,91145,1,0,0:0:0:0:
96,192,91145,1,0,0:0:0:0:
224,192,91242,1,0,0:0:0:0:
160,192,91339,1,0,0:0:0:0:
352,192,91339,1,0,0:0:0:0:
416,192,91436,1,0,0:0:0:0:
352,192,91532,1,0,0:0:0:0:
480,192,91532,1,0,0:0:0:0:
224,192,91532,1,0,0:0:0:0:
288,192,91629,1,0,0:0:0:0:
416,192,91726,1,0,0:0:0:0:
224,192,91726,1,0,0:0:0:0:
160,192,91726,1,0,0:0:0:0:
480,192,91823,1,0,0:0:0:0:
352,192,91919,1,0,0:0:0:0:
288,192,91919,1,0,0:0:0:0:
96,192,91919,1,0,0:0:0:0:
224,192,92016,1,0,0:0:0:0:
416,192,92113,1,0,0:0:0:0:
288,192,92113,1,0,0:0:0:0:
224,192,92210,1,0,0:0:0:0:
480,192,92210,1,0,0:0:0:0:
288,192,92307,1,0,0:0:0:0:
96,192,92307,1,0,0:0:0:0:
352,192,92403,1,0,0:0:0:0:
480,192,92500,1,0,0:0:0:0:
288,192,92500,1,0,0:0:0:0:
224,192,92500,1,0,0:0:0:0:
416,192,92597,1,0,0:0:0:0:
352,192,92694,1,0,0:0:0:0:
160,192,92694,1,0,0:0:0:0:
96,192,92694,1,0,0:0:0:0:
416,192,92790,1,0,0:0:0:0:
288,192,92887,1,0,0:0:0:0:
224,192,92887,1,0,0:0:0:0:
352,192,92984,1,0,0:0:0:0:
160,192,92984,1,0,0:0:0:0:
96,192,93081,1,0,0:0:0:0:
288,192,93081,1,0,0:0:0:0:
416,192,93081,1,0,0:0:0:0:
480,192,93177,1,0,0:0:0:0:
96,192,93274,1,0,0:0:0:0:
288,192,93274,1,0,0:0:0:0:
416,192,93371,1,0,0:0:0:0:
224,192,93371,1,0,0:0:0:0:
352,192,93468,1,0,0:0:0:0:
288,192,93468,1,0,0:0:0:0:
160,192,93468,1,0,0:0:0:0:
480,192,93565,1,0,0:0:0:0:
160,192,93661,1,0,0:0:0:0:
288,192,93661,1,0,0:0:0:0:
96,192,93661,1,0,0:0:0:0:
224,192,93758,1,0,0:0:0:0:
352,192,93758,1,0,0:0:0:0:
480,192,93855,1,0,0:0:0:0:
416,192,93952,1,0,0:0:0:0:
352,192,94048,1,0,0:0:0:0:
96,192,94048,1,0,0:0:0:0:
480,192,94048,1,0,0:0:0:0:
160,192,94145,1,0,0:0:0:0:
224,192,94242,1,0,0:0:0:0:
96,192,94242,1,0,0:0:0:0:
288,192,94242,1,0,0:0:0:0:
416,192,94339,1,0,0:0:0:0:
352,192,94436,1,0,0:0:0:0:
224,192,94436,1,0,0:0:0:0:
160,192,94532,1,0,0:0:0:0:
352,192,94629,1,0,0:0:0:0:
480,192,94629,1,0,0:0:0:0:
224,192,94629,1,0,0:0:0:0:
96,192,94726,1,0,0:0:0:0:
160,192,94823,1,0,0:0:0:0:
480,192,94823,1,0,0:0:0:0:
288,192,94919,1,0,0:0:0:0:
352,192,95016,5,0,0:0:0:0:
160,192,95016,1,0,0:0:0:0:
224,192,95016,1,0,0:0:0:0:
288,192,95113,1,0,0:0:0:0:
416,192,95210,1,0,0:0:0:0:
160,192,95210,1,0,0:0:0:0:
480,192,95307,1,0,0:0:0:0:
224,192,95307,1,0,0:0:0:0:
416,192,95403,1,0,0:0:0:0:
288,192,95403,1,0,0:0:0:0:
96,192,95403,1,0,0:0:0:0:
352,192,95500,1,0,0:0:0:0:
224,192,95597,1,0,0:0:0:0:
416,192,95597,1,0,0:0:0:0:
288,192,95694,1,0,0:0:0:0:
224,192,95790,1,0,0:0:0:0:
480,192,95790,1,0,0:0:0:0:
352,192,95790,1,0,0:0:0:0:
288,192,95887,1,0,0:0:0:0:
160,192,95984,1,0,0:0:0:0:
352,192,95984,1,0,0:0:0:0:
224,192,96081,1,0,0:0:0:0:
96,192,96081,1,0,0:0:0:0:
32,192,96177,5,0,0:0:0:0:
288,192,96177,1,0,0:0:0:0:
480,192,96177,1,0,0:0:0:0:
416,192,96177,1,0,0:0:0:0:
160,192,96274,1,0,0:0:0:0:
480,192,96371,1,0,0:0:0:0:
352,192,96371,1,0,0:0:0:0:
224,192,96371,1,0,0:0:0:0:
160,192,96468,1,0,0:0:0:0:
416,192,96565,1,0,0:0:0:0:
288,192,96565,1,0,0:0:0:0:
96,192,96565,1,0,0:0:0:0:
352,192,96661,1,0,0:0:0:0:
224,192,96758,1,0,0:0:0:0:
288,192,96782,1,0,0:0:0:0:
480,192,96807,1,0,0:0:0:0:
416,192,96831,1,0,0:0:0:0:
160,192,96855,1,0,0:0:0:0:
224,192,96952,1,0,0:0:0:0:
96,192,96952,1,0,0:0:0:0:
352,192,97048,1,0,0:0:0:0:
224,192,97145,1,0,0:0:0:0:
160,192,97145,1,0,0:0:0:0:
352,192,97242,1,0,0:0:0:0:
96,192,97339,1,0,0:0:0:0:
288,192,97339,1,0,0:0:0:0:
160,192,97436,1,0,0:0:0:0:
416,192,97436,1,0,0:0:0:0:
96,192,97532,1,0,0:0:0:0:
288,192,97532,1,0,0:0:0:0:
160,192,97629,1,0,0:0:0:0:
352,192,97629,1,0,0:0:0:0:
32,192,97726,1,0,0:0:0:0:
96,192,97726,1,0,0:0:0:0:
288,192,97726,1,0,0:0:0:0:
224,192,97726,1,0,0:0:0:0:
416,192,97823,1,0,0:0:0:0:
480,192,97919,1,0,0:0:0:0:
352,192,97919,1,0,0:0:0:0:
96,192,98016,1,0,0:0:0:0:
288,192,98016,1,0,0:0:0:0:
160,192,98113,1,0,0:0:0:0:
352,192,98113,1,0,0:0:0:0:
96,192,98210,1,0,0:0:0:0:
352,192,98307,1,0,0:0:0:0:
480,192,98307,1,0,0:0:0:0:
224,192,98403,1,0,0:0:0:0:
288,192,98500,1,0,0:0:0:0:
160,192,98500,1,0,0:0:0:0:
96,192,98500,1,0,0:0:0:0:
352,192,98597,1,0,0:0:0:0:
224,192,98694,1,0,0:0:0:0:
160,192,98694,1,0,0:0:0:0:
480,192,98790,1,0,0:0:0:0:
352,192,98790,1,0,0:0:0:0:
96,192,98887,1,0,0:0:0:0:
480,192,98887,1,0,0:0:0:0:
224,192,98887,1,0,0:0:0:0:
96,192,98984,1,0,0:0:0:0:
416,192,99081,1,0,0:0:0:0:
224,192,99081,1,0,0:0:0:0:
352,192,99177,1,0,0:0:0:0:
32,192,99274,1,0,0:0:0:0:
288,192,99274,1,0,0:0:0:0:
160,192,99274,1,0,0:0:0:0:
480,192,99274,1,0,0:0:0:0:
352,192,99371,1,0,0:0:0:0:
288,192,99468,1,0,0:0:0:0:
416,192,99468,1,0,0:0:0:0:
96,192,99468,1,0,0:0:0:0:
224,192,99565,1,0,0:0:0:0:
352,192,99661,1,0,0:0:0:0:
288,192,99661,1,0,0:0:0:0:
160,192,99661,1,0,0:0:0:0:
96,192,99758,1,0,0:0:0:0:
288,192,99855,1,0,0:0:0:0:
480,192,99855,1,0,0:0:0:0:
160,192,99855,1,0,0:0:0:0:
416,192,99952,1,0,0:0:0:0:
224,192,99952,1,0,0:0:0:0:
352,192,100048,1,0,0:0:0:0:
160,192,100048,1,0,0:0:0:0:
480,192,100145,1,0,0:0:0:0:
288,192,100145,1,0,0:0:0:0:
416,192,100242,1,0,0:0:0:0:
96,192,100242,1,0,0:0:0:0:
224,192,100242,1,0,0:0:0:0:
352,192,100339,1,0,0:0:0:0:
160,192,100339,1,0,0:0:0:0:
416,192,100436,1,0,0:0:0:0:
96,192,100436,1,0,0:0:0:0:
32,192,100629,1,0,0:0:0:0:
96,192,100629,1,0,0:0:0:0:
160,192,100629,1,0,0:0:0:0:
288,192,100629,1,0,0:0:0:0:
352,192,100629,1,0,0:0:0:0:
224,192,100823,1,0,0:0:0:0:
480,192,101016,1,0,0:0:0:0:
96,192,101210,1,0,0:0:0:0:
352,192,101403,1,0,0:0:0:0:
160,192,101597,1,0,0:0:0:0:
96,192,101694,1,0,0:0:0:0:
288,192,101790,1,0,0:0:0:0:
416,192,101887,1,0,0:0:0:0:
160,192,101984,1,0,0:0:0:0:
352,192,101984,1,0,0:0:0:0:
96,192,102081,1,0,0:0:0:0:
288,192,102177,1,0,0:0:0:0:
288,192,102274,1,0,0:0:0:0:
32,192,102371,1,0,0:0:0:0:
224,192,102371,1,0,0:0:0:0:
96,192,102371,1,0,0:0:0:0:
