osu file format v14

[General]
AudioFilename: Laplace.mp3
AudioLeadIn: 0
PreviewTime: 26500
Countdown: 0
SampleSet: Soft
StackLeniency: 0.7
Mode: 3
LetterboxInBreaks: 0
SpecialStyle: 0
WidescreenStoryboard: 0

[Editor]
Bookmarks: 15657,28044,40432,65206,89980
DistanceSpacing: 1.3
BeatDivisor: 4
GridSize: 4
TimelineZoom: 2

[Metadata]
Title:Laplace
TitleUnicode:Laplace
Artist:sakuzyo
ArtistUnicode:sakuzyo
Creator:ZZHBOY
Version:MX
Source:BMS
Tags:BOF of fighter 2011 Cytus Rayark Chapter 8
BeatmapID:956128
BeatmapSetID:445079

[Difficulty]
HPDrainRate:8
CircleSize:4
OverallDifficulty:8
ApproachRate:9
SliderMultiplier:1.4
SliderTickRate:1

[Events]
//Background and Video events
0,0,"bg.jpg",0,0
//Break Periods
//Storyboard Layer 0 (Background)
//Storyboard Layer 1 (Fail)
//Storyboard Layer 2 (Pass)
//Storyboard Layer 3 (Foreground)
//Storyboard Sound Samples

[TimingPoints]
178,387.096774193548,4,2,1,20,1,0

[HitObjects]
192,192,3274,5,2,0:0:0:0:
320,192,3274,1,4,0:0:0:0:
320,192,3855,1,0,0:0:0:0:
192,192,3903,1,0,0:0:0:0:
64,192,3952,1,0,0:0:0:0:
320,192,4048,1,0,0:0:0:0:
448,192,4048,1,0,0:0:0:0:
64,192,4629,1,0,0:0:0:0:
448,192,4823,1,0,0:0:0:0:
192,192,4823,1,0,0:0:0:0:
192,192,5403,1,0,0:0:0:0:
320,192,5500,1,0,0:0:0:0:
64,192,5597,1,0,0:0:0:0:
448,192,5597,1,0,0:0:0:0:
192,192,5645,1,0,0:0:0:0:
320,192,5694,1,0,0:0:0:0:
64,192,5790,1,0,0:0:0:0:
192,192,5984,1,0,0:0:0:0:
320,192,6177,1,0,0:0:0:0:
448,192,6371,1,0,0:0:0:0:
64,192,6371,1,0,0:0:0:0:
192,192,6952,1,0,0:0:0:0:
320,192,7000,1,0,0:0:0:0:
448,192,7048,1,0,0:0:0:0:
64,192,7145,1,0,0:0:0:0:
192,192,7145,1,0,0:0:0:0:
192,192,7726,1,0,0:0:0:0:
320,192,7919,1,0,0:0:0:0:
448,192,7919,1,0,0:0:0:0:
320,192,8500,1,0,0:0:0:0:
192,192,8694,1,0,0:0:0:0:
64,192,8694,1,0,0:0:0:0:
448,192,8887,1,0,0:0:0:0:
320,192,8936,1,0,0:0:0:0:
192,192,8984,1,0,0:0:0:0:
192,192,9274,1,0,0:0:0:0:
64,192,9468,1,0,0:0:0:0:
320,192,9468,1,0,0:0:0:0:
448,192,9468,1,0,0:0:0:0:
192,192,9661,1,0,0:0:0:0:
448,192,9661,1,0,0:0:0:0:
192,192,10048,1,0,0:0:0:0:
320,192,10097,1,0,0:0:0:0:
448,192,10145,1,0,0:0:0:0:
192,192,10242,1,0,0:0:0:0:
64,192,10242,1,0,0:0:0:0:
192,192,10823,1,0,0:0:0:0:
320,192,11016,1,0,0:0:0:0:
448,192,11016,1,0,0:0:0:0:
320,192,11597,1,0,0:0:0:0:
448,192,11694,1,0,0:0:0:0:
192,192,11790,1,0,0:0:0:0:
64,192,11790,1,0,0:0:0:0:
320,192,11839,1,0,0:0:0:0:
448,192,11887,1,0,0:0:0:0:
64,192,11984,1,0,0:0:0:0:
192,192,12177,1,0,0:0:0:0:
320,192,12371,1,0,0:0:0:0:
64,192,12565,1,0,0:0:0:0:
448,192,12565,1,0,0:0:0:0:
448,192,13145,1,0,0:0:0:0:
192,192,13339,1,0,0:0:0:0:
64,192,13339,128,0,13919:0:0:0:0:
192,192,13919,1,2,0:0:0:0:
320,192,13919,1,4,0:0:0:0:
448,192,13919,1,0,0:0:0:0:
64,192,14113,1,0,0:0:0:0:
448,192,14307,1,0,0:0:0:0:
64,192,14403,1,0,0:0:0:0:
320,192,14500,1,0,0:0:0:0:
192,192,14694,1,0,0:0:0:0:
64,192,14887,1,0,0:0:0:0:
192,192,15081,1,0,0:0:0:0:
320,192,15129,1,0,0:0:0:0:
448,192,15177,128,0,15468:0:0:0:0:
64,192,15468,1,0,0:0:0:0:
320,192,15661,1,0,0:0:0:0:
192,192,15661,1,0,0:0:0:0:
448,192,15661,1,4,0:0:0:0:
64,192,15855,1,0,0:0:0:0:
320,192,16048,1,0,0:0:0:0:
192,192,16242,1,0,0:0:0:0:
64,192,16339,1,0,0:0:0:0:
448,192,16436,1,0,0:0:0:0:
320,192,16436,1,0,0:0:0:0:
192,192,16629,1,0,0:0:0:0:
320,192,16726,1,0,0:0:0:0:
448,192,16823,1,0,0:0:0:0:
320,192,17016,1,0,0:0:0:0:
192,192,17113,1,0,0:0:0:0:
320,192,17210,1,0,0:0:0:0:
64,192,17210,1,0,0:0:0:0:
448,192,17403,1,0,0:0:0:0:
320,192,17597,1,0,0:0:0:0:
192,192,17790,1,0,0:0:0:0:
64,192,17887,1,0,0:0:0:0:
320,192,17984,1,0,0:0:0:0:
448,192,17984,1,0,0:0:0:0:
192,192,18081,1,0,0:0:0:0:
64,192,18177,1,0,0:0:0:0:
192,192,18274,1,0,0:0:0:0:
448,192,18371,1,0,0:0:0:0:
320,192,18468,1,0,0:0:0:0:
192,192,18565,1,0,0:0:0:0:
64,192,18661,1,0,0:0:0:0:
320,192,18758,1,0,0:0:0:0:
448,192,18758,1,0,0:0:0:0:
192,192,18952,1,0,0:0:0:0:
320,192,19145,1,0,0:0:0:0:
448,192,19339,1,0,0:0:0:0:
320,192,19436,1,0,0:0:0:0:
192,192,19532,1,0,0:0:0:0:
64,192,19532,1,0,0:0:0:0:
64,192,19726,1,0,0:0:0:0:
192,192,19823,1,0,0:0:0:0:
320,192,19919,1,0,0:0:0:0:
448,192,20016,1,0,0:0:0:0:
192,192,20113,1,0,0:0:0:0:
64,192,20210,1,0,0:0:0:0:
448,192,20307,1,0,0:0:0:0:
320,192,20307,1,0,0:0:0:0:
192,192,20403,1,0,0:0:0:0:
64,192,20500,1,0,0:0:0:0:
192,192,20694,1,0,0:0:0:0:
320,192,20694,1,0,0:0:0:0:
448,192,20887,1,0,0:0:0:0:
320,192,20984,1,0,0:0:0:0:
192,192,21081,1,0,0:0:0:0:
64,192,21081,1,0,0:0:0:0:
448,192,21177,1,0,0:0:0:0:
320,192,21274,1,0,0:0:0:0:
192,192,21371,1,0,0:0:0:0:
64,192,21468,1,0,0:0:0:0:
320,192,21468,1,0,0:0:0:0:
448,192,21565,1,0,0:0:0:0:
320,192,21661,1,0,0:0:0:0:
192,192,21758,1,0,0:0:0:0:
320,192,21855,1,0,0:0:0:0:
448,192,21855,1,0,0:0:0:0:
192,192,21952,1,0,0:0:0:0:
64,192,22048,1,0,0:0:0:0:
192,192,22145,1,0,0:0:0:0:
320,192,22242,1,0,0:0:0:0:
448,192,22242,1,0,0:0:0:0:
448,192,22436,1,0,0:0:0:0:
320,192,22532,1,0,0:0:0:0:
64,192,22629,1,0,0:0:0:0:
192,192,22629,1,0,0:0:0:0:
320,192,22726,1,0,0:0:0:0:
64,192,22823,1,0,0:0:0:0:
192,192,22919,1,0,0:0:0:0:
448,192,23016,1,0,0:0:0:0:
320,192,23016,1,0,0:0:0:0:
64,192,23210,1,0,0:0:0:0:
192,192,23307,1,0,0:0:0:0:
320,192,23403,1,0,0:0:0:0:
448,192,23403,1,0,0:0:0:0:
64,192,23500,1,0,0:0:0:0:
192,192,23597,1,0,0:0:0:0:
192,192,23790,1,0,0:0:0:0:
448,192,23790,1,0,0:0:0:0:
320,192,23984,1,0,0:0:0:0:
192,192,24081,1,0,0:0:0:0:
64,192,24177,1,0,0:0:0:0:
448,192,24177,1,0,0:0:0:0:
192,192,24371,1,0,0:0:0:0:
64,192,24468,1,0,0:0:0:0:
448,192,24565,1,0,0:0:0:0:
320,192,24565,1,0,0:0:0:0:
192,192,24661,1,0,0:0:0:0:
448,192,24758,1,0,0:0:0:0:
320,192,24855,1,0,0:0:0:0:
64,192,24952,1,0,0:0:0:0:
192,192,24952,1,0,0:0:0:0:
320,192,25048,1,0,0:0:0:0:
448,192,25145,1,0,0:0:0:0:
448,192,25339,1,0,0:0:0:0:
64,192,25339,1,0,0:0:0:0:
320,192,25532,1,0,0:0:0:0:
448,192,25629,1,0,0:0:0:0:
192,192,25726,1,0,0:0:0:0:
64,192,25726,1,0,0:0:0:0:
320,192,25919,1,0,0:0:0:0:
448,192,25919,1,0,0:0:0:0:
64,192,26113,1,0,0:0:0:0:
192,192,26210,1,0,0:0:0:0:
448,192,26307,1,0,0:0:0:0:
320,192,26403,1,0,0:0:0:0:
192,192,26500,1,2,0:0:0:0:
64,192,26500,1,0,0:0:0:0:
448,192,26597,1,0,0:0:0:0:
320,192,26694,1,0,0:0:0:0:
192,192,26790,1,0,0:0:0:0:
64,192,26887,1,0,0:0:0:0:
192,192,26984,1,0,0:0:0:0:
320,192,27081,1,0,0:0:0:0:
192,192,27177,1,0,0:0:0:0:
448,192,27274,1,0,0:0:0:0:
320,192,27274,1,0,0:0:0:0:
192,192,27371,1,0,0:0:0:0:
64,192,27371,1,0,0:0:0:0:
192,192,27565,1,0,0:0:0:0:
64,192,27565,1,0,0:0:0:0:
448,192,27661,128,0,27855:0:0:0:0:
320,192,27661,1,0,0:0:0:0:
192,192,27855,1,0,0:0:0:0:
320,192,27952,1,0,0:0:0:0:
448,192,28048,1,2,0:0:0:0:
64,192,28048,1,0,0:0:0:0:
448,192,28242,1,2,0:0:0:0:
320,192,28242,1,0,0:0:0:0:
192,192,28339,1,0,0:0:0:0:
64,192,28436,1,0,0:0:0:0:
320,192,28436,1,8,0:0:0:0:
448,192,28532,1,0,0:0:0:0:
320,192,28629,1,0,0:0:0:0:
192,192,28726,1,2,0:0:0:0:
448,192,28726,1,0,0:0:0:0:
64,192,28823,1,0,0:0:0:0:
448,192,28919,1,0,0:0:0:0:
192,192,29016,1,2,0:0:0:0:
64,192,29016,1,0,0:0:0:0:
320,192,29113,1,0,0:0:0:0:
64,192,29210,1,8,0:0:0:0:
448,192,29210,1,0,0:0:0:0:
320,192,29307,1,0,0:0:0:0:
64,192,29403,1,0,0:0:0:0:
192,192,29500,1,0,0:0:0:0:
320,192,29597,1,2,0:0:0:0:
448,192,29597,1,0,0:0:0:0:
320,192,29790,1,2,0:0:0:0:
448,192,29790,1,0,0:0:0:0:
192,192,29887,1,0,0:0:0:0:
448,192,29984,1,8,0:0:0:0:
64,192,29984,1,0,0:0:0:0:
320,192,30081,1,0,0:0:0:0:
192,192,30177,1,0,0:0:0:0:
320,192,30274,1,2,0:0:0:0:
64,192,30274,1,0,0:0:0:0:
448,192,30371,1,0,0:0:0:0:
320,192,30468,1,0,0:0:0:0:
64,192,30565,1,0,0:0:0:0:
192,192,30565,1,2,0:0:0:0:
320,192,30661,1,0,0:0:0:0:
448,192,30758,1,0,0:0:0:0:
64,192,30758,1,8,0:0:0:0:
192,192,30855,1,0,0:0:0:0:
320,192,30952,1,0,0:0:0:0:
448,192,31048,1,0,0:0:0:0:
192,192,31145,1,2,0:0:0:0:
64,192,31145,1,0,0:0:0:0:
192,192,31339,1,2,0:0:0:0:
64,192,31339,1,0,0:0:0:0:
320,192,31436,1,0,0:0:0:0:
448,192,31532,1,8,0:0:0:0:
64,192,31532,1,0,0:0:0:0:
320,192,31629,1,0,0:0:0:0:
64,192,31726,1,0,0:0:0:0:
192,192,31823,1,2,0:0:0:0:
448,192,31823,1,0,0:0:0:0:
320,192,31919,1,0,0:0:0:0:
64,192,32016,1,0,0:0:0:0:
320,192,32113,1,2,0:0:0:0:
448,192,32113,1,0,0:0:0:0:
192,192,32210,1,0,0:0:0:0:
448,192,32307,1,8,0:0:0:0:
64,192,32307,1,0,0:0:0:0:
192,192,32403,1,0,0:0:0:0:
320,192,32500,1,0,0:0:0:0:
192,192,32597,1,0,0:0:0:0:
320,192,32694,1,2,0:0:0:0:
448,192,32694,1,0,0:0:0:0:
320,192,32887,1,2,0:0:0:0:
448,192,32887,1,0,0:0:0:0:
192,192,32984,1,0,0:0:0:0:
64,192,33081,1,0,0:0:0:0:
448,192,33081,1,8,0:0:0:0:
320,192,33177,1,0,0:0:0:0:
192,192,33274,1,0,0:0:0:0:
64,192,33371,1,0,0:0:0:0:
320,192,33371,1,2,0:0:0:0:
448,192,33468,1,0,0:0:0:0:
320,192,33565,1,0,0:0:0:0:
192,192,33661,1,2,0:0:0:0:
64,192,33661,1,0,0:0:0:0:
320,192,33758,1,0,0:0:0:0:
448,192,33855,1,8,0:0:0:0:
64,192,33855,1,0,0:0:0:0:
320,192,33952,1,0,0:0:0:0:
192,192,34048,1,0,0:0:0:0:
64,192,34145,1,8,0:0:0:0:
320,192,34242,1,2,0:0:0:0:
448,192,34242,1,0,0:0:0:0:
320,192,34436,1,2,0:0:0:0:
448,192,34436,1,0,0:0:0:0:
64,192,34532,1,0,0:0:0:0:
192,192,34629,1,8,0:0:0:0:
448,192,34629,1,0,0:0:0:0:
320,192,34726,1,0,0:0:0:0:
192,192,34823,1,0,0:0:0:0:
64,192,34919,1,2,0:0:0:0:
448,192,34919,1,0,0:0:0:0:
320,192,35016,1,0,0:0:0:0:
192,192,35113,1,0,0:0:0:0:
448,192,35210,1,0,0:0:0:0:
320,192,35210,1,2,0:0:0:0:
192,192,35307,1,0,0:0:0:0:
448,192,35403,1,8,0:0:0:0:
64,192,35403,1,0,0:0:0:0:
192,192,35500,1,0,0:0:0:0:
320,192,35597,1,0,0:0:0:0:
192,192,35694,1,0,0:0:0:0:
320,192,35790,1,2,0:0:0:0:
448,192,35790,1,0,0:0:0:0:
320,192,35984,1,2,0:0:0:0:
448,192,35984,1,0,0:0:0:0:
192,192,36081,1,0,0:0:0:0:
64,192,36177,1,8,0:0:0:0:
448,192,36177,1,0,0:0:0:0:
192,192,36274,1,0,0:0:0:0:
320,192,36371,1,0,0:0:0:0:
448,192,36468,1,2,0:0:0:0:
192,192,36468,1,0,0:0:0:0:
320,192,36565,1,0,0:0:0:0:
448,192,36661,1,0,0:0:0:0:
192,192,36758,1,2,0:0:0:0:
64,192,36758,1,0,0:0:0:0:
320,192,36855,1,0,0:0:0:0:
448,192,36952,1,8,0:0:0:0:
64,192,36952,1,0,0:0:0:0:
320,192,37048,1,0,0:0:0:0:
64,192,37145,1,0,0:0:0:0:
192,192,37242,1,0,0:0:0:0:
320,192,37339,1,2,0:0:0:0:
448,192,37339,1,0,0:0:0:0:
320,192,37532,1,2,0:0:0:0:
448,192,37532,1,0,0:0:0:0:
192,192,37629,1,0,0:0:0:0:
64,192,37726,1,8,0:0:0:0:
448,192,37726,1,0,0:0:0:0:
320,192,37823,1,0,0:0:0:0:
192,192,37919,1,0,0:0:0:0:
64,192,38016,1,2,0:0:0:0:
448,192,38016,1,0,0:0:0:0:
320,192,38113,1,0,0:0:0:0:
448,192,38210,1,0,0:0:0:0:
192,192,38307,1,0,0:0:0:0:
64,192,38307,1,2,0:0:0:0:
320,192,38403,1,0,0:0:0:0:
448,192,38500,1,0,0:0:0:0:
64,192,38500,1,8,0:0:0:0:
320,192,38597,1,0,0:0:0:0:
192,192,38694,1,0,0:0:0:0:
64,192,38790,1,0,0:0:0:0:
320,192,38887,1,2,0:0:0:0:
448,192,38887,1,0,0:0:0:0:
320,192,39081,1,2,0:0:0:0:
448,192,39081,1,0,0:0:0:0:
192,192,39177,1,0,0:0:0:0:
64,192,39274,1,0,0:0:0:0:
448,192,39274,1,8,0:0:0:0:
320,192,39371,1,0,0:0:0:0:
64,192,39468,1,0,0:0:0:0:
192,192,39565,1,2,0:0:0:0:
320,192,39661,1,0,0:0:0:0:
448,192,39661,128,0,39855:0:0:0:0:
192,192,39855,1,2,0:0:0:0:
64,192,39855,1,0,0:0:0:0:
320,192,39952,1,2,0:0:0:0:
192,192,40048,1,8,0:0:0:0:
448,192,40048,1,0,0:0:0:0:
64,192,40145,1,2,0:0:0:0:
448,192,40242,1,0,0:0:0:0:
320,192,40242,1,2,0:0:0:0:
192,192,40339,1,8,0:0:0:0:
448,192,40436,1,4,0:0:0:0:
64,192,40436,1,0,0:0:0:0:
320,192,40436,1,2,0:0:0:0:
320,192,40629,1,0,0:0:0:0:
192,192,40629,1,2,0:0:0:0:
448,192,40823,1,0,0:0:0:0:
64,192,40823,1,8,0:0:0:0:
192,192,41016,1,0,0:0:0:0:
64,192,41113,1,2,0:0:0:0:
320,192,41113,1,0,0:0:0:0:
448,192,41210,1,0,0:0:0:0:
192,192,41403,1,2,0:0:0:0:
320,192,41403,1,0,0:0:0:0:
64,192,41597,1,0,0:0:0:0:
192,192,41597,1,8,0:0:0:0:
320,192,41790,1,0,0:0:0:0:
192,192,41887,1,0,0:0:0:0:
64,192,41984,1,0,0:0:0:0:
448,192,41984,1,2,0:0:0:0:
192,192,42177,1,0,0:0:0:0:
320,192,42177,1,2,0:0:0:0:
64,192,42371,1,8,0:0:0:0:
192,192,42371,1,0,0:0:0:0:
320,192,42565,1,0,0:0:0:0:
192,192,42661,1,2,0:0:0:0:
448,192,42758,1,0,0:0:0:0:
64,192,42758,1,0,0:0:0:0:
320,192,42855,1,0,0:0:0:0:
448,192,42952,1,2,0:0:0:0:
192,192,42952,1,0,0:0:0:0:
64,192,43145,1,0,0:0:0:0:
448,192,43145,1,8,0:0:0:0:
320,192,43339,1,0,0:0:0:0:
192,192,43436,1,0,0:0:0:0:
448,192,43532,1,2,0:0:0:0:
64,192,43532,1,0,0:0:0:0:
320,192,43726,1,2,0:0:0:0:
192,192,43726,1,0,0:0:0:0:
64,192,43919,1,0,0:0:0:0:
192,192,43919,1,8,0:0:0:0:
448,192,44113,1,0,0:0:0:0:
320,192,44210,1,2,0:0:0:0:
192,192,44307,1,0,0:0:0:0:
64,192,44307,1,0,0:0:0:0:
320,192,44500,1,2,0:0:0:0:
448,192,44500,1,0,0:0:0:0:
320,192,44694,1,0,0:0:0:0:
192,192,44694,1,8,0:0:0:0:
64,192,44887,1,0,0:0:0:0:
192,192,44984,1,0,0:0:0:0:
320,192,45081,1,2,0:0:0:0:
448,192,45081,1,0,0:0:0:0:
192,192,45177,1,0,0:0:0:0:
64,192,45274,1,0,0:0:0:0:
320,192,45274,1,2,0:0:0:0:
448,192,45468,1,8,0:0:0:0:
64,192,45468,1,0,0:0:0:0:
320,192,45565,1,0,0:0:0:0:
64,192,45661,1,0,0:0:0:0:
192,192,45758,1,2,0:0:0:0:
320,192,45855,1,0,0:0:0:0:
448,192,45855,1,0,0:0:0:0:
192,192,45952,1,0,0:0:0:0:
64,192,46048,1,2,0:0:0:0:
320,192,46048,1,0,0:0:0:0:
64,192,46242,1,0,0:0:0:0:
448,192,46242,1,8,0:0:0:0:
192,192,46339,1,0,0:0:0:0:
320,192,46436,1,0,0:0:0:0:
192,192,46532,1,0,0:0:0:0:
64,192,46629,1,0,0:0:0:0:
448,192,46629,1,4,0:0:0:0:
320,192,46629,1,2,0:0:0:0:
320,192,46823,1,0,0:0:0:0:
192,192,46823,1,2,0:0:0:0:
64,192,47016,1,8,0:0:0:0:
448,192,47016,1,0,0:0:0:0:
320,192,47210,1,0,0:0:0:0:
192,192,47258,1,0,0:0:0:0:
64,192,47307,1,2,0:0:0:0:
448,192,47403,1,2,0:0:0:0:
320,192,47403,1,0,0:0:0:0:
192,192,47500,1,2,0:0:0:0:
448,192,47597,1,0,0:0:0:0:
64,192,47597,1,8,0:0:0:0:
192,192,47694,1,0,0:0:0:0:
320,192,47790,1,2,0:0:0:0:
448,192,47790,1,0,0:0:0:0:
192,192,47887,1,8,0:0:0:0:
64,192,47887,1,0,0:0:0:0:
320,192,47984,1,0,0:0:0:0:
192,192,48081,1,8,0:0:0:0:
320,192,48177,1,4,0:0:0:0:
448,192,48177,1,0,0:0:0:0:
64,192,48177,1,2,0:0:0:0:
320,192,48371,1,0,0:0:0:0:
64,192,48468,1,0,0:0:0:0:
192,192,48468,1,2,0:0:0:0:
320,192,48565,1,8,0:0:0:0:
448,192,48565,1,0,0:0:0:0:
192,192,48758,1,2,0:0:0:0:
64,192,48758,1,0,0:0:0:0:
320,192,48855,1,0,0:0:0:0:
448,192,48952,1,2,0:0:0:0:
64,192,48952,1,0,0:0:0:0:
320,192,49145,1,8,0:0:0:0:
448,192,49145,1,0,0:0:0:0:
192,192,49242,1,0,0:0:0:0:
64,192,49339,1,0,0:0:0:0:
320,192,49339,1,2,0:0:0:0:
448,192,49436,1,8,0:0:0:0:
64,192,49532,1,0,0:0:0:0:
192,192,49532,1,2,0:0:0:0:
320,192,49629,1,8,0:0:0:0:
64,192,49726,1,2,0:0:0:0:
192,192,49726,1,4,0:0:0:0:
448,192,49726,1,0,0:0:0:0:
320,192,49919,1,2,0:0:0:0:
448,192,49919,1,0,0:0:0:0:
192,192,50016,1,0,0:0:0:0:
64,192,50113,1,0,0:0:0:0:
448,192,50113,1,8,0:0:0:0:
192,192,50307,1,2,0:0:0:0:
320,192,50307,1,0,0:0:0:0:
64,192,50403,1,0,0:0:0:0:
320,192,50500,1,8,0:0:0:0:
448,192,50500,1,0,0:0:0:0:
192,192,50597,1,8,0:0:0:0:
64,192,50597,1,0,0:0:0:0:
320,192,50694,1,8,0:0:0:0:
448,192,50694,1,0,0:0:0:0:
192,192,50790,1,8,0:0:0:0:
64,192,50790,1,0,0:0:0:0:
320,192,50887,1,8,0:0:0:0:
448,192,50887,1,0,0:0:0:0:
192,192,50984,1,8,0:0:0:0:
64,192,51081,128,2,51274:0:0:0:0:
320,192,51274,1,6,0:0:0:0:
448,192,51274,128,0,52629:0:0:0:0:
192,192,51468,1,0,0:0:0:0:
64,192,51661,1,0,0:0:0:0:
320,192,51855,1,0,0:0:0:0:
64,192,52048,1,0,0:0:0:0:
192,192,52242,1,0,0:0:0:0:
320,192,52436,1,0,0:0:0:0:
64,192,52629,1,0,0:0:0:0:
192,192,52726,1,0,0:0:0:0:
320,192,52823,1,2,0:0:0:0:
64,192,52823,1,0,0:0:0:0:
448,192,52823,1,4,0:0:0:0:
320,192,53597,1,0,0:0:0:0:
448,192,53597,1,0,0:0:0:0:
448,192,53984,1,0,0:0:0:0:
320,192,54371,1,0,0:0:0:0:
192,192,54371,1,0,0:0:0:0:
192,192,54758,1,0,0:0:0:0:
192,192,55145,1,0,0:0:0:0:
64,192,55145,1,0,0:0:0:0:
64,192,55532,1,0,0:0:0:0:
448,192,55919,1,0,0:0:0:0:
320,192,55919,1,0,0:0:0:0:
448,192,56307,1,0,0:0:0:0:
448,192,56694,1,0,0:0:0:0:
320,192,56694,1,0,0:0:0:0:
320,192,57081,1,0,0:0:0:0:
192,192,57468,1,0,0:0:0:0:
64,192,57468,1,0,0:0:0:0:
192,192,57855,1,0,0:0:0:0:
320,192,58242,1,0,0:0:0:0:
448,192,58242,1,0,0:0:0:0:
192,192,58629,1,8,0:0:0:0:
64,192,58629,1,0,0:0:0:0:
448,192,58823,1,2,0:0:0:0:
320,192,58919,1,0,0:0:0:0:
448,192,59016,1,2,0:0:0:0:
192,192,59016,1,4,0:0:0:0:
64,192,59016,1,0,0:0:0:0:
320,192,59210,1,0,0:0:0:0:
64,192,59210,1,2,0:0:0:0:
192,192,59403,1,8,0:0:0:0:
448,192,59403,1,0,0:0:0:0:
320,192,59597,1,0,0:0:0:0:
64,192,59694,1,0,0:0:0:0:
192,192,59694,1,2,0:0:0:0:
448,192,59790,1,0,0:0:0:0:
64,192,59887,1,0,0:0:0:0:
192,192,59984,1,2,0:0:0:0:
320,192,59984,1,0,0:0:0:0:
448,192,60081,1,0,0:0:0:0:
192,192,60177,1,8,0:0:0:0:
64,192,60177,1,0,0:0:0:0:
448,192,60371,1,0,0:0:0:0:
320,192,60468,1,0,0:0:0:0:
192,192,60565,1,2,0:0:0:0:
64,192,60565,1,0,0:0:0:0:
192,192,60758,1,2,0:0:0:0:
64,192,60758,1,0,0:0:0:0:
320,192,60952,1,8,0:0:0:0:
448,192,60952,1,0,0:0:0:0:
320,192,61145,1,0,0:0:0:0:
64,192,61242,1,0,0:0:0:0:
192,192,61242,1,2,0:0:0:0:
448,192,61339,1,0,0:0:0:0:
320,192,61436,1,0,0:0:0:0:
448,192,61532,1,0,0:0:0:0:
192,192,61532,1,2,0:0:0:0:
64,192,61629,1,0,0:0:0:0:
448,192,61726,1,8,0:0:0:0:
320,192,61726,1,0,0:0:0:0:
64,192,61919,1,0,0:0:0:0:
192,192,62016,1,0,0:0:0:0:
320,192,62113,1,2,0:0:0:0:
448,192,62113,1,0,0:0:0:0:
320,192,62307,1,2,0:0:0:0:
448,192,62307,1,0,0:0:0:0:
192,192,62500,1,8,0:0:0:0:
64,192,62500,1,0,0:0:0:0:
320,192,62694,1,0,0:0:0:0:
448,192,62790,1,0,0:0:0:0:
192,192,62790,1,2,0:0:0:0:
64,192,62887,1,0,0:0:0:0:
192,192,62984,1,0,0:0:0:0:
320,192,63081,1,0,0:0:0:0:
448,192,63081,1,2,0:0:0:0:
192,192,63177,1,0,0:0:0:0:
64,192,63274,1,8,0:0:0:0:
448,192,63274,1,0,0:0:0:0:
64,192,63468,1,0,0:0:0:0:
192,192,63565,1,0,0:0:0:0:
64,192,63661,1,0,0:0:0:0:
320,192,63661,1,2,0:0:0:0:
448,192,63661,1,4,0:0:0:0:
192,192,63855,1,0,0:0:0:0:
64,192,64048,1,0,0:0:0:0:
320,192,64145,1,0,0:0:0:0:
192,192,64242,1,0,0:0:0:0:
448,192,64339,1,0,0:0:0:0:
64,192,64436,1,0,0:0:0:0:
192,192,64436,1,0,0:0:0:0:
320,192,64532,1,0,0:0:0:0:
448,192,64629,1,0,0:0:0:0:
192,192,64726,1,0,0:0:0:0:
448,192,64823,1,0,0:0:0:0:
64,192,64823,1,0,0:0:0:0:
192,192,64919,1,0,0:0:0:0:
320,192,65016,1,0,0:0:0:0:
448,192,65113,1,0,0:0:0:0:
320,192,65210,1,0,0:0:0:0:
192,192,65210,1,4,0:0:0:0:
64,192,65210,1,2,0:0:0:0:
448,192,65403,1,0,0:0:0:0:
320,192,65403,1,2,0:0:0:0:
192,192,65500,1,0,0:0:0:0:
64,192,65597,1,0,0:0:0:0:
448,192,65597,1,8,0:0:0:0:
192,192,65694,1,0,0:0:0:0:
448,192,65790,1,0,0:0:0:0:
320,192,65790,1,0,0:0:0:0:
64,192,65887,1,2,0:0:0:0:
192,192,65887,1,0,0:0:0:0:
448,192,65984,1,0,0:0:0:0:
192,192,66081,1,0,0:0:0:0:
320,192,66177,1,2,0:0:0:0:
448,192,66177,1,0,0:0:0:0:
192,192,66274,1,0,0:0:0:0:
64,192,66371,1,0,0:0:0:0:
320,192,66371,1,0,0:0:0:0:
448,192,66468,1,0,0:0:0:0:
192,192,66565,1,2,0:0:0:0:
64,192,66565,1,0,0:0:0:0:
320,192,66661,1,0,0:0:0:0:
448,192,66758,1,2,0:0:0:0:
320,192,66855,1,8,0:0:0:0:
64,192,66855,1,0,0:0:0:0:
192,192,66952,1,0,0:0:0:0:
448,192,67048,1,0,0:0:0:0:
320,192,67048,1,2,0:0:0:0:
64,192,67145,1,0,0:0:0:0:
192,192,67145,1,8,0:0:0:0:
448,192,67339,1,2,0:0:0:0:
320,192,67339,1,0,0:0:0:0:
192,192,67436,1,0,0:0:0:0:
64,192,67532,1,0,0:0:0:0:
448,192,67532,128,0,67726:0:0:0:0:
64,192,67726,1,0,0:0:0:0:
192,192,67726,1,2,0:0:0:0:
320,192,67823,1,2,0:0:0:0:
448,192,67823,1,0,0:0:0:0:
192,192,67919,1,0,0:0:0:0:
64,192,68016,1,0,0:0:0:0:
320,192,68113,1,0,0:0:0:0:
448,192,68113,1,2,0:0:0:0:
64,192,68210,1,0,0:0:0:0:
192,192,68210,1,2,0:0:0:0:
320,192,68307,1,2,0:0:0:0:
448,192,68307,1,0,0:0:0:0:
64,192,68500,1,0,0:0:0:0:
192,192,68500,1,2,0:0:0:0:
320,192,68597,1,0,0:0:0:0:
448,192,68694,1,8,0:0:0:0:
64,192,68694,1,0,0:0:0:0:
192,192,68887,1,2,0:0:0:0:
64,192,68887,1,0,0:0:0:0:
448,192,68984,1,0,0:0:0:0:
320,192,68984,1,0,0:0:0:0:
64,192,69081,1,2,0:0:0:0:
192,192,69129,1,2,0:0:0:0:
448,192,69177,1,2,0:0:0:0:
320,192,69226,1,2,0:0:0:0:
192,192,69274,1,2,0:0:0:0:
64,192,69274,1,0,0:0:0:0:
448,192,69371,1,2,0:0:0:0:
64,192,69468,1,0,0:0:0:0:
192,192,69468,1,8,0:0:0:0:
320,192,69565,1,8,0:0:0:0:
448,192,69565,1,0,0:0:0:0:
192,192,69661,1,8,0:0:0:0:
64,192,69661,1,0,0:0:0:0:
448,192,69758,1,0,0:0:0:0:
320,192,69758,1,8,0:0:0:0:
64,192,69855,1,0,0:0:0:0:
192,192,69855,1,2,0:0:0:0:
448,192,69952,1,0,0:0:0:0:
320,192,69952,1,8,0:0:0:0:
192,192,70048,1,0,0:0:0:0:
64,192,70145,1,2,0:0:0:0:
320,192,70145,1,0,0:0:0:0:
192,192,70242,1,8,0:0:0:0:
448,192,70242,1,0,0:0:0:0:
320,192,70339,1,0,0:0:0:0:
192,192,70436,1,2,0:0:0:0:
64,192,70436,1,0,0:0:0:0:
448,192,70532,1,0,0:0:0:0:
320,192,70532,1,8,0:0:0:0:
64,192,70629,1,0,0:0:0:0:
448,192,70726,1,0,0:0:0:0:
320,192,70774,1,0,0:0:0:0:
192,192,70823,1,0,0:0:0:0:
448,192,70919,1,0,0:0:0:0:
64,192,70919,1,2,0:0:0:0:
192,192,71016,1,0,0:0:0:0:
320,192,71113,1,2,0:0:0:0:
448,192,71113,1,0,0:0:0:0:
192,192,71210,1,10,0:0:0:0:
64,192,71210,1,0,0:0:0:0:
320,192,71307,1,0,0:0:0:0:
448,192,71307,1,0,0:0:0:0:
192,192,71403,1,2,0:0:0:0:
64,192,71403,1,0,0:0:0:0:
448,192,71500,1,0,0:0:0:0:
320,192,71597,1,0,0:0:0:0:
64,192,71694,1,0,0:0:0:0:
448,192,71790,1,8,0:0:0:0:
192,192,71790,1,0,0:0:0:0:
320,192,71887,1,0,0:0:0:0:
448,192,71984,1,0,0:0:0:0:
64,192,71984,1,0,0:0:0:0:
192,192,72081,1,0,0:0:0:0:
320,192,72081,1,0,0:0:0:0:
64,192,72177,1,2,0:0:0:0:
192,192,72226,1,2,0:0:0:0:
320,192,72274,1,2,0:0:0:0:
448,192,72323,1,2,0:0:0:0:
64,192,72371,1,2,0:0:0:0:
192,192,72419,1,2,0:0:0:0:
320,192,72468,1,2,0:0:0:0:
448,192,72516,1,2,0:0:0:0:
192,192,72565,1,0,0:0:0:0:
64,192,72565,1,2,0:0:0:0:
448,192,72661,1,2,0:0:0:0:
64,192,72758,1,2,0:0:0:0:
320,192,72758,1,0,0:0:0:0:
192,192,72855,1,2,0:0:0:0:
448,192,72855,1,0,0:0:0:0:
64,192,72952,1,0,0:0:0:0:
320,192,72952,1,2,0:0:0:0:
448,192,73048,1,0,0:0:0:0:
64,192,73145,1,0,0:0:0:0:
192,192,73145,1,8,0:0:0:0:
448,192,73242,1,0,0:0:0:0:
320,192,73242,1,0,0:0:0:0:
192,192,73339,1,0,0:0:0:0:
64,192,73339,1,2,0:0:0:0:
448,192,73436,1,0,0:0:0:0:
320,192,73532,1,0,0:0:0:0:
192,192,73629,1,0,0:0:0:0:
64,192,73726,1,2,0:0:0:0:
192,192,73774,1,2,0:0:0:0:
320,192,73823,1,2,0:0:0:0:
448,192,73871,1,2,0:0:0:0:
192,192,73919,1,0,0:0:0:0:
64,192,73919,1,2,0:0:0:0:
320,192,74016,1,0,0:0:0:0:
448,192,74113,1,0,0:0:0:0:
192,192,74113,1,8,0:0:0:0:
320,192,74210,1,0,0:0:0:0:
448,192,74307,1,0,0:0:0:0:
64,192,74307,1,2,0:0:0:0:
192,192,74403,1,0,0:0:0:0:
320,192,74500,1,0,0:0:0:0:
64,192,74500,1,2,0:0:0:0:
192,192,74597,1,8,0:0:0:0:
448,192,74597,1,0,0:0:0:0:
64,192,74694,1,0,0:0:0:0:
192,192,74790,1,2,0:0:0:0:
320,192,74790,1,0,0:0:0:0:
448,192,74887,1,8,0:0:0:0:
64,192,74887,1,0,0:0:0:0:
320,192,74984,1,0,0:0:0:0:
192,192,75081,1,0,0:0:0:0:
448,192,75081,1,0,0:0:0:0:
320,192,75177,1,8,0:0:0:0:
64,192,75177,1,0,0:0:0:0:
448,192,75274,1,0,0:0:0:0:
320,192,75371,1,0,0:0:0:0:
192,192,75419,1,0,0:0:0:0:
64,192,75468,1,0,0:0:0:0:
320,192,75565,1,0,0:0:0:0:
448,192,75565,1,2,0:0:0:0:
192,192,75661,1,0,0:0:0:0:
320,192,75758,1,0,0:0:0:0:
192,192,75855,1,8,0:0:0:0:
64,192,75855,1,0,0:0:0:0:
448,192,75952,1,0,0:0:0:0:
320,192,75952,1,2,0:0:0:0:
192,192,76048,1,6,0:0:0:0:
64,192,76048,128,0,76823:0:0:0:0:
320,192,76823,1,0,0:0:0:0:
448,192,76823,128,0,77403:0:0:0:0:
192,192,76919,1,0,0:0:0:0:
64,192,77016,1,0,0:0:0:0:
192,192,77113,1,0,0:0:0:0:
320,192,77210,1,0,0:0:0:0:
64,192,77307,1,0,0:0:0:0:
192,192,77403,1,0,0:0:0:0:
320,192,77500,1,0,0:0:0:0:
192,192,77597,1,4,0:0:0:0:
64,192,77597,1,2,0:0:0:0:
448,192,77597,1,0,0:0:0:0:
320,192,77790,1,0,0:0:0:0:
448,192,78371,1,0,0:0:0:0:
320,192,78371,1,0,0:0:0:0:
448,192,79145,1,0,0:0:0:0:
320,192,79145,1,0,0:0:0:0:
192,192,79726,1,0,0:0:0:0:
448,192,79919,1,0,0:0:0:0:
320,192,79919,1,0,0:0:0:0:
64,192,80307,1,0,0:0:0:0:
320,192,80694,1,0,0:0:0:0:
448,192,80694,1,0,0:0:0:0:
448,192,81468,1,0,0:0:0:0:
320,192,81468,1,0,0:0:0:0:
448,192,82242,1,0,0:0:0:0:
320,192,82242,1,0,0:0:0:0:
448,192,83016,1,0,0:0:0:0:
320,192,83016,1,0,0:0:0:0:
192,192,83403,1,0,0:0:0:0:
64,192,83790,1,0,0:0:0:0:
320,192,83790,1,0,0:0:0:0:
192,192,83984,1,0,0:0:0:0:
448,192,83984,1,0,0:0:0:0:
192,192,84177,1,0,0:0:0:0:
64,192,84177,1,0,0:0:0:0:
320,192,84371,1,0,0:0:0:0:
448,192,84371,1,0,0:0:0:0:
448,192,84565,1,0,0:0:0:0:
192,192,84565,1,0,0:0:0:0:
320,192,84758,1,0,0:0:0:0:
64,192,84758,1,0,0:0:0:0:
320,192,84952,1,0,0:0:0:0:
448,192,84952,1,0,0:0:0:0:
192,192,85145,1,0,0:0:0:0:
64,192,85145,1,0,0:0:0:0:
192,192,85339,1,0,0:0:0:0:
448,192,85339,1,0,0:0:0:0:
320,192,85532,1,0,0:0:0:0:
64,192,85532,1,0,0:0:0:0:
320,192,85726,1,0,0:0:0:0:
448,192,85726,1,0,0:0:0:0:
192,192,85919,1,0,0:0:0:0:
64,192,85919,1,0,0:0:0:0:
448,192,86113,1,0,0:0:0:0:
192,192,86113,1,0,0:0:0:0:
320,192,86307,1,0,0:0:0:0:
64,192,86307,1,0,0:0:0:0:
192,192,86500,1,0,0:0:0:0:
64,192,86500,1,0,0:0:0:0:
320,192,86694,1,0,0:0:0:0:
448,192,86694,1,0,0:0:0:0:
448,192,86887,1,0,0:0:0:0:
192,192,86887,1,0,0:0:0:0:
192,192,87081,1,0,0:0:0:0:
64,192,87274,1,0,0:0:0:0:
320,192,87274,1,0,0:0:0:0:
320,192,87468,1,0,0:0:0:0:
448,192,87661,1,0,0:0:0:0:
192,192,87661,1,0,0:0:0:0:
64,192,87855,1,0,0:0:0:0:
320,192,87855,1,0,0:0:0:0:
192,192,88048,1,0,0:0:0:0:
448,192,88242,1,0,0:0:0:0:
320,192,88242,1,6,0:0:0:0:
192,192,88339,1,0,0:0:0:0:
64,192,88436,1,0,0:0:0:0:
448,192,88436,1,0,0:0:0:0:
320,192,88629,1,0,0:0:0:0:
192,192,88823,1,0,0:0:0:0:
320,192,89016,1,0,0:0:0:0:
192,192,89113,1,0,0:0:0:0:
64,192,89210,1,0,0:0:0:0:
448,192,89307,1,0,0:0:0:0:
64,192,89403,1,0,0:0:0:0:
448,192,89500,1,0,0:0:0:0:
192,192,89597,1,0,0:0:0:0:
320,192,89694,1,0,0:0:0:0:
192,192,89790,1,0,0:0:0:0:
320,192,89887,1,0,0:0:0:0:
192,192,89984,1,4,0:0:0:0:
64,192,89984,1,2,0:0:0:0:
448,192,89984,1,0,0:0:0:0:
320,192,90177,1,2,0:0:0:0:
192,192,90177,1,0,0:0:0:0:
448,192,90274,1,0,0:0:0:0:
192,192,90371,128,0,90565:0:0:0:0:
64,192,90371,1,8,0:0:0:0:
448,192,90565,128,0,90758:0:0:0:0:
320,192,90565,1,0,0:0:0:0:
64,192,90661,1,2,0:0:0:0:
320,192,90758,1,0,0:0:0:0:
192,192,90758,1,0,0:0:0:0:
64,192,90855,1,0,0:0:0:0:
192,192,90952,1,2,0:0:0:0:
448,192,90952,128,0,91145:0:0:0:0:
320,192,91048,1,0,0:0:0:0:
64,192,91145,128,0,91532:0:0:0:0:
192,192,91145,1,8,0:0:0:0:
448,192,91339,1,0,0:0:0:0:
320,192,91436,1,0,0:0:0:0:
192,192,91532,128,0,91726:0:0:0:0:
448,192,91532,1,2,0:0:0:0:
320,192,91726,128,0,91919:0:0:0:0:
448,192,91726,1,2,0:0:0:0:
192,192,91919,1,0,0:0:0:0:
64,192,91919,1,8,0:0:0:0:
448,192,92113,1,0,0:0:0:0:
64,192,92113,128,0,92307:0:0:0:0:
320,192,92210,1,2,0:0:0:0:
448,192,92307,128,0,92500:0:0:0:0:
192,192,92307,1,0,0:0:0:0:
64,192,92403,1,0,0:0:0:0:
320,192,92500,128,0,92694:0:0:0:0:
192,192,92500,1,2,0:0:0:0:
448,192,92694,1,0,0:0:0:0:
64,192,92694,1,8,0:0:0:0:
64,192,92887,128,0,93081:0:0:0:0:
192,192,92887,1,0,0:0:0:0:
320,192,92984,1,0,0:0:0:0:
192,192,93081,1,2,0:0:0:0:
448,192,93081,1,0,0:0:0:0:
320,192,93274,1,2,0:0:0:0:
448,192,93274,1,0,0:0:0:0:
192,192,93371,1,0,0:0:0:0:
64,192,93468,128,0,93661:0:0:0:0:
448,192,93468,1,8,0:0:0:0:
448,192,93661,128,0,93855:0:0:0:0:
320,192,93661,1,0,0:0:0:0:
192,192,93758,1,2,0:0:0:0:
64,192,93855,1,0,0:0:0:0:
320,192,93855,1,0,0:0:0:0:
192,192,93952,1,0,0:0:0:0:
448,192,94048,1,2,0:0:0:0:
320,192,94048,128,0,94242:0:0:0:0:
448,192,94242,128,0,94629:0:0:0:0:
64,192,94242,1,8,0:0:0:0:
192,192,94339,1,0,0:0:0:0:
320,192,94436,1,0,0:0:0:0:
64,192,94532,1,0,0:0:0:0:
320,192,94629,128,0,94823:0:0:0:0:
192,192,94629,1,2,0:0:0:0:
192,192,94823,128,0,95016:0:0:0:0:
64,192,94823,1,2,0:0:0:0:
448,192,94919,1,0,0:0:0:0:
320,192,95016,128,0,95210:0:0:0:0:
64,192,95016,1,8,0:0:0:0:
192,192,95210,128,0,95403:0:0:0:0:
448,192,95210,1,0,0:0:0:0:
320,192,95307,1,2,0:0:0:0:
448,192,95403,1,0,0:0:0:0:
64,192,95403,1,0,0:0:0:0:
320,192,95500,1,0,0:0:0:0:
448,192,95597,1,2,0:0:0:0:
192,192,95597,128,0,95790:0:0:0:0:
320,192,95790,1,8,0:0:0:0:
64,192,95790,1,0,0:0:0:0:
448,192,95887,1,0,0:0:0:0:
320,192,95984,128,0,96177:0:0:0:0:
192,192,96081,1,0,0:0:0:0:
448,192,96177,1,0,0:0:0:0:
64,192,96177,1,6,0:0:0:0:
192,192,96371,1,2,0:0:0:0:
320,192,96371,1,0,0:0:0:0:
64,192,96565,1,8,0:0:0:0:
448,192,96565,128,0,96758:0:0:0:0:
320,192,96758,128,0,96952:0:0:0:0:
192,192,96758,1,0,0:0:0:0:
448,192,96855,1,0,0:0:0:0:
192,192,96952,1,2,0:0:0:0:
64,192,96952,1,0,0:0:0:0:
448,192,97048,1,8,0:0:0:0:
320,192,97145,1,0,0:0:0:0:
64,192,97145,128,0,97339:0:0:0:0:
192,192,97242,1,2,0:0:0:0:
320,192,97339,1,2,0:0:0:0:
448,192,97339,128,0,97726:0:0:0:0:
192,192,97436,1,8,0:0:0:0:
64,192,97532,1,0,0:0:0:0:
320,192,97629,1,0,0:0:0:0:
192,192,97726,1,6,0:0:0:0:
64,192,97726,128,0,97919:0:0:0:0:
448,192,97919,128,0,98113:0:0:0:0:
320,192,97919,1,0,0:0:0:0:
192,192,98016,1,0,0:0:0:0:
64,192,98113,1,0,0:0:0:0:
320,192,98113,1,8,0:0:0:0:
448,192,98210,1,0,0:0:0:0:
320,192,98307,1,2,0:0:0:0:
192,192,98307,128,0,98500:0:0:0:0:
64,192,98500,128,0,98694:0:0:0:0:
448,192,98500,1,2,0:0:0:0:
448,192,98694,128,0,98887:0:0:0:0:
192,192,98694,1,8,0:0:0:0:
64,192,98790,1,0,0:0:0:0:
320,192,98887,1,0,0:0:0:0:
192,192,98887,1,2,0:0:0:0:
64,192,98984,1,2,0:0:0:0:
448,192,99081,128,0,99274:0:0:0:0:
320,192,99081,1,2,0:0:0:0:
192,192,99177,1,2,0:0:0:0:
64,192,99274,1,0,0:0:0:0:
320,192,99274,1,6,0:0:0:0:
192,192,99468,1,2,0:0:0:0:
448,192,99468,1,0,0:0:0:0:
64,192,99565,1,0,0:0:0:0:
320,192,99661,128,0,99855:0:0:0:0:
448,192,99661,1,10,0:0:0:0:
192,192,99855,128,0,100048:0:0:0:0:
64,192,99855,1,2,0:0:0:0:
448,192,99952,1,2,0:0:0:0:
320,192,100048,1,2,0:0:0:0:
192,192,100145,1,2,0:0:0:0:
64,192,100242,1,0,0:0:0:0:
320,192,100242,1,2,0:0:0:0:
192,192,100339,1,0,0:0:0:0:
448,192,100339,1,2,0:0:0:0:
64,192,100436,128,2,100823:0:0:0:0:
192,192,100629,1,6,0:0:0:0:
320,192,100629,1,0,0:0:0:0:
448,192,100823,128,0,101016:0:0:0:0:
320,192,101016,128,0,101210:0:0:0:0:
64,192,101210,128,0,101403:0:0:0:0:
448,192,101403,128,0,101597:0:0:0:0:
320,192,101500,1,0,0:0:0:0:
192,192,101597,1,0,0:0:0:0:
64,192,101597,1,0,0:0:0:0:
320,192,101694,1,0,0:0:0:0:
448,192,101790,1,0,0:0:0:0:
64,192,101790,1,0,0:0:0:0:
320,192,101887,1,0,0:0:0:0:
192,192,101984,1,0,0:0:0:0:
64,192,101984,1,0,0:0:0:0:
320,192,102081,1,0,0:0:0:0:
448,192,102081,1,0,0:0:0:0:
192,192,102177,1,0,0:0:0:0:
64,192,102177,1,0,0:0:0:0:
448,192,102274,1,0,0:0:0:0:
320,192,102371,1,0,0:0:0:0:
192,192,102371,1,4,0:0:0:0:
64,192,102371,1,2,0:0:0:0:
