osu file format v14

[General]
AudioFilename: laplace.mp3
AudioLeadIn: 0
PreviewTime: 52819
Countdown: 0
SampleSet: Soft
StackLeniency: 0.3
Mode: 0
LetterboxInBreaks: 0
EpilepsyWarning: 1
WidescreenStoryboard: 1

[Editor]
Bookmarks: 15657,28044,40432,59012,76044,89980
DistanceSpacing: 0.5
BeatDivisor: 4
GridSize: 32
TimelineZoom: 3.199999

[Metadata]
Title:Laplace
TitleUnicode:Laplace
Artist:sakuzyo
ArtistUnicode:削除
Creator:Hakurei Yoru
Version:Another
Source:BMS
Tags:MirinH THE BMS OF FIGHTERS 2011 - Intersection of conflict - 140 ArtBreaks 3ight Selentia Mackenzie TT Mouse ZZHBOY Spring liaoxingyao Kencho buhei Wing My Way Vert yf_bmp
BeatmapID:931487
BeatmapSetID:431924

[Difficulty]
HPDrainRate:6
CircleSize:4.5
OverallDifficulty:8
ApproachRate:9.3
SliderMultiplier:2
SliderTickRate:1

[Events]
//Background and Video events
0,0,"wmwwudi.jpg",0,0
//Break Periods
//Storyboard Layer 0 (Background)
//Storyboard Layer 1 (Fail)
//Storyboard Layer 2 (Pass)
//Storyboard Layer 3 (Foreground)
//Storyboard Sound Samples

[TimingPoints]
174,387.096774193548,4,2,1,40,1,0
2883,-100,4,2,1,5,0,0
3270,-133.333333333333,4,2,1,30,0,0
5399,-100,4,2,1,30,0,0
5786,-133.333333333333,4,2,1,30,0,0
9270,-100,4,2,1,30,0,0
9464,-133.333333333333,4,2,1,30,0,0
11593,-100,4,2,1,30,0,0
11980,-133.333333333333,4,2,1,30,0,0
13335,-200,4,2,1,30,0,0
13915,-133.333333333333,4,2,1,30,0,0
14399,-100,4,2,1,30,0,0
15657,-100,4,2,1,60,0,0
21851,-133.333333333333,4,2,1,60,0,0
22238,-100,4,2,1,60,0,0
26496,-133.333333333333,4,2,1,65,0,0
26883,-100,4,2,1,75,0,0
27270,-66.6666666666667,4,2,1,75,0,0
28044,-100,4,2,2,75,0,0
28238,-100,4,2,1,75,0,0
40044,-83.3333333333333,4,2,1,45,0,0
40432,-83.3333333333333,4,2,1,70,0,0
43141,-100,4,2,1,70,0,0
43335,-66.6666666666667,4,2,1,70,0,0
43528,-83.3333333333333,4,2,1,70,0,0
48561,-66.6666666666667,4,2,1,70,0,0
48851,-83.3333333333333,4,2,1,80,0,0
50690,-83.3333333333333,4,2,2,80,0,0
52044,-133.333333333333,4,2,1,80,0,0
52432,-200,4,2,1,80,0,0
52915,-83.3333333333333,4,2,1,5,0,0
53593,-133.333333333333,4,2,1,30,0,0
57851,-100,4,2,1,30,0,0
58819,-100,4,2,1,75,0,0
59012,-100,4,2,1,60,0,0
60561,-83.3333333333333,4,2,1,60,0,0
60948,-100,4,2,1,60,0,0
65206,-66.6666666666667,4,2,1,60,0,0
65593,-133.333333333333,4,2,1,60,0,0
65883,-83.3333333333333,4,2,1,60,0,0
66754,-66.6666666666667,4,2,2,60,0,0
67141,-100,4,2,1,60,0,0
67528,-83.3333333333333,4,2,1,60,0,0
68690,-133.333333333333,4,2,1,60,0,0
68883,-83.3333333333333,4,2,1,60,0,0
70238,-100,4,2,1,60,0,0
70625,-83.3333333333333,4,2,1,60,0,0
71012,-66.6666666666667,4,2,2,75,0,0
71399,-83.3333333333333,4,2,1,60,0,0
75464,-83.3333333333333,4,2,2,60,0,0
76044,-100,4,2,1,45,0,0
76819,-100,4,2,1,75,0,0
77593,-100,4,2,3,65,0,0
77690,-100,4,2,3,5,0,0
77786,-200,4,2,3,80,0,0
77980,-200,4,2,3,5,0,0
78367,-200,4,2,3,80,0,0
78561,-200,4,2,3,5,0,0
79141,-200,4,2,3,80,0,0
79335,-200,4,2,3,5,0,0
79722,-200,4,2,3,80,0,0
80109,-200,4,2,3,5,0,0
80303,-200,4,2,3,80,0,0
80496,-200,4,2,3,5,0,0
80690,-200,4,2,3,80,0,0
80883,-200,4,2,3,5,0,0
81464,-200,4,2,3,80,0,0
81657,-200,4,2,3,5,0,0
82238,-200,4,2,3,80,0,0
82432,-200,4,2,3,5,0,0
83012,-200,4,2,3,80,0,0
83206,-200,4,2,3,5,0,0
83399,-200,4,2,3,80,0,0
83593,-200,4,2,3,5,0,0
83786,-100,4,2,3,45,0,0
83883,-100,4,2,3,5,0,0
83980,-200,4,2,3,45,0,0
84561,-133.333333333333,4,2,1,45,0,0
87657,-133.333333333333,4,2,1,45,0,0
88238,-133.333333333333,4,2,2,75,0,0
89109,-100,4,2,2,75,0,0
89593,-83.3333333333333,4,2,1,45,0,0
89980,-66.6666666666667,4,2,1,75,0,1
90367,-83.3333333333333,4,2,1,75,0,1
93077,-66.6666666666667,4,2,1,75,0,1
93367,-50,4,2,1,75,0,1
93657,-100,4,2,1,75,0,1
94044,-83.3333333333333,4,2,1,75,0,1
95012,-133.333333333333,4,2,1,75,0,1
95399,-83.3333333333333,4,2,1,75,0,1
96948,-83.3333333333333,4,2,2,75,0,1
97141,-83.3333333333333,4,2,1,75,0,1
97335,-83.3333333333333,4,2,2,90,0,1
97528,-83.3333333333333,4,2,1,90,0,1
100045,-83.3333333333333,4,2,2,90,0,1
100625,-83.3333333333333,4,2,2,100,0,1
100722,-83.3333333333333,4,2,2,5,0,1
101399,-83.3333333333333,4,2,2,40,0,1
101786,-133.333333333333,4,2,1,55,0,0
102367,-133.333333333333,4,2,1,100,0,0
102464,-133.333333333333,4,2,2,15,0,0
108561,-133.333333333333,4,2,1,5,0,0

[Colours]
Combo1 : 255,128,255
Combo2 : 192,192,192
Combo3 : 18,124,255
Combo4 : 242,24,57
Combo5 : 128,255,255
Combo6 : 128,128,255

[HitObjects]
256,192,1141,12,0,2883,0:0:0:0:
443,316,3270,6,0,L|437:159,1,150.000005722046,4|0,1:0|0:0,0:0:0:0:
69,68,4044,2,0,L|75:225,1,150.000005722046,2|0,0:0|0:0,0:0:0:0:
109,308,4625,1,0,0:0:0:0:
109,308,4722,1,0,0:0:0:0:
109,308,4819,54,0,P|153:276|173:235,1,75.0000028610231
169,23,5206,1,0,0:0:0:0:
204,104,5399,1,2,0:0:0:0:
213,115,5496,1,2,0:0:0:0:
222,126,5593,2,0,P|253:134|290:136,1,50,2|0,0:0|0:0,0:0:0:0:
344,87,5786,2,0,L|494:84,1,150.000005722046
498,261,6367,22,0,L|348:258,1,150.000005722046
37,37,7141,2,0,L|187:40,1,150.000005722046,2|0,0:0|0:0,0:0:0:0:
179,143,7722,1,0,0:0:0:0:
113,186,7915,54,0,P|82:231|135:317,1,150.000005722046
164,246,8496,1,0,0:0:0:0:
293,152,8690,1,0,0:0:0:0:
179,143,8883,2,0,L|50:138,1,112.500004291535,2|0,0:0|0:0,0:0:0:0:
21,35,9270,2,0,P|15:60|18:85,1,50,2|0,0:0|0:0,0:0:0:0:
66,138,9464,22,0,L|233:132,1,150.000005722046,0|0,1:0|0:0,0:0:0:0:
319,62,10044,1,0,0:0:0:0:
378,109,10238,2,0,P|391:147|369:199,1,75.0000028610231,2|0,0:0|0:0,0:0:0:0:
367,354,10819,1,0,0:0:0:0:
367,354,10915,1,0,0:0:0:0:
367,354,11012,54,0,L|287:349,1,75.0000028610231
200,90,11399,1,0,0:0:0:0:
85,133,11593,1,2,0:0:0:0:
79,143,11690,1,2,0:0:0:0:
73,154,11786,2,0,P|70:185|74:205,1,50,2|0,0:0|0:0,0:0:0:0:
122,260,11980,2,0,L|280:257,1,150
343,212,12561,22,0,P|360:152|322:64,1,150.000005722046
73,154,13141,1,0,0:0:0:0:
25,217,13335,2,0,P|9:261|43:318,1,100,2|0,0:0|0:0,0:0:0:0:
107,225,13915,2,0,L|144:221,1,37.5000014305115,2|0,1:0|0:0,0:0:0:0:
288,230,14109,70,0,P|250:227|215:238,1,75.0000028610231,4|2,0:0|0:0,0:0:0:0:
165,287,14399,2,2,P|160:304|169:347,1,50
237,384,14690,1,0,0:0:0:0:
222,152,14883,2,0,L|172:156,1,50,0|0,1:0|0:0,0:0:0:0:
120,75,15077,2,0,L|169:79,1,50,0|0,3:0|3:0,3:0:0:0:
394,194,15270,2,0,L|332:189,1,50,0|0,1:0|0:0,0:0:0:0:
295,134,15464,2,0,P|294:109|303:86,1,50,0|0,3:0|3:0,3:0:0:0:
344,190,15657,6,0,P|284:206|219:134,1,150,4|0,1:0|0:0,0:0:0:0:
222,152,16044,1,2,0:3:0:0:
147,31,16238,1,0,3:0:0:0:
147,31,16335,1,0,3:0:0:0:
147,31,16432,2,0,P|96:18|47:31,1,100,2|0,0:0|0:0,0:0:0:0:
0,144,16819,2,0,P|51:157|100:144,1,100,0|2,0:0|0:0,0:0:0:0:
279,354,17206,6,0,L|167:350,1,100,0|0,1:0|0:0,0:0:0:0:
374,272,17593,1,2,0:3:0:0:
456,287,17786,1,0,3:0:0:0:
456,287,17883,1,0,3:0:0:0:
456,287,17980,2,0,L|447:346,1,50,2|0,0:0|0:0,0:0:0:0:
366,222,18173,2,0,L|375:281,1,50,0|0,3:0|3:0,3:0:0:0:
473,202,18367,2,0,L|480:152,1,50
341,86,18561,2,0,L|348:135,1,50,2|0,3:2|3:0,3:0:0:0:
263,292,18754,6,0,P|238:233|328:166,1,150,0|0,1:0|0:0,0:0:0:0:
348,135,19141,2,0,L|454:134,1,100,2|2,0:3|0:0,0:0:0:0:
465,103,19432,1,0,3:0:0:0:
482,73,19528,1,2,3:2:0:0:
381,21,19722,1,0,0:0:0:0:
366,222,19915,1,2,0:0:0:0:
375,255,20012,1,0,0:0:0:0:
384,288,20109,1,2,3:2:0:0:
393,321,20206,1,0,3:0:0:0:
404,354,20303,54,0,P|337:366|293:347,1,100,0|0,1:0|0:0,0:0:0:0:
43,237,20690,1,2,0:3:0:0:
112,318,20883,1,0,3:0:0:0:
112,318,20980,1,0,3:0:0:0:
112,318,21077,2,0,L|240:307,1,100,2|0,0:0|3:0,0:0:0:0:
222,276,21367,1,0,3:0:0:0:
233,242,21464,1,2,0:0:0:0:
59,42,21657,1,0,3:0:0:0:
57,81,21754,1,0,3:0:0:0:
74,114,21851,6,0,P|116:138|166:137,1,75.0000028610231,0|0,1:0|0:0,0:0:0:0:
407,57,22238,2,0,P|357:57|316:95,1,100,2|0,0:3|0:0,0:0:0:0:
383,126,22528,1,0,3:0:0:0:
383,126,22625,1,2,3:2:0:0:
239,292,22819,2,0,L|243:353,2,50,2|0|2,0:0|3:0|0:0,0:0:0:0:
317,244,23206,1,0,0:0:0:0:
162,247,23399,5,0,1:0:0:0:
319,158,23593,1,0,0:0:0:0:
321,329,23786,1,2,0:3:0:0:
105,191,23980,1,0,3:0:0:0:
105,191,24077,1,0,3:0:0:0:
105,191,24173,2,0,P|149:171|198:180,1,100,2|0,0:0|0:0,0:0:0:0:
493,96,24561,2,0,L|435:92,1,50,2|0,0:0|0:0,0:0:0:0:
368,85,24754,2,0,P|365:51|377:19,1,50,0|0,3:0|3:0,3:0:0:0:
462,171,24948,54,0,P|481:222|452:268,1,100,0|0,1:0|0:0,0:0:0:0:
321,329,25335,1,2,0:3:0:0:
225,246,25528,1,0,3:0:0:0:
225,246,25625,1,0,3:0:0:0:
225,246,25722,2,0,L|298:239,1,50,2|0,0:0|0:0,0:0:0:0:
321,329,25915,2,0,L|271:324,1,50,0|0,3:0|3:0,3:0:0:0:
150,207,26109,2,0,L|154:157,1,50,2|0,0:0|0:0,0:0:0:0:
156,20,26303,1,0,3:0:0:0:
123,7,26399,1,0,3:0:0:0:
88,13,26496,6,0,P|71:74|101:124,1,112.500004291535,4|0,0:3|0:0,0:0:0:0:
154,157,26883,6,0,L|324:145,1,150,0|0,1:0|0:0,0:0:0:0:
379,83,27270,1,2,0:0:0:0:
405,111,27367,54,0,P|374:121|307:103,1,75.0000028610231,4|0,3:2|3:0,3:0:0:0:
212,261,27561,6,0,P|249:256|285:267,1,75.0000028610231,4|0,3:2|0:0,0:0:0:0:
337,334,27754,5,2,0:0:0:0:
306,355,27851,1,0,3:0:0:0:
268,355,27948,1,0,3:0:0:0:
240,336,28044,54,0,P|179:325|135:338,1,100,4|2,1:2|0:0,0:0:0:0:
79,373,28335,2,0,P|39:375|18:370,1,50,0|8,3:0|0:0,0:0:0:0:
119,238,28625,1,0,3:0:0:0:
141,211,28722,1,0,3:0:0:0:
165,186,28819,2,0,L|161:60,1,100,0|0,1:0|3:0,0:0:0:0:
17,2,29206,2,0,P|1:51|34:115,1,100,2|0,0:0|1:0,0:0:0:0:
329,120,29593,5,0,1:0:0:0:
190,14,29786,1,0,1:0:0:0:
165,186,29980,1,10,0:0:0:0:
329,120,30173,1,0,3:0:0:0:
329,120,30270,1,0,3:0:0:0:
329,120,30367,1,2,1:2:0:0:
227,107,30561,1,0,3:0:0:0:
258,216,30754,2,0,P|311:241|365:233,1,100,2|0,0:0|1:0,0:0:0:0:
419,206,31044,1,2,0:0:0:0:
415,284,31141,38,0,L|409:386,1,100,0|2,1:0|0:0,0:0:0:0:
409,383,31432,1,0,3:0:0:0:
409,383,31528,1,8,0:0:0:0:
106,325,31722,1,2,3:2:0:0:
117,358,31819,2,0,L|125:283,1,50,0|0,1:0|0:0,3:0:0:0:
66,125,32012,1,0,3:0:0:0:
49,155,32109,2,0,L|57:230,1,50,0|0,3:0|3:0,3:0:0:0:
132,228,32303,2,0,L|264:214,1,100,2|0,0:0|1:0,0:0:0:0:
397,80,32593,1,2,3:2:0:0:
374,106,32690,22,0,P|318:113|264:77,1,100,2|2,1:2|0:0,0:0:0:0:
442,166,33077,2,0,P|476:210|471:275,1,100,8|0,0:0|3:0,0:0:0:0:
440,316,33367,2,0,P|404:327|374:319,1,50,0|0,3:0|1:0,3:0:0:0:
197,181,33657,2,0,L|255:175,1,50,0|0,3:0|3:0,3:0:0:0:
306,215,33851,2,0,P|309:246|302:272,1,50,2|0,0:0|0:0,0:0:0:0:
249,320,34044,1,0,1:0:0:0:
249,320,34141,1,0,3:0:0:0:
249,320,34238,6,0,P|187:314|132:337,1,100,0|2,1:0|0:0,0:0:0:0:
29,174,34625,2,0,L|168:178,1,100,8|0,0:0|3:0,0:0:0:0:
163,179,34915,1,0,3:0:0:0:
197,181,35012,1,2,1:2:0:0:
399,196,35206,1,0,3:0:0:0:
324,130,35399,2,0,P|321:81|346:39,1,100,2|0,0:0|1:0,0:0:0:0:
494,172,35786,38,0,P|496:226|464:271,1,100,0|0,1:0|1:0,0:0:0:0:
230,267,36173,1,8,0:0:0:0:
399,196,36367,1,0,3:0:0:0:
399,196,36464,1,0,3:0:0:0:
399,196,36561,1,2,1:2:0:0:
376,381,36754,2,0,P|368:353|376:321,1,50,0|2,0:0|0:0,3:0:0:0:
399,196,36948,2,0,P|407:224|399:256,1,50,2|0,0:0|3:0,0:0:0:0:
323,261,37141,2,0,L|265:256,1,50,0|0,1:0|3:0,3:0:0:0:
65,323,37335,22,0,P|113:311|162:318,1,100,0|2,1:0|0:0,0:0:0:0:
193,334,37625,1,0,3:0:0:0:
214,361,37722,1,8,0:0:0:0:
291,166,37915,1,2,3:2:0:0:
264,189,38012,2,0,P|236:194|208:193,1,50,2|0,3:2|1:0,3:0:0:0:
36,93,38206,1,0,3:0:0:0:
70,85,38303,2,0,P|96:94|120:109,1,50,0|0,3:0|3:0,3:0:0:0:
65,323,38496,2,0,P|61:266|88:232,1,100,2|0,0:0|1:0,0:0:0:0:
184,201,38786,1,2,0:0:0:0:
185,236,38883,6,0,P|228:277|303:271,1,100,0|0,1:0|1:0,1:0:0:0:
437,196,39270,1,8,0:0:0:0:
456,160,39367,1,2,0:0:0:0:
448,120,39464,1,0,3:0:0:0:
419,91,39561,1,0,3:0:0:0:
380,82,39657,2,0,L|385:121,2,25,0|0|0,1:2|0:0|3:0,0:0:0:0:
314,111,39851,2,0,L|323:195,1,50,0|0,1:0|0:0,0:0:0:0:
329,337,40044,6,0,L|337:277,1,59.9999981689454,0|0,1:0|1:0,1:0:0:0:
236,65,40238,2,0,L|245:128,1,59.9999981689454,0|0,1:0|1:0,1:0:0:0:
192,275,40432,53,4,1:3:0:0:
56,210,40625,1,2,1:2:0:0:
56,210,40722,1,0,3:0:0:0:
56,210,40819,1,8,0:0:0:0:
53,367,41012,1,0,3:0:0:0:
31,331,41109,1,0,3:0:0:0:
45,291,41206,6,0,P|81:283|120:285,1,59.9999981689454,2|0,1:2|0:0,0:0:0:0:
197,335,41399,2,0,L|191:260,1,59.9999981689454,0|0,3:0|3:0,3:0:0:0:
120,67,41593,2,0,L|124:126,1,59.9999981689454,2|0,0:0|0:0,0:0:0:0:
169,189,41786,2,0,P|222:190|241:184,1,59.9999981689454,0|0,1:0|3:0,0:0:0:0:
300,81,41980,5,0,1:0:0:0:
430,205,42173,1,2,1:2:0:0:
434,163,42270,1,0,3:0:0:0:
438,121,42367,1,8,0:0:0:0:
297,262,42561,1,0,3:0:0:0:
303,291,42657,1,0,3:0:0:0:
310,320,42754,21,2,3:2:0:0:
314,278,42851,1,0,3:0:0:0:
318,236,42948,1,0,1:0:0:0:
324,194,43044,1,0,3:0:0:0:
258,154,43141,2,0,P|221:156|200:163,1,50,0|0,1:0|0:0,0:0:0:0:
154,213,43335,2,0,B|118:223|118:223|60:206,1,75.0000028610231,0|0,1:0|1:0,0:0:0:0:
31,33,43528,22,0,B|56:73|56:73|42:158,1,119.999996337891,2|0,1:2|1:0,1:0:0:0:
24,267,43819,2,0,P|8:242|3:212,1,59.9999981689454,2|8,3:2|0:0,0:0:0:0:
175,78,44012,1,0,0:0:0:0:
140,101,44109,2,0,B|129:173|129:173|154:213,1,119.999996337891,2|0,0:0|1:0,1:0:0:0:
324,194,44496,1,0,3:0:0:0:
324,194,44593,1,0,3:0:0:0:
324,194,44690,2,0,P|347:248|321:316,1,119.999996337891,2|0,0:0|1:0,0:0:0:0:
391,344,44980,1,0,3:0:0:0:
328,380,45077,6,0,L|190:374,1,119.999996337891,0|2,1:0|1:2,0:0:0:0:
120,361,45367,2,0,L|60:365,1,59.9999981689454,0|8,3:0|0:0,0:0:0:0:
46,212,45657,1,0,3:0:0:0:
46,212,45754,1,0,3:0:0:0:
46,212,45851,6,0,P|117:224|159:195,1,119.999996337891,2|0,0:0|1:0,0:0:0:0:
180,83,46141,1,0,0:0:0:0:
165,120,46238,2,0,L|249:117,1,59.9999981689454,0|0,1:0|0:0,0:0:0:0:
97,152,46432,2,0,L|37:149,1,59.9999981689454,0|0,1:0|0:0,0:0:0:0:
324,194,46625,70,0,P|395:182|437:211,1,119.999996337891,0|0,1:0|1:0,0:0:0:0:
262,255,47012,1,8,0:0:0:0:
262,255,47109,1,0,0:0:0:0:
262,255,47206,2,0,L|228:250,2,29.9999990844727,0|0|0,3:0|3:0|3:0,3:0:0:0:
349,285,47399,70,0,P|344:324|330:347,1,59.9999981689454,0|2,1:0|0:0,0:0:0:0:
161,219,47593,2,0,P|161:189|175:163,1,59.9999981689454,0|0,3:0|0:0,0:0:0:0:
425,92,47786,1,2,0:0:0:0:
385,104,47883,2,0,P|359:89|338:67,1,59.9999981689454,0|0,1:0|0:0,0:0:0:0:
209,124,48077,1,0,0:0:0:0:
189,148,48173,54,0,P|240:134|268:136,1,59.9999981689454,4|0,1:2|0:0,0:0:0:0:
325,173,48367,1,2,0:0:0:0:
189,148,48561,2,0,P|284:143|327:175,1,150.000005722046,8|0,0:0|3:0,0:0:0:0:
352,248,48851,1,0,3:0:0:0:
352,248,48948,1,0,1:0:0:0:
444,37,49141,1,0,3:0:0:0:
470,50,49238,1,0,3:0:0:0:
496,64,49335,21,8,1:2:0:0:
454,69,49432,1,0,0:0:0:0:
412,74,49528,1,2,3:2:0:0:
370,79,49625,1,2,3:2:0:0:
301,45,49722,6,0,P|247:62|169:28,1,119.999996337891,0|0,1:0|1:0,0:0:0:0:
25,207,50109,2,0,L|158:201,1,119.999996337891,8|0,0:0|3:0,0:0:0:0:
214,169,50399,1,0,3:0:0:0:
227,207,50496,2,0,L|303:212,1,59.9999981689454,0|0,1:0|0:0,0:0:0:0:
370,79,50690,6,0,L|366:138,1,59.9999981689454,2|2,0:0|0:0,0:0:0:0:
415,368,50883,2,0,L|418:308,1,59.9999981689454,2|2,0:0|0:0,0:0:0:0:
506,120,51077,2,0,L|503:180,1,59.9999981689454,2|2,0:0|0:0,0:0:0:0:
447,239,51270,54,0,L|309:231,1,119.999996337891,4|0,1:3|0:0,0:0:0:0:
227,207,51657,1,0,1:0:0:0:
162,70,51851,1,0,3:0:0:0:
168,81,51948,1,0,3:0:0:0:
172,92,52044,2,0,L|167:140,1,37.5000014305115,2|0,0:0|0:0,0:0:0:0:
60,139,52238,2,0,L|68:188,1,37.5000014305115,0|0,3:0|3:0,3:0:0:0:
155,198,52432,5,0,3:0:0:0:
152,216,52528,1,0,3:0:0:0:
78,246,52625,1,0,3:0:0:0:
81,264,52721,1,0,3:0:0:0:
145,305,52819,6,0,L|139:346,1,25,0|0,1:0|0:0,0:0:0:0:
430,324,53593,54,0,B|415:293|415:293|430:264|430:264|408:217|433:172,1,150.000005722046,2|0,0:0|3:0,0:0:0:0:
256,43,54173,1,0,0:0:0:0:
230,121,54367,54,0,P|161:141|131:136,1,75.0000028610231,2|0,0:0|0:0,0:0:0:0:
18,325,54754,2,0,P|87:305|117:313,1,75.0000028610231
152,353,55044,1,0,3:0:0:0:
152,353,55141,1,2,3:2:0:0:
349,304,55722,1,0,0:0:0:0:
430,283,55915,22,0,P|459:208|415:143,1,150.000005722046,2|0,0:0|0:0,0:0:0:0:
230,166,56496,1,0,0:0:0:0:
301,220,56690,2,0,L|376:218,1,75.0000028610231
170,319,57077,2,0,L|95:321,1,75.0000028610231,0|0,0:0|3:0,0:0:0:0:
32,364,57367,1,0,3:0:0:0:
32,364,57464,54,0,P|19:325|82:256,1,112.500004291535
51,266,57851,2,0,P|10:223|13:182,1,100
283,53,58238,2,0,L|270:180,1,100,0|0,0:0|3:0,0:0:0:0:
244,178,58528,2,0,L|205:208,1,50,2|0,0:0|3:0,0:0:0:0:
402,189,58819,1,0,3:0:0:0:
424,215,58915,1,0,3:0:0:0:
447,240,59012,38,0,L|443:112,1,100,0|0,1:0|1:0,1:0:0:0:
358,38,59399,1,8,0:0:0:0:
322,323,59593,1,0,3:0:0:0:
322,323,59689,1,0,3:0:0:0:
322,323,59786,2,0,L|326:195,1,100,2|0,1:2|0:0,0:0:0:0:
208,1,60173,2,0,L|209:76,1,50,2|0,0:0|0:0,0:0:0:0:
150,231,60367,2,0,L|149:181,1,50,0|0,1:0|0:0,0:0:0:0:
237,115,60561,6,0,B|172:138|178:89|99:126,1,119.999996337891,0|0,1:0|1:0,1:0:0:0:
274,220,60948,1,8,0:0:0:0:
58,324,61141,1,0,3:0:0:0:
58,324,61238,1,0,3:0:0:0:
58,324,61335,2,0,P|104:306|152:317,1,100,0|0,1:0|0:0,0:0:0:0:
304,360,61722,2,0,P|337:341|352:327,1,50,2|0,0:0|0:0,0:0:0:0:
274,220,61915,2,0,P|273:258|278:277,1,50,0|0,1:0|3:0,3:0:0:0:
414,259,62109,22,0,L|413:151,1,100,0|0,1:0|1:0,1:0:0:0:
348,0,62496,1,8,0:0:0:0:
439,92,62690,1,0,3:0:0:0:
389,89,62786,1,0,3:0:0:0:
339,83,62883,2,0,L|277:86,1,50,0|0,1:0|0:0,0:0:0:0:
271,170,63077,2,0,L|274:232,1,50,0|0,3:0|3:0,3:0:0:0:
229,330,63270,5,8,0:0:0:0:
197,314,63367,1,2,0:0:0:0:
162,309,63464,1,0,3:0:0:0:
127,315,63561,1,0,3:0:0:0:
97,333,63657,6,0,P|82:283|103:236,1,100,0|0,1:0|3:0,1:0:0:0:
202,39,64044,1,0,3:0:0:0:
202,39,64141,1,0,3:0:0:0:
202,39,64238,2,0,L|192:153,1,100,2|0,3:2|1:0,0:0:0:0:
190,208,64528,1,0,0:0:0:0:
224,199,64625,1,0,3:0:0:0:
258,202,64722,1,0,3:0:0:0:
322,229,64819,5,0,1:0:0:0:
323,179,64915,1,0,0:0:0:0:
351,137,65012,1,0,1:0:0:0:
398,119,65109,1,0,3:0:0:0:
466,132,65206,6,0,B|459:245|459:245|388:207,1,150.000005722046,0|0,1:0|1:0,1:0:0:0:
167,169,65593,54,0,L|111:166,1,37.5000014305115,0|0,3:0|1:0,1:0:0:0:
26,220,65786,1,0,3:0:0:0:
70,215,65883,6,0,L|198:207,1,119.999996337891,2|2,0:0|0:0,0:0:0:0:
375,326,66173,1,0,1:0:0:0:
402,302,66270,1,0,1:0:0:0:
410,266,66367,2,0,P|408:219|399:195,1,59.9999981689454,2|0,1:2|0:0,0:0:0:0:
362,7,66561,2,0,P|355:36|356:66,1,59.9999981689454,0|0,3:0|3:0,3:0:0:0:
375,136,66754,6,2,L|297:132,1,75.0000028610231
86,80,66948,2,2,L|167:77,1,75.0000028610231
250,80,67141,54,0,P|263:134|232:182,1,100,2|0,1:2|1:0,0:0:0:0:
167,169,67432,1,2,0:0:0:0:
106,222,67528,2,0,P|100:259|110:287,1,59.9999981689454,8|0,0:0|0:0,0:0:0:0:
165,344,67722,1,0,3:0:0:0:
165,344,67819,1,0,3:0:0:0:
165,344,67915,2,0,L|304:340,1,119.999996337891,0|0,1:0|1:0,0:0:0:0:
356,365,68206,1,2,0:0:0:0:
345,290,68303,6,0,B|339:209|339:209|355:171,1,119.999996337891,0|0,1:0|1:0,1:0:0:0:
392,55,68593,1,0,3:0:0:0:
362,83,68690,6,0,L|320:82,1,37.5000014305115,8|0,0:0|0:0,0:0:0:0:
250,80,68883,54,0,L|190:78,1,59.9999981689454,0|0,1:0|1:0,1:0:0:0:
115,71,69077,2,0,L|70:69,4,29.9999990844727,0|0|0|0|0,1:0|3:0|3:0|3:0|1:0,3:0:0:0:
144,139,69367,1,0,0:0:0:0:
178,202,69464,2,0,P|182:239|172:267,1,59.9999981689454,0|0,1:0|0:0,0:0:0:0:
124,311,69657,2,0,L|64:309,1,59.9999981689454,8|0,0:0|0:0,0:0:0:0:
221,354,69851,5,0,1:0:0:0:
236,321,69948,1,2,0:0:0:0:
299,350,70044,1,2,0:0:0:0:
314,317,70141,1,0,1:0:0:0:
382,348,70238,6,0,P|446:355|490:327,1,100,0|0,1:0|1:0,1:0:0:0:
503,128,70528,1,0,3:0:0:0:
472,168,70625,2,0,B|404:168|404:168|357:188|357:188|272:186,1,179.999994506836,10|0,1:2|0:0,0:0:0:0:
259,254,71012,54,2,P|230:223|224:178,1,75.0000028610231
358,5,71206,2,2,P|345:45|306:71,1,75.0000028610231
245,64,71399,6,0,L|209:63,4,29.9999990844727,0|0|0|0|0,1:0|3:0|1:0|3:0|1:0,3:0:0:0:
36,98,71690,1,0,3:0:0:0:
88,151,71786,2,0,P|125:153|151:144,1,59.9999981689454,8|0,0:0|0:0,0:0:0:0:
259,254,71980,2,0,P|227:233|200:228,1,59.9999981689454,0|0,1:0|0:0,0:0:0:0:
76,234,72173,2,0,L|80:272,3,29.9999990844727,0|0|0|0,3:0|3:0|3:0|3:0,3:0:0:0:
139,305,72367,2,0,L|143:343,3,29.9999990844727,0|0|0|0,3:0|3:0|3:0|3:0,3:0:0:0:
133,364,72561,2,0,P|199:348|259:380,1,119.999996337891,0|0,1:0|1:0,0:0:0:0:
484,243,72851,1,0,0:0:0:0:
457,276,72948,6,0,L|315:268,1,119.999996337891,0|0,1:0|1:0,0:0:0:0:
201,90,73238,1,0,0:0:0:0:
228,123,73335,2,0,L|301:120,1,59.9999981689454,0|0,1:0|3:0,3:0:0:0:
307,110,73528,2,0,L|380:107,1,59.9999981689454,0|0,3:0|3:0,3:0:0:0:
389,92,73722,2,0,L|390:63,4,29.9999990844727,0|0|0|0|0,1:0|3:0|1:0|3:0|1:0,3:0:0:0:
500,27,74012,1,0,1:0:0:0:
467,48,74109,2,0,L|464:110,1,59.9999981689454,0|0,1:0|3:0,3:0:0:0:
337,269,74303,2,2,L|334:209,1,59.9999981689454,2|2,3:2|3:2,3:2:0:0:
254,86,74496,53,0,1:0:0:0:
212,78,74593,1,2,0:0:0:0:
171,88,74690,1,0,1:0:0:0:
142,118,74786,1,2,0:0:0:0:
81,176,74883,5,8,0:0:0:0:
77,134,74980,1,0,3:0:0:0:
75,91,75077,1,0,3:0:0:0:
74,49,75173,1,0,3:0:0:0:
3,11,75270,6,0,P|-2:42|1:74,1,59.9999981689454,0|0,1:0|0:0,0:0:0:0:
125,297,75464,2,2,P|130:265|127:234,1,59.9999981689454
81,176,75657,2,2,L|13:177,1,59.9999981689454
212,212,75851,1,2,0:0:0:0:
241,242,75948,1,2,0:0:0:0:
269,272,76044,22,0,L|406:271,1,100,0|0,1:0|0:0,0:0:0:0:
420,21,76819,5,0,3:0:0:0:
423,35,76915,1,0,3:0:0:0:
426,49,77012,1,0,3:0:0:0:
429,63,77109,1,0,3:0:0:0:
432,77,77206,5,0,3:0:0:0:
400,62,77303,1,0,3:0:0:0:
365,59,77399,1,0,1:0:0:0:
331,68,77496,1,2,3:2:0:0:
302,88,77593,22,0,L|308:167,1,50,4|0,1:0|0:0,0:0:0:0:
353,200,77786,22,0,L|349:249,1,50
209,384,78367,22,0,L|206:335,1,50
49,84,79141,54,0,L|45:133,1,50
110,353,79722,1,2,0:0:0:0:
97,279,79915,22,0,L|93:229,1,50
236,43,80303,54,0,L|232:92,1,50,2|0,0:0|3:0,0:0:0:0:
182,149,80690,22,0,L|185:198,1,50,2|0,0:0|0:0,0:0:0:0:
253,264,81464,54,0,L|256:214,1,50,0|0,0:0|2:0,0:0:0:0:
316,88,82238,22,0,L|319:137,1,50
376,318,83012,54,0,L|379:268,1,50,0|0,0:0|3:0,0:0:0:0:
475,33,83399,22,0,L|478:82,1,50,2|0,0:0|3:0,0:0:0:0:
508,154,83786,22,0,L|505:204,1,50,2|0,0:0|3:0,0:0:0:0:
456,303,83980,22,0,L|452:254,1,50,2|0,0:0|3:0,0:0:0:0:
342,70,84367,1,2,0:0:0:0:
304,235,84561,6,0,B|264:211|264:211|134:208,2,150.000005722046,2|0|2,0:0|3:0|0:0,0:0:0:0:
284,128,85528,1,0,0:0:0:0:
126,141,85722,1,2,0:0:0:0:
126,141,85915,2,0,P|84:198|112:270,1,150.000005722046,2|0,0:0|0:0,0:0:0:0:
236,323,86496,2,0,L|323:321,1,75.0000028610231,2|0,0:0|0:0,0:0:0:0:
388,168,86883,5,0,0:0:0:0:
483,188,87077,1,0,0:0:0:0:
397,183,87270,1,0,3:0:0:0:
333,222,87464,1,0,0:0:0:0:
308,295,87657,5,0,0:0:0:0:
239,327,87851,2,0,P|205:312|183:283,1,75.0000028610231
279,177,88238,6,0,B|272:125|330:112|330:112|379:172|345:254|254:254,1,300.000011444092,4|0,0:3|0:0,0:0:0:0:
201,194,89109,6,0,P|198:169|204:144,1,50,0|0,3:0|3:0,3:0:0:0:
15,232,89303,1,0,3:0:0:0:
45,214,89399,1,0,3:0:0:0:
80,212,89496,1,0,3:0:0:0:
113,221,89593,6,0,P|148:250|154:265,1,59.9999981689454,0|0,1:0|1:0,1:0:0:0:
89,345,89786,2,0,P|73:302|75:286,1,59.9999981689454,0|0,1:3|1:0,1:0:0:0:
290,48,89980,6,0,P|264:115|195:134,1,150.000005722046,4|0,1:2|1:0,0:0:0:0:
147,5,90270,1,0,0:0:0:0:
184,12,90367,2,0,P|205:32|216:60,1,59.9999981689454,8|0,0:0|0:0,0:0:0:0:
115,129,90561,2,8,P|121:100|140:76,1,59.9999981689454,8|0,0:3|0:0,0:3:0:0:
376,126,90754,53,0,1:0:0:0:
344,153,90851,1,0,0:0:0:0:
303,163,90948,1,0,1:0:0:0:
263,150,91044,1,0,0:0:0:0:
188,165,91141,5,8,1:3:0:0:
191,206,91238,1,2,3:2:0:0:
195,247,91335,1,8,3:0:0:0:
200,288,91432,1,0,3:0:0:0:
144,341,91528,6,0,P|78:342|36:374,1,119.999996337891,0|0,1:0|1:0,1:0:0:0:
221,365,91819,1,2,0:2:0:0:
262,371,91915,2,0,P|290:337|297:313,1,59.9999981689454,8|0,0:0|0:0,0:0:0:0:
316,239,92109,2,8,L|235:221,1,59.9999981689454,8|0,3:0|3:0,3:0:0:0:
107,60,92303,2,0,P|102:96|113:131,1,59.9999981689454,0|0,1:0|0:0,0:0:0:0:
205,157,92496,1,0,1:0:0:0:
228,151,92593,1,0,0:0:0:0:
251,144,92690,53,8,1:3:0:0:
204,136,92786,1,0,1:0:0:0:
156,127,92883,1,8,1:3:0:0:
108,119,92980,1,8,1:3:0:0:
32,152,93077,6,0,B|22:200|22:200|46:308,1,150.000005722046,8|2,1:3|0:0,1:0:0:0:
94,356,93367,5,0,0:0:0:0:
94,356,93464,2,0,P|40:373|-21:337,1,100,8|0,1:3|0:0,0:0:0:0:
119,279,93657,54,0,P|175:270|215:305,1,100,8|8,3:0|1:3,0:0:0:0:
326,311,93948,1,8,0:3:0:0:
355,341,94044,2,0,L|280:339,1,59.9999981689454,0|0,1:0|0:0,0:0:0:0:
402,251,94238,2,0,L|461:252,1,59.9999981689454,8|0,1:3|3:0,0:0:0:0:
317,15,94432,1,8,3:0:0:0:
331,48,94528,1,8,3:0:0:0:
345,81,94625,6,0,B|380:68|380:68|490:83,1,119.999996337891,0|0,1:0|1:0,1:0:0:0:
392,143,94915,1,2,0:0:0:0:
400,159,95012,6,0,L|396:209,1,37.5000014305115,8|0,0:0|0:0,0:0:0:0:
314,151,95206,1,0,3:0:0:0:
314,151,95303,1,0,3:0:0:0:
314,151,95399,54,0,B|310:200|310:200|323:232|323:232|315:300,1,119.999996337891,0|0,1:0|1:0,1:0:0:0:
185,290,95690,1,0,0:0:0:0:
203,292,95786,5,8,1:3:0:0:
199,236,95883,1,0,0:0:0:0:
153,198,95980,1,8,3:0:0:0:
100,196,96077,1,8,3:0:0:0:
57,227,96173,6,0,P|51:261|55:290,1,59.9999981689454,0|0,1:0|0:0,0:0:0:0:
273,320,96367,2,0,P|279:287|275:257,1,59.9999981689454,0|0,1:0|0:0,0:0:0:0:
100,196,96561,2,0,P|203:230|255:177,1,179.999994506836,8|0,0:0|0:0,0:0:0:0:
226,59,96948,2,2,P|207:82|198:110,1,59.9999981689454
329,150,97141,2,0,P|312:123|283:104,1,59.9999981689454,8|8,1:3|3:0,0:0:0:0:
344,240,97335,53,8,0:3:0:0:
379,272,97432,1,0,0:0:0:0:
425,280,97528,1,8,0:3:0:0:
471,268,97625,1,8,0:3:0:0:
503,232,97722,6,0,P|514:152|493:71,1,119.999996337891,4|0,1:2|1:0,1:0:0:0:
329,150,98012,1,2,0:0:0:0:
289,122,98109,2,0,P|277:42|299:-39,1,119.999996337891,8|8,0:0|0:3,1:0:0:0:
381,98,98399,1,8,3:0:0:0:
399,132,98496,2,0,P|401:166|338:219,1,119.999996337891,0|0,1:0|1:0,1:0:0:0:
26,229,98883,1,8,1:3:0:0:
63,209,98980,1,0,0:0:0:0:
105,207,99077,1,0,0:0:0:0:
142,226,99173,1,0,0:0:0:0:
165,261,99270,6,0,P|232:287|275:270,1,119.999996337891,0|0,1:0|1:0,1:0:0:0:
476,116,99561,1,2,0:0:0:0:
462,153,99657,2,0,P|395:179|352:162,1,119.999996337891,8|8,0:0|3:0,0:0:0:0:
146,113,99948,1,8,3:0:0:0:
139,136,100045,53,2,0:0:0:0:
190,151,100141,1,2,0:0:0:0:
234,120,100238,1,2,0:0:0:0:
244,66,100335,1,2,0:0:0:0:
213,21,100432,6,8,L|291:14,1,59.9999981689454,8|8,3:0|3:0,3:0:0:0:
462,153,100625,6,0,P|421:242|354:95,1,359.999989013672,4|0,0:0|0:0,0:0:0:0:
346,99,101399,6,0,P|353:146|329:174,1,59.9999981689454,10|0,1:2|0:0,0:0:0:0:
197,312,101593,6,8,L|192:238,1,59.9999981689454,8|8,3:0|3:0,3:0:0:0:
189,181,101786,6,8,L|186:143,1,37.5000014305115,8|8,3:0|3:0,3:0:0:0:
118,275,101980,5,0,3:0:0:0:
117,244,102077,1,0,3:0:0:0:
117,214,102173,1,0,3:0:0:0:
117,187,102270,1,0,3:0:0:0:
44,235,102367,5,4,3:0:0:0:
256,192,102464,12,0,108561,0:0:0:0:
