osu file format v14

[General]
AudioFilename: audio.mp3
AudioLeadIn: 0
PreviewTime: -1
Countdown: 0
SampleSet: Soft
StackLeniency: 0.2
Mode: 0
LetterboxInBreaks: 0
WidescreenStoryboard: 0

[Editor]
Bookmarks: 16665,32665,40666,55416,72665,88665,104665,120665,136666,152666,168666,184666,200666,222666
DistanceSpacing: 0.5
BeatDivisor: 12
GridSize: 32
TimelineZoom: 1.5

[Metadata]
Title:KarmaKarma
TitleUnicode:KarmaKarma
Artist:sakuzyo
ArtistUnicode:sakuzyo
Creator:Shiirn
Version:MirageMirage
Source:
Tags:reAdvent comiket 92 copy paste reAdvent comiket 92 copy paste
BeatmapID:1526614
BeatmapSetID:723227

[Difficulty]
HPDrainRate:8
CircleSize:4
OverallDifficulty:8
ApproachRate:9
SliderMultiplier:1.9
SliderTickRate:1

[Events]
//Background and Video events
0,0,"573779three.jpg",0,0
//Break Periods
2,32866,39066
//Storyboard Layer 0 (Background)
//Storyboard Layer 1 (Fail)
//Storyboard Layer 2 (Pass)
//Storyboard Layer 3 (Foreground)
//Storyboard Sound Samples

[TimingPoints]
666,666.666666666667,3,2,1,75,1,0
72666,-133.333333333333,3,2,1,75,0,0
104666,-100,3,2,1,75,0,1
108166,-66.6666666666667,3,2,1,75,0,1
108666,-100,3,2,1,75,0,1
111999,-100,3,2,1,75,0,0
112666,-100,3,2,1,75,0,1
120499,-100,3,2,1,75,0,0
120666,-100,3,2,1,75,0,1
124166,-66.6666666666667,3,2,1,75,0,1
124666,-100,3,2,1,75,0,1
127832,-100,3,2,1,75,0,0
128666,-100,3,2,1,75,0,1
135666,-100,3,2,1,75,0,0
136999,-66.6666666666667,3,2,1,75,0,0
137332,-100,3,2,1,75,0,0
140999,-50,3,2,1,75,0,0
141332,-100,3,2,1,75,0,0
144666,-200,3,2,1,75,0,0
145999,-100,3,2,1,75,0,0
148666,-200,3,2,1,75,0,0
150332,-100,3,2,1,75,0,0
151843,-100,3,2,2,5,0,0
152666,-133.333333333333,3,2,1,75,0,0
168666,-133.333333333333,3,2,1,75,0,0
184666,-100,3,2,1,75,0,1
188166,-66.6666666666667,3,2,1,75,0,1
188666,-100,3,2,1,75,0,1
191999,-100,3,2,1,75,0,0
192666,-100,3,2,1,75,0,1
200499,-100,3,2,1,75,0,0
200666,-100,3,2,1,75,0,1
204166,-66.6666666666667,3,2,1,75,0,1
204666,-100,3,2,1,75,0,1
207832,-100,3,2,1,75,0,0
208666,-100,3,2,1,75,0,1
212582,-100,3,2,1,75,0,0
212666,-100,3,2,1,75,0,1
214582,-100,3,2,1,75,0,0
214666,-100,3,2,1,75,0,1
216582,-100,3,2,1,75,0,0
216666,-100,3,2,1,75,0,1
218666,-100,3,2,1,75,0,0
220666,-83.3333333333333,3,2,1,75,0,1
221666,-100,3,2,1,75,0,0

[Colours]
Combo1 : 83,134,172
Combo2 : 64,175,27
Combo3 : 54,128,218
Combo4 : 80,186,165

[HitObjects]
135,64,16666,6,0,P|169:51|222:53,1,47.5
262,42,16999,2,0,P|298:41|348:58,1,47.5
399,80,17332,1,0,0:0:0:0:
135,64,17666,6,0,P|169:51|222:53,1,47.5
262,42,17999,2,0,P|298:41|348:58,1,47.5
399,80,18332,2,0,B|401:158,1,71.25
423,184,18666,6,0,P|388:171|336:173,1,47.5
159,200,19332,1,0,0:0:0:0:
419,195,19666,1,0,0:0:0:0:
423,184,19832,6,0,P|388:171|336:173,1,47.5
296,162,20165,2,0,P|259:161|209:178,1,47.5
159,200,20498,1,0,0:0:0:0:
149,212,20666,6,0,L|162:160,1,47.5
240,276,20999,2,0,L|227:224,1,47.5
325,310,21332,1,0,0:0:0:0:
149,212,21666,6,0,L|162:160,1,47.5
240,276,21999,2,0,L|227:224,1,47.5
325,310,22332,1,0,0:0:0:0:
149,212,22666,2,0,L|162:160,1,47.5
325,310,23332,1,0,0:0:0:0:
149,142,23666,1,0,0:0:0:0:
160,165,23832,6,0,L|149:212,1,47.5
228,229,24165,2,0,L|240:276,1,47.5
325,310,24498,1,0,0:0:0:0:
135,64,24666,6,0,P|169:51|222:53,1,47.5
262,42,24999,2,0,P|298:41|348:58,1,47.5
399,80,25332,1,0,0:0:0:0:
135,64,25666,6,0,P|169:51|222:53,1,47.5
262,42,25999,2,0,P|298:41|348:58,1,47.5
399,80,26332,2,0,B|401:158,1,71.25
423,184,26666,6,0,P|388:171|336:173,1,47.5
159,200,27332,1,0,0:0:0:0:
419,195,27666,1,0,0:0:0:0:
423,184,27832,6,0,P|388:171|336:173,1,47.5
296,162,28165,2,0,P|259:161|209:178,1,47.5
159,200,28498,1,0,0:0:0:0:
149,212,28666,6,0,L|162:160,1,47.5
240,276,28999,2,0,L|227:224,1,47.5
325,310,29332,1,0,0:0:0:0:
149,212,29666,6,0,L|162:160,1,47.5
240,276,29999,2,0,L|227:224,1,47.5
325,310,30332,1,0,0:0:0:0:
149,212,30666,2,0,L|162:160,1,47.5
325,310,31332,5,0,0:0:0:0:
149,142,31666,1,0,0:0:0:0:
160,165,31832,6,0,L|149:212,1,47.5
228,229,32165,2,0,L|240:276,1,47.5
325,310,32498,1,0,0:0:0:0:
244,144,32666,5,0,0:0:0:0:
83,288,39666,6,0,L|94:223,1,63.3333333333333,8|0,0:0|0:0,0:0:0:0:
163,174,39999,2,0,P|173:138|162:108,1,63.3333333333333
35,116,40332,2,0,P|27:146|37:176,1,63.3333333333333
101,141,40666,6,0,P|119:217|257:201,1,237.5
271,48,41666,2,0,P|260:89|268:126,1,71.25
364,201,41999,2,0,P|343:175|327:169,1,47.5
271,48,42332,2,0,P|260:89|268:126,1,71.25
101,141,42666,6,0,P|119:217|257:201,1,237.5
271,48,43666,2,0,P|260:89|268:126,1,47.5
372,217,43999,2,0,P|361:184|330:169,1,71.25
271,48,44332,2,0,P|260:89|268:126,1,71.25
101,140,44666,6,0,P|101:187|128:226,1,95
253,207,45166,1,0,0:0:0:0:
101,140,45332,2,0,P|87:164|85:200,1,47.5
82,301,45666,6,0,L|157:283,1,71.25
155,307,45999,2,0,L|230:323,1,71.25
314,249,46332,2,0,P|329:199|318:173,1,71.25
101,140,46666,6,0,P|101:187|128:226,1,95
253,207,47166,1,0,0:0:0:0:
101,140,47332,2,0,P|87:164|85:200,1,47.5
82,301,47666,6,0,L|157:283,1,71.25
224,321,47999,2,0,L|155:307,1,71.25
240,235,48332,5,0,0:0:0:0:
281,166,48499,1,0,0:0:0:0:
101,141,48666,6,0,P|119:217|257:201,1,237.5
271,48,49666,2,0,P|260:89|268:126,1,71.25
364,201,49999,2,0,P|343:175|327:169,1,47.5
271,48,50332,2,0,P|260:89|268:126,1,71.25
101,141,50666,6,0,P|119:217|257:201,1,237.5
271,48,51666,2,0,P|260:89|268:126,1,47.5
372,217,51999,2,0,P|361:184|330:169,1,71.25
271,48,52332,2,0,P|260:89|268:126,1,71.25
100,140,52666,6,0,P|100:186|127:225,1,95
253,207,53166,1,0,0:0:0:0:
280,305,53332,2,0,P|317:293|331:277,1,47.5
359,131,53666,6,0,P|341:164|344:200,1,71.25
439,289,53999,2,0,P|419:265|401:260,1,47.5
246,213,54332,2,0,L|174:204,1,71.25
127,225,54666,6,0,P|100:186|101:140,1,95
253,207,55166,1,0,0:0:0:0:
260,321,55332,2,0,P|220:326|198:319,1,47.5
166,67,55666,2,0,P|196:79|208:92,1,47.5
254,185,55999,2,0,P|256:222|282:264,1,71.25
334,200,56332,5,0,0:0:0:0:
345,278,56499,1,0,0:0:0:0:
101,141,56666,6,0,P|119:217|257:201,1,237.5
271,47,57666,2,0,P|260:81|264:116,1,71.25
368,193,57999,2,0,P|351:176|329:168,1,47.5
271,48,58332,2,0,P|260:89|268:126,1,71.25
101,141,58666,6,0,P|119:217|257:201,1,237.5
271,48,59666,2,0,P|260:89|268:126,1,47.5
372,217,59999,2,0,P|361:184|330:169,1,71.25
271,48,60332,2,0,P|260:89|268:126,1,71.25
101,140,60666,6,0,P|101:187|128:226,1,95
253,207,61166,1,0,0:0:0:0:
101,140,61332,2,0,P|87:164|85:200,1,47.5
242,204,61666,6,0,L|317:186,1,71.25
315,210,61999,2,0,L|390:226,1,71.25
377,129,62332,2,0,P|392:79|381:53,1,71.25
101,140,62666,6,0,P|101:187|128:226,1,95
253,207,63166,1,0,0:0:0:0:
101,140,63332,2,0,P|87:164|85:200,1,47.5
242,204,63666,6,0,L|317:186,1,71.25
384,224,63999,2,0,L|315:210,1,71.25
295,293,64332,5,0,0:0:0:0:
208,276,64499,1,0,0:0:0:0:
101,141,64666,6,0,P|119:217|257:201,1,237.5
271,48,65666,2,0,P|260:89|268:126,1,71.25
364,201,65999,2,0,P|343:175|327:169,1,47.5
271,48,66332,2,0,P|260:89|268:126,1,71.25
101,141,66666,6,0,P|119:217|257:201,1,237.5
271,48,67666,2,0,P|260:89|268:126,1,47.5
372,217,67999,2,0,P|361:184|330:169,1,71.25
271,48,68332,2,0,P|260:89|268:126,1,71.25
127,225,68666,6,0,P|100:186|100:140,1,95
186,165,69166,1,0,0:0:0:0:
271,217,69332,2,0,P|251:230|228:234,1,47.5
202,99,69666,6,0,P|184:132|187:168,1,71.25
317,250,69999,2,0,P|297:226|279:221,1,47.5
260,321,70332,2,0,L|188:312,1,71.25
127,225,70666,6,0,P|100:186|101:140,1,95
186,165,71166,1,0,0:0:0:0:
260,321,71332,2,0,P|220:326|198:319,1,47.5
204,87,71666,2,0,P|234:99|246:112,1,47.5
272,253,71999,2,0,P|287:221|289:185,1,71.25
283,171,72332,1,0,0:0:0:0:
361,132,72499,1,0,0:0:0:0:
431,332,72666,6,0,P|441:305|435:251,1,71.2500027179719
307,131,73332,1,0,0:0:0:0:
431,332,73666,6,0,P|441:305|435:251,1,71.2500027179719
307,131,74332,1,0,0:0:0:0:
431,332,74666,6,0,P|441:305|435:251,1,71.2500027179719
307,131,75332,1,0,0:0:0:0:
289,157,75666,1,0,0:0:0:0:
264,176,75999,1,0,0:0:0:0:
234,182,76332,1,0,0:0:0:0:
337,51,76666,6,0,P|345:84|341:125,1,71.2500027179719
234,182,77332,1,0,0:0:0:0:
337,51,77666,6,0,P|345:84|341:125,1,71.2500027179719
234,182,78332,1,0,0:0:0:0:
337,51,78666,6,0,P|345:84|341:125,1,71.2500027179719
234,182,79332,1,0,0:0:0:0:
337,51,79666,6,0,P|348:84|325:155,1,106.875004076958
234,182,80332,1,0,0:0:0:0:
41,256,80666,6,0,L|123:237,1,71.2500027179719
155,107,81332,1,0,0:0:0:0:
41,256,81666,6,0,L|123:237,1,71.2500027179719
155,107,82332,1,0,0:0:0:0:
41,256,82666,6,0,L|123:237,1,71.2500027179719
155,107,83332,1,0,0:0:0:0:
184,104,83666,1,0,0:0:0:0:
210,95,83999,1,0,0:0:0:0:
236,81,84332,1,0,0:0:0:0:
41,256,84666,6,0,B|80:243|123:237|123:237|163:252|207:287,1,178.12500679493
362,273,85666,2,0,B|344:301|330:310|330:310|306:317|272:315,1,106.875004076958
202,361,86332,1,0,0:0:0:0:
259,213,86666,6,0,P|267:201|265:176,1,35.625001358986,2|0,0:0|0:0,0:0:0:0:
241,97,86999,2,0,P|232:80|214:76,1,35.625001358986,2|0,0:0|0:0,0:0:0:0:
130,100,87332,2,0,P|122:118|123:136,1,35.625001358986,2|0,0:0|0:0,0:0:0:0:
164,204,87666,1,0,0:0:0:0:
322,104,87832,1,2,0:0:0:0:
399,166,87999,1,0,0:0:0:0:
298,195,88166,1,0,0:0:0:0:
305,210,88249,1,2,0:0:0:0:
313,223,88332,1,2,0:0:0:0:
276,345,88499,1,0,1:0:0:0:
431,332,88666,6,0,P|441:305|435:251,1,71.2500027179719,2|0,1:2|0:0,0:0:0:0:
399,166,89166,1,0,1:0:0:0:
359,284,89332,2,0,P|338:276|315:276,1,35.625001358986,2|0,0:0|0:0,0:0:0:0:
418,352,89666,1,8,0:0:0:0:
429,332,89832,6,0,P|438:316|441:298,1,35.625001358986,2|0,0:0|0:0,0:0:0:0:
346,130,90165,2,0,P|335:157|335:171,1,35.625001358986,2|0,0:0|1:0,0:0:0:0:
414,178,90499,1,2,1:2:0:0:
431,332,90666,6,0,P|441:305|435:251,1,71.2500027179719,0|2,1:0|0:0,0:0:0:0:
276,345,91166,1,2,1:2:0:0:
268,249,91332,1,0,0:0:0:0:
362,288,91499,1,2,0:0:0:0:
190,304,91666,1,8,0:0:0:0:
117,242,91832,6,0,P|119:268|113:289,1,35.625001358986,2|0,0:0|0:0,0:0:0:0:
69,173,92166,2,0,P|45:161|30:146,1,35.625001358986,2|0,0:0|0:0,0:0:0:0:
152,165,92499,1,2,1:2:0:0:
48,272,92666,6,0,P|87:268|124:278,1,71.2500027179719,2|0,1:2|0:0,0:0:0:0:
209,331,93166,1,0,1:0:0:0:
290,299,93332,2,0,P|291:281|282:259,1,35.625001358986,0|2,0:0|0:0,0:0:0:0:
47,272,93666,6,0,P|65:268|83:268,1,35.625001358986,10|0,0:0|0:0,0:0:0:0:
209,331,93999,1,0,0:0:0:0:
290,299,94166,1,0,1:0:0:0:
207,242,94332,1,2,0:0:0:0:
116,369,94499,1,0,0:0:0:0:
48,272,94666,6,0,P|87:268|124:278,1,71.2500027179719,2|0,1:2|0:0,0:0:0:0:
290,299,95166,2,0,P|291:281|282:259,1,35.625001358986,0|0,1:0|0:0,0:0:0:0:
116,369,95499,1,2,0:0:0:0:
207,242,95666,1,8,0:0:0:0:
209,331,95832,1,0,0:0:0:0:
117,275,95999,6,0,L|89:270,1,17.812500679493
114,259,96166,2,0,L|85:253,1,17.812500679493
110,242,96332,2,0,L|81:236,1,17.812500679493
106,224,96499,2,0,L|77:218,1,17.812500679493,2|0,0:0|0:0,0:0:0:0:
178,184,96666,6,0,P|211:155|220:131,1,71.2500027179719,2|0,1:2|0:0,0:0:0:0:
166,30,97166,1,0,1:0:0:0:
84,85,97332,2,0,P|66:89|49:88,1,35.625001358986
159,196,97666,1,8,0:0:0:0:
177,184,97832,6,0,P|193:174|205:162,1,35.625001358986,2|0,0:0|0:0,0:0:0:0:
372,117,98166,2,0,P|356:126|344:138,1,35.625001358986,2|0,0:0|1:0,0:0:0:0:
308,237,98499,1,0,1:0:0:0:
178,184,98666,6,0,P|211:155|220:131,1,71.2500027179719,2|0,1:2|0:0,0:0:0:0:
166,30,99166,1,0,1:0:0:0:
37,129,99332,2,0,P|54:130|71:125,1,35.625001358986
258,207,99666,1,8,0:0:0:0:
178,219,99832,6,0,P|176:193|182:172,1,35.625001358986,2|0,0:0|0:0,0:0:0:0:
226,288,100166,2,0,P|250:300|265:315,1,35.625001358986,0|2,1:0|0:0,0:0:0:0:
143,296,100499,1,2,1:2:0:0:
247,189,100666,6,0,P|208:193|171:183,1,71.2500027179719,2|0,1:2|0:0,0:0:0:0:
98,128,101166,1,0,1:0:0:0:
203,45,101332,2,0,P|219:74|218:94,1,53.4375020384789
178,219,101666,2,0,P|176:193|182:172,1,35.625001358986,10|0,0:0|0:0,0:0:0:0:
271,167,101999,1,0,0:0:0:0:
271,268,102166,1,0,0:0:0:0:
176,311,102332,1,2,0:0:0:0:
218,93,102499,1,0,1:0:0:0:
257,371,102666,6,0,P|272:348|291:332,1,35.625001358986
343,324,102999,2,0,P|361:329|374:341,1,35.625001358986
258,371,103666,6,0,P|298:328|380:348,1,142.500005435944
20,340,104666,6,0,L|40:196,1,142.5,6|0,1:2|0:0,0:1:0:0:
364,92,105332,1,0,1:0:0:0:
20,340,105666,2,0,L|40:196,1,142.5,10|0,1:2|0:0,0:0:0:0:
364,92,106332,1,10,1:2:0:0:
20,340,106666,6,0,L|12:276,1,47.5,2|0,1:2|0:0,0:0:0:0:
21,185,106999,2,0,L|42:124,1,47.5,2|0,0:2|0:0,0:0:0:0:
92,47,107332,2,0,L|139:2,1,47.5,2|0,1:2|0:0,0:0:0:0:
364,92,107666,1,8,0:0:0:0:
453,205,107832,1,0,0:0:0:0:
270,125,107999,1,2,0:0:0:0:
342,209,108166,6,0,P|375:209|384:201,1,35.625001358986,0|0,1:0|0:0,0:0:0:0:
357,292,108332,2,0,P|347:306|331:314,1,35.625001358986,2|0,0:0|0:0,0:0:0:0:
436,313,108499,2,0,P|445:281|440:270,1,35.625001358986,0|0,0:3|0:3,0:3:0:0:
503,344,108666,6,0,P|522:292|475:207,1,142.5,2|0,1:2|0:0,0:0:0:0:
124,135,109332,1,0,1:0:0:0:
503,344,109666,2,0,P|522:292|475:207,1,142.5,10|0,1:2|0:0,0:0:0:0:
124,135,110332,1,8,1:2:0:0:
503,344,110666,6,0,L|486:287,1,47.5,2|0,1:2|0:0,0:0:0:0:
451,181,110999,2,0,L|473:126,1,47.5,2|0,1:2|0:0,0:0:0:0:
329,227,111332,2,0,L|315:181,1,47.5,2|0,0:0|0:0,0:0:0:0:
374,332,111666,1,8,1:2:0:0:
260,369,111832,1,0,0:0:0:0:
357,118,111999,6,0,P|315:124|313:108,1,71.25,0|0,1:0|0:0,0:0:0:0:
180,46,112332,2,0,P|123:23|100:34,1,71.25
32,89,112666,6,0,L|40:247,1,142.5,0|0,1:0|0:0,0:0:0:0:
374,332,113332,1,0,1:0:0:0:
32,89,113666,2,0,L|40:247,1,142.5,8|0,1:2|0:0,0:0:0:0:
374,332,114332,1,8,1:2:0:0:
23,77,114666,6,0,L|12:123,1,47.5,0|0,1:0|0:0,0:0:0:0:
3,223,114999,2,0,L|11:269,1,47.5
187,343,115332,2,0,L|249:318,1,47.5,0|0,1:0|0:0,0:0:0:0:
216,91,115666,2,0,P|200:116|207:159,1,71.25,8|0,0:0|0:0,0:0:0:0:
232,225,115999,5,0,0:0:0:0:
291,153,116166,1,0,1:0:0:0:
152,209,116332,1,8,1:2:0:0:
330,231,116499,1,8,1:2:0:0:
507,264,116666,6,0,P|442:259|391:332,1,142.5,0|0,1:0|0:0,0:0:0:0:
152,209,117332,1,8,1:2:0:0:
507,264,117666,2,0,P|474:274|459:272,1,47.5,0|0,1:0|0:0,0:0:0:0:
355,249,117999,2,0,P|323:236|312:225,1,47.5,0|0,1:0|0:0,0:0:0:0:
250,109,118332,1,8,0:0:0:0:
446,93,118666,6,0,P|425:123|423:142,1,47.5,0|0,1:0|0:0,0:0:0:0:
199,179,118999,2,0,P|220:209|222:228,1,47.5,0|0,1:0|0:0,0:0:0:0:
393,313,119332,2,0,P|372:283|370:264,1,47.5,0|0,1:0|0:0,0:0:0:0:
159,48,119666,2,0,P|176:70|163:116,1,71.25,8|0,0:0|0:0,0:0:0:0:
80,158,119999,5,0,1:0:0:0:
78,170,120332,1,8,1:2:0:0:
291,123,120499,1,8,1:2:0:0:
504,76,120666,6,0,L|476:225,1,142.5,4|0,1:0|0:0,0:0:0:0:
171,260,121332,1,0,1:0:0:0:
504,76,121666,2,0,L|476:225,1,142.5,8|0,1:2|0:0,0:0:0:0:
171,260,122332,1,8,1:2:0:0:
504,76,122666,6,0,L|520:136,1,47.5,0|0,1:0|0:0,0:0:0:0:
510,211,122999,2,0,L|490:270,1,47.5
441,327,123332,2,0,L|392:366,1,47.5,0|0,1:0|0:0,0:0:0:0:
171,260,123666,1,8,0:0:0:0:
171,260,123999,6,0,P|190:242|195:242,1,23.75
223,153,124166,2,0,P|210:120|211:92,1,35.625001358986,2|0,0:0|0:0,0:0:0:0:
269,293,124332,2,0,P|268:275|262:259,1,35.625001358986
308,183,124499,2,0,P|325:183|343:179,1,35.625001358986,2|0,0:0|0:0,0:0:0:0:
164,379,124666,6,0,P|125:370|99:277,1,142.5,4|0,1:0|0:0,0:0:0:0:
353,97,125332,1,0,1:0:0:0:
164,379,125666,2,0,P|125:370|99:277,1,142.5,8|0,1:2|0:0,0:0:0:0:
353,97,126332,1,8,1:2:0:0:
164,379,126666,6,0,L|103:361,1,47.5,0|0,1:0|0:0,0:0:0:0:
34,285,126999,2,0,L|27:233,1,47.5,0|0,1:0|0:0,0:0:0:0:
53,125,127332,2,0,L|89:80,1,47.5,0|0,1:0|0:0,0:0:0:0:
313,131,127666,1,8,0:0:0:0:
131,179,127832,1,0,0:0:0:0:
180,241,127999,6,0,P|203:220|209:208,1,23.75,2|0,1:2|0:0,0:0:0:0:
231,70,128166,1,0,0:0:0:0:
131,179,128332,1,2,0:0:0:0:
291,230,128499,1,2,0:0:0:0:
449,78,128666,6,0,P|404:108|399:192,1,142.5,0|0,1:0|0:0,0:0:0:0:
245,346,129332,1,0,1:0:0:0:
449,78,129666,2,0,P|404:108|399:192,1,142.5,8|0,1:2|0:0,0:0:0:0:
245,346,130332,1,8,0:2:0:0:
449,77,130666,6,0,P|426:85|408:101,1,47.5,0|0,1:0|0:0,0:0:0:0:
397,189,130999,2,0,P|412:209|432:222,1,47.5
291,97,131332,2,0,P|268:89|237:93,1,47.5,0|0,1:0|0:0,0:0:0:0:
238,296,131666,2,0,P|273:279|281:248,1,71.25,8|0,0:0|0:0,0:0:0:0:
254,165,131999,1,0,0:0:0:0:
208,231,132166,5,0,1:0:0:0:
349,200,132332,1,8,1:2:0:0:
175,158,132499,1,8,1:2:0:0:
0,116,132666,6,0,L|6:172,1,47.5,4|0,1:0|0:0,0:0:0:0:
25,341,132999,1,0,1:0:0:0:
46,260,133166,1,0,0:0:0:0:
93,190,133332,2,0,P|124:203|150:203,1,47.5,8|0,0:0|0:0,0:0:0:0:
448,232,133666,2,0,P|417:219|391:219,1,47.5,0|0,1:0|0:0,0:0:0:0:
266,338,133999,1,0,0:0:0:0:
347,303,134166,1,0,1:0:0:0:
209,183,134332,2,0,L|220:237,1,47.5,8|0,1:2|0:0,0:0:0:0:
413,341,134666,6,0,P|427:308|427:287,1,47.5,0|0,1:0|0:0,0:0:0:0:
99,43,134999,2,0,P|85:76|85:97,1,47.5,0|0,1:0|0:0,0:0:0:0:
294,347,135332,2,0,L|307:266,1,71.25,0|0,1:0|0:0,0:0:0:0:
381,125,135666,1,8,0:0:0:0:
372,134,135999,6,0,L|286:112,1,71.25
287,121,136332,2,0,L|286:146,1,23.75
209,183,136499,2,0,L|214:209,1,23.75
301,322,136666,6,0,P|262:306|227:313,1,71.25
223,305,136999,2,0,P|263:300|295:235,1,106.875004076958
150,95,137332,1,0,0:0:0:0:
116,277,137666,5,0,0:0:0:0:
186,205,137832,1,0,0:0:0:0:
37,201,137999,2,0,P|70:192|111:169,1,63.3333333333333
150,95,138332,6,0,P|138:127|138:136,1,23.75
186,205,138499,2,0,P|164:178|156:174,1,23.75
0,181,138666,6,0,P|60:168|70:134,1,95
187,37,139166,1,0,0:0:0:0:
197,48,139332,2,0,L|193:125,1,63.3333333333333
202,123,139666,1,0,0:0:0:0:
295,6,139888,2,0,L|308:104,1,95
328,188,140332,2,0,L|336:128,1,47.5
279,273,140666,6,0,B|302:268|326:282|356:269,1,71.25
405,221,140999,2,0,B|416:226|430:239|430:239|412:196|356:213|347:131,1,142.5
426,85,141332,1,0,0:0:0:0:
206,107,141666,6,0,P|204:147|216:171,1,63.3333333333333
286,197,141999,2,0,P|317:202|343:221,1,63.3333333333333
190,277,142332,2,0,P|210:264|224:245,1,47.5
285,64,142666,6,0,B|275:126|275:126|287:113,1,71.25
368,92,142999,1,0,0:0:0:0:
439,143,143166,1,0,0:0:0:0:
449,152,143332,2,0,L|442:215,1,47.5
377,316,143666,1,0,0:0:0:0:
308,367,143888,6,0,L|291:272,1,95
203,319,144332,2,0,L|214:254,1,63.3333333333333
237,284,144666,6,0,P|214:219|199:290,1,190
355,267,146166,1,0,0:0:0:0:
340,281,146332,2,0,L|347:206,1,47.5
307,79,146666,6,0,B|277:69|277:69|291:158|291:158|250:132,1,142.5
146,152,147332,2,0,P|142:176|146:207,1,47.5
206,269,147666,1,0,0:0:0:0:
381,213,147832,6,0,P|361:204|348:203,1,23.75
242,182,147999,2,0,P|265:192|281:193,1,23.75
398,195,148166,6,0,L|395:219,1,23.75
334,266,148332,2,0,L|337:289,1,23.75
408,319,148499,2,0,L|404:342,1,23.75
237,284,148666,6,0,P|213:211|199:290,1,213.75
376,177,150332,2,0,P|336:187|314:181,1,47.5
250,142,150666,5,0,0:0:0:0:
353,271,150832,2,0,L|318:263,1,23.75
364,282,150999,2,0,L|329:274,1,23.75
127,228,151332,2,0,L|97:238,1,23.75
353,271,151666,2,0,L|318:263,1,23.75
366,285,151832,2,0,B|282:274,1,71.25
431,332,152666,6,0,P|441:305|435:251,1,71.2500027179719
307,131,153332,1,0,0:0:0:0:
431,332,153666,6,0,P|441:305|435:251,1,71.2500027179719
307,131,154332,1,0,0:0:0:0:
431,332,154666,6,0,P|441:305|435:251,1,71.2500027179719
307,131,155332,1,0,0:0:0:0:
289,157,155666,1,0,0:0:0:0:
264,176,155999,1,0,0:0:0:0:
234,182,156332,1,0,0:0:0:0:
337,51,156666,6,0,P|345:84|341:125,1,71.2500027179719
234,182,157332,1,0,0:0:0:0:
337,51,157666,6,0,P|345:84|341:125,1,71.2500027179719
234,182,158332,1,0,0:0:0:0:
337,51,158666,6,0,P|345:84|341:125,1,71.2500027179719
234,182,159332,1,0,0:0:0:0:
337,51,159666,6,0,P|348:84|325:155,1,106.875004076958
234,182,160332,1,0,0:0:0:0:
41,256,160666,6,0,L|123:237,1,71.2500027179719
155,107,161332,1,0,0:0:0:0:
41,256,161666,6,0,L|123:237,1,71.2500027179719
155,107,162332,1,0,0:0:0:0:
41,256,162666,6,0,L|123:237,1,71.2500027179719
155,107,163332,1,0,0:0:0:0:
184,104,163666,1,0,0:0:0:0:
210,95,163999,1,0,0:0:0:0:
236,81,164332,1,0,0:0:0:0:
41,256,164666,6,0,B|80:243|123:237|123:237|163:252|207:287,1,178.12500679493
362,273,165666,2,0,B|344:301|330:310|330:310|306:317|272:315,1,106.875004076958
202,361,166332,1,0,0:0:0:0:
259,213,166666,6,0,P|267:201|265:176,1,35.625001358986,2|0,0:0|0:0,0:0:0:0:
241,97,166999,2,0,P|232:80|214:76,1,35.625001358986,2|0,0:0|0:0,0:0:0:0:
130,100,167332,2,0,P|122:118|123:136,1,35.625001358986,2|0,0:0|0:0,0:0:0:0:
164,204,167666,1,0,0:0:0:0:
322,104,167832,1,2,0:0:0:0:
399,166,167999,1,0,0:0:0:0:
298,195,168166,5,0,0:0:0:0:
305,210,168249,1,2,0:0:0:0:
313,223,168332,1,2,0:0:0:0:
276,345,168499,1,0,1:0:0:0:
81,332,168666,6,0,P|71:305|77:251,1,71.2500027179719,2|0,1:2|0:0,0:0:0:0:
113,166,169166,1,0,1:0:0:0:
153,284,169332,2,0,P|174:276|197:276,1,35.625001358986,2|0,0:0|0:0,0:0:0:0:
94,352,169666,1,8,0:0:0:0:
83,332,169832,6,0,P|74:316|71:298,1,35.625001358986,2|0,0:0|0:0,0:0:0:0:
166,130,170165,2,0,P|177:157|177:171,1,35.625001358986,2|0,0:0|1:0,0:0:0:0:
98,178,170499,1,2,1:2:0:0:
81,332,170666,6,0,P|71:305|77:251,1,71.2500027179719,0|2,1:0|0:0,0:0:0:0:
236,345,171166,1,2,1:2:0:0:
244,249,171332,1,0,0:0:0:0:
150,288,171499,1,2,0:0:0:0:
322,304,171666,1,8,0:0:0:0:
395,242,171832,6,0,P|393:268|399:289,1,35.625001358986,2|0,0:0|0:0,0:0:0:0:
443,173,172166,2,0,P|467:161|482:146,1,35.625001358986,2|0,0:0|0:0,0:0:0:0:
360,165,172499,1,2,1:2:0:0:
464,272,172666,6,0,P|425:268|388:278,1,71.2500027179719,2|0,1:2|0:0,0:0:0:0:
303,331,173166,1,0,1:0:0:0:
222,299,173332,2,0,P|221:281|230:259,1,35.625001358986,0|2,0:0|0:0,0:0:0:0:
465,272,173666,6,0,P|447:268|429:268,1,35.625001358986,10|0,0:0|0:0,0:0:0:0:
303,331,173999,1,0,0:0:0:0:
222,299,174166,1,0,1:0:0:0:
305,242,174332,1,2,0:0:0:0:
396,369,174499,1,0,0:0:0:0:
464,272,174666,6,0,P|425:268|388:278,1,71.2500027179719,2|0,1:2|0:0,0:0:0:0:
222,299,175166,2,0,P|221:281|230:259,1,35.625001358986,0|0,1:0|0:0,0:0:0:0:
396,369,175499,1,2,0:0:0:0:
305,242,175666,1,8,0:0:0:0:
303,331,175832,1,0,0:0:0:0:
395,275,175999,6,0,L|423:270,1,17.812500679493
398,259,176166,2,0,L|427:253,1,17.812500679493
402,242,176332,2,0,L|431:236,1,17.812500679493
406,224,176499,2,0,L|435:218,1,17.812500679493,2|0,0:0|0:0,0:0:0:0:
334,184,176666,6,0,P|301:155|292:131,1,71.2500027179719,2|0,1:2|0:0,0:0:0:0:
346,30,177166,1,0,1:0:0:0:
428,85,177332,2,0,P|446:89|463:88,1,35.625001358986
353,196,177666,1,8,0:0:0:0:
335,184,177832,6,0,P|319:174|307:162,1,35.625001358986,2|0,0:0|0:0,0:0:0:0:
140,117,178166,2,0,P|156:126|168:138,1,35.625001358986,2|0,0:0|1:0,0:0:0:0:
204,237,178499,1,0,1:0:0:0:
334,184,178666,6,0,P|301:155|292:131,1,71.2500027179719,2|0,1:2|0:0,0:0:0:0:
346,30,179166,1,0,1:0:0:0:
475,129,179332,2,0,P|458:130|441:125,1,35.625001358986
254,207,179666,1,8,0:0:0:0:
334,219,179832,6,0,P|336:193|330:172,1,35.625001358986,2|0,0:0|0:0,0:0:0:0:
286,288,180166,2,0,P|262:300|247:315,1,35.625001358986,0|2,1:0|0:0,0:0:0:0:
369,296,180499,1,2,1:2:0:0:
265,189,180666,6,0,P|304:193|341:183,1,71.2500027179719,2|0,1:2|0:0,0:0:0:0:
414,128,181166,1,0,1:0:0:0:
309,45,181332,2,0,P|293:74|294:94,1,53.4375020384789
334,219,181666,2,0,P|336:193|330:172,1,35.625001358986,2|0,0:0|0:0,0:0:0:0:
241,167,181999,1,0,0:0:0:0:
241,268,182166,1,0,0:0:0:0:
336,311,182332,1,2,0:0:0:0:
294,93,182499,1,0,1:0:0:0:
175,338,182666,5,0,0:0:0:0:
158,331,182999,2,0,L|158:319,1,8.90625033974649
144,327,183332,1,0,0:0:0:0:
128,322,183666,1,0,0:0:0:0:
110,315,183999,1,0,0:0:0:0:
98,310,184332,1,0,0:0:0:0:
20,340,184666,6,0,L|40:196,1,142.5,6|0,1:2|0:0,0:1:0:0:
364,92,185332,1,0,1:0:0:0:
20,340,185666,2,0,L|40:196,1,142.5,10|0,1:2|0:0,0:0:0:0:
364,92,186332,1,10,1:2:0:0:
20,340,186666,6,0,L|12:276,1,47.5,2|0,1:2|0:0,0:0:0:0:
21,185,186999,2,0,L|42:124,1,47.5,2|0,0:2|0:0,0:0:0:0:
92,47,187332,2,0,L|139:2,1,47.5,2|0,1:2|0:0,0:0:0:0:
364,92,187666,1,8,0:0:0:0:
453,205,187832,1,0,0:0:0:0:
270,125,187999,1,2,0:0:0:0:
342,209,188166,6,0,P|375:209|384:201,1,35.625001358986,0|0,1:0|0:0,0:0:0:0:
357,292,188332,2,0,P|347:306|331:314,1,35.625001358986,2|0,0:0|0:0,0:0:0:0:
436,313,188499,2,0,P|445:281|440:270,1,35.625001358986,0|0,0:3|0:3,0:3:0:0:
503,344,188666,6,0,P|522:292|475:207,1,142.5,2|0,1:2|0:0,0:0:0:0:
124,135,189332,1,0,1:0:0:0:
503,344,189666,2,0,P|522:292|475:207,1,142.5,10|0,1:2|0:0,0:0:0:0:
124,135,190332,1,8,1:2:0:0:
503,344,190666,6,0,L|486:287,1,47.5,2|0,1:2|0:0,0:0:0:0:
451,181,190999,2,0,L|473:126,1,47.5,2|0,1:2|0:0,0:0:0:0:
329,227,191332,2,0,L|315:181,1,47.5,2|0,0:0|0:0,0:0:0:0:
374,332,191666,1,8,1:2:0:0:
260,369,191832,1,0,0:0:0:0:
357,118,191999,6,0,P|315:124|313:108,1,71.25,0|0,1:0|0:0,0:0:0:0:
180,46,192332,2,0,P|123:23|100:34,1,71.25
32,89,192666,6,0,L|40:247,1,142.5,0|0,1:0|0:0,0:0:0:0:
374,332,193332,1,0,1:0:0:0:
32,89,193666,2,0,L|40:247,1,142.5,8|0,1:2|0:0,0:0:0:0:
374,332,194332,1,8,1:2:0:0:
23,77,194666,6,0,L|12:123,1,47.5,0|0,1:0|0:0,0:0:0:0:
3,223,194999,2,0,L|11:269,1,47.5
187,343,195332,2,0,L|249:318,1,47.5,0|0,1:0|0:0,0:0:0:0:
216,91,195666,2,0,P|200:116|207:159,1,71.25,8|0,0:0|0:0,0:0:0:0:
232,225,195999,5,0,0:0:0:0:
291,153,196166,1,0,1:0:0:0:
152,209,196332,1,8,1:2:0:0:
330,231,196499,1,8,1:2:0:0:
507,264,196666,6,0,P|442:259|391:332,1,142.5,0|0,1:0|0:0,0:0:0:0:
152,209,197332,1,8,1:2:0:0:
507,264,197666,2,0,P|474:274|459:272,1,47.5,0|0,1:0|0:0,0:0:0:0:
355,249,197999,2,0,P|323:236|312:225,1,47.5,0|0,1:0|0:0,0:0:0:0:
250,109,198332,1,8,0:0:0:0:
446,93,198666,6,0,P|425:123|423:142,1,47.5,0|0,1:0|0:0,0:0:0:0:
199,179,198999,2,0,P|220:209|222:228,1,47.5,0|0,1:0|0:0,0:0:0:0:
393,313,199332,2,0,P|372:283|370:264,1,47.5,0|0,1:0|0:0,0:0:0:0:
159,48,199666,2,0,P|176:70|163:116,1,71.25,8|0,0:0|0:0,0:0:0:0:
80,158,199999,5,0,1:0:0:0:
78,170,200332,1,8,1:2:0:0:
291,123,200499,1,8,1:2:0:0:
504,76,200666,6,0,L|476:225,1,142.5,4|0,1:0|0:0,0:0:0:0:
171,260,201332,1,0,1:0:0:0:
504,76,201666,2,0,L|476:225,1,142.5,8|0,1:2|0:0,0:0:0:0:
171,260,202332,1,8,1:2:0:0:
504,76,202666,6,0,L|520:136,1,47.5,0|0,1:0|0:0,0:0:0:0:
510,211,202999,2,0,L|490:270,1,47.5
441,327,203332,2,0,L|392:366,1,47.5,0|0,1:0|0:0,0:0:0:0:
171,260,203666,1,8,0:0:0:0:
176,265,203999,6,0,L|186:230,1,35.625
164,379,204666,6,0,P|125:370|99:277,1,142.5,4|0,1:0|0:0,0:0:0:0:
353,97,205332,1,0,1:0:0:0:
164,379,205666,2,0,P|125:370|99:277,1,142.5,8|0,1:2|0:0,0:0:0:0:
353,97,206332,1,8,1:2:0:0:
164,379,206666,6,0,L|103:361,1,47.5,0|0,1:0|0:0,0:0:0:0:
34,285,206999,2,0,L|27:233,1,47.5,0|0,1:0|0:0,0:0:0:0:
53,125,207332,2,0,L|89:80,1,47.5,0|0,1:0|0:0,0:0:0:0:
313,131,207666,1,8,0:0:0:0:
131,179,207832,1,0,0:0:0:0:
180,241,207999,6,0,P|203:220|209:208,1,23.75,2|0,1:2|0:0,0:0:0:0:
231,70,208166,1,0,0:0:0:0:
131,179,208332,1,2,0:0:0:0:
291,230,208499,1,2,0:0:0:0:
449,78,208666,6,0,P|404:108|399:192,1,142.5,0|0,1:0|0:0,0:0:0:0:
245,346,209332,1,0,1:0:0:0:
449,78,209666,2,0,P|404:108|399:192,1,142.5,8|0,1:2|0:0,0:0:0:0:
245,346,210332,1,8,0:2:0:0:
449,77,210666,6,0,P|426:85|408:101,1,47.5,0|0,1:0|0:0,0:0:0:0:
397,189,210999,2,0,P|412:209|432:222,1,47.5
291,97,211332,2,0,P|268:89|237:93,1,47.5,0|0,1:0|0:0,0:0:0:0:
238,296,211666,2,0,P|273:279|281:248,1,71.25,8|0,0:0|0:0,0:0:0:0:
254,165,211999,1,0,0:0:0:0:
208,231,212166,5,0,1:0:0:0:
349,200,212332,1,8,1:2:0:0:
175,158,212499,1,8,1:2:0:0:
0,116,212666,6,0,L|6:172,1,47.5,4|0,1:0|0:0,0:0:0:0:
25,341,212999,1,0,1:0:0:0:
34,335,213166,1,0,0:0:0:0:
114,210,213332,2,0,P|90:213|69:224,1,47.5,8|0,0:0|0:0,0:0:0:0:
211,323,213666,2,0,P|222:297|224:276,1,47.5
204,194,213999,1,0,0:0:0:0:
142,285,214166,1,0,0:0:0:0:
346,276,214332,2,0,L|354:216,1,47.5
0,116,214666,6,0,L|6:172,1,47.5,4|0,1:0|0:0,0:0:0:0:
25,341,214999,1,0,1:0:0:0:
34,335,215166,1,0,0:0:0:0:
132,191,215332,2,0,P|108:194|87:205,1,47.5,8|0,0:0|0:0,0:0:0:0:
233,314,215666,2,0,P|244:288|246:267,1,47.5
218,176,215999,1,0,0:0:0:0:
158,274,216166,1,0,0:0:0:0:
362,271,216332,2,0,L|370:211,1,47.5
0,116,216666,6,0,L|6:172,1,47.5,4|0,1:0|0:0,0:0:0:0:
25,341,216999,1,0,1:0:0:0:
34,335,217166,1,0,0:0:0:0:
149,169,217332,2,0,P|125:172|104:183,1,47.5,8|0,0:0|0:0,0:0:0:0:
267,280,217666,2,0,P|278:254|280:233,1,47.5
235,122,217999,1,0,0:0:0:0:
196,239,218166,1,0,0:0:0:0:
383,193,218332,1,0,0:0:0:0:
388,203,218499,1,0,0:0:0:0:
384,324,218666,6,0,L|395:276,1,47.5
384,324,218999,6,0,L|395:276,1,47.5
384,324,219332,6,0,L|395:276,1,47.5
384,324,219666,6,0,L|395:276,1,47.5
384,324,219999,6,0,L|395:276,1,47.5
384,324,220332,6,0,L|395:276,1,47.5
407,175,220666,6,0,P|361:159|328:172,1,85.4999973907472
251,134,220999,2,0,P|297:150|330:137,1,85.4999973907472
219,58,221332,2,0,L|212:158,1,85.4999973907472
199,275,221666,5,0,0:0:0:0:
195,281,222666,5,0,0:0:0:0:
