osu file format v14

[General]
AudioFilename: audio.mp3
AudioLeadIn: 0
PreviewTime: 51978
Countdown: 0
SampleSet: None
StackLeniency: 0.7
Mode: 1
LetterboxInBreaks: 0
WidescreenStoryboard: 1

[Editor]
Bookmarks: 53215
DistanceSpacing: 0.8
BeatDivisor: 4
GridSize: 32
TimelineZoom: 1.8

[Metadata]
Title:En ga Chop
TitleUnicode:En ga Chop
Artist:sakuzyo
ArtistUnicode:削除
Creator:D o t
Version:Futsuu
Source:Deemo
Tags:
BeatmapID:1987269
BeatmapSetID:950965

[Difficulty]
HPDrainRate:6
CircleSize:5
OverallDifficulty:4
ApproachRate:5
SliderMultiplier:1.4
SliderTickRate:1

[Events]
//Background and Video events
0,0,"8.png",0,0
//Break Periods
//Storyboard Layer 0 (Background)
//Storyboard Layer 1 (Fail)
//Storyboard Layer 2 (Pass)
//Storyboard Layer 3 (Foreground)
//Storyboard Sound Samples

[TimingPoints]
20,309.278350515464,4,1,0,64,1,0
13628,-100,4,1,0,69,0,0
53215,-100,4,1,0,72,0,1
77958,-100,4,1,0,72,0,0
78112,-117.647058823529,4,1,0,40,0,0
87855,-100,4,1,0,69,0,0
97751,-100,4,1,0,72,0,1
122184,-100,4,1,0,72,0,0

[HitObjects]
256,192,1257,5,4,0:0:0:0:
256,192,1875,1,4,0:0:0:0:
256,192,2494,1,4,0:0:0:0:
256,192,2803,1,6,0:0:0:0:
256,192,2958,1,6,0:0:0:0:
256,192,3112,1,6,0:0:0:0:
256,192,3731,1,4,0:0:0:0:
256,192,6205,1,4,0:0:0:0:
256,192,6514,1,4,0:0:0:0:
256,192,8370,1,4,0:0:0:0:
256,192,8679,1,4,0:0:0:0:
256,192,9916,1,4,0:0:0:0:
256,192,11154,1,4,0:0:0:0:
256,192,11772,1,4,0:0:0:0:
256,192,12391,1,0,0:0:0:0:
256,192,13628,1,4,0:0:0:0:
256,192,14092,1,2,0:0:0:0:
256,192,14401,1,2,0:0:0:0:
256,192,14710,1,0,0:0:0:0:
256,192,14865,1,2,0:0:0:0:
256,192,15483,1,0,0:0:0:0:
256,192,15793,1,0,0:0:0:0:
256,192,16102,1,2,0:0:0:0:
256,192,16721,1,2,0:0:0:0:
256,192,17184,1,0,0:0:0:0:
256,192,17339,1,2,0:0:0:0:
256,192,17958,1,0,0:0:0:0:
256,192,18267,1,0,0:0:0:0:
256,192,18422,1,0,0:0:0:0:
256,192,18576,1,2,0:0:0:0:
256,192,19504,1,2,0:0:0:0:
256,192,19659,1,2,0:0:0:0:
256,192,19813,1,0,0:0:0:0:
256,192,20123,1,0,0:0:0:0:
256,192,20432,1,2,0:0:0:0:
256,192,20741,1,2,0:0:0:0:
256,192,21050,1,0,0:0:0:0:
256,192,21360,1,2,0:0:0:0:
256,192,21669,1,0,0:0:0:0:
256,192,21824,1,0,0:0:0:0:
256,192,21978,1,2,0:0:0:0:
256,192,22288,1,0,0:0:0:0:
256,192,22597,1,2,0:0:0:0:
256,192,22751,1,2,0:0:0:0:
256,192,22906,1,2,0:0:0:0:
256,192,23525,1,4,0:0:0:0:
256,192,23989,1,2,0:0:0:0:
256,192,24298,1,2,0:0:0:0:
256,192,24607,1,0,0:0:0:0:
256,192,24762,1,2,0:0:0:0:
256,192,25381,1,0,0:0:0:0:
256,192,25690,1,0,0:0:0:0:
256,192,25999,1,2,0:0:0:0:
256,192,26617,1,2,0:0:0:0:
256,192,27081,1,0,0:0:0:0:
256,192,27236,1,2,0:0:0:0:
256,192,27855,1,2,0:0:0:0:
256,192,28318,1,0,0:0:0:0:
256,192,28473,1,2,0:0:0:0:
256,192,29092,1,0,0:0:0:0:
256,192,29401,1,0,0:0:0:0:
256,192,29710,1,2,0:0:0:0:
256,192,30020,1,2,0:0:0:0:
256,192,30329,1,2,0:0:0:0:
256,192,30638,1,2,0:0:0:0:
256,192,30947,1,0,0:0:0:0:
256,192,31257,1,2,0:0:0:0:
256,192,31411,1,0,0:0:0:0:
256,192,31566,1,0,0:0:0:0:
256,192,31875,1,2,0:0:0:0:
256,192,32184,1,0,0:0:0:0:
256,192,32494,1,2,0:0:0:0:
256,192,32803,1,2,0:0:0:0:
256,192,33422,1,4,0:0:0:0:
256,192,34349,1,2,0:0:0:0:
256,192,34659,1,2,0:0:0:0:
256,192,35587,1,0,0:0:0:0:
256,192,35741,1,0,0:0:0:0:
256,192,35896,1,2,0:0:0:0:
256,192,36514,1,0,0:0:0:0:
256,192,36824,1,2,0:0:0:0:
256,192,37133,1,2,0:0:0:0:
256,192,37751,1,0,0:0:0:0:
256,192,38061,1,0,0:0:0:0:
256,192,38215,1,0,0:0:0:0:
256,192,38370,1,2,0:0:0:0:
256,192,38989,1,0,0:0:0:0:
256,192,39298,1,0,0:0:0:0:
256,192,39607,1,2,0:0:0:0:
256,192,40226,1,0,0:0:0:0:
256,192,40535,1,2,0:0:0:0:
256,192,40844,1,2,0:0:0:0:
256,192,41463,1,0,0:0:0:0:
256,192,41772,1,2,0:0:0:0:
256,192,41927,1,0,0:0:0:0:
256,192,42081,1,2,0:0:0:0:
256,192,42391,1,2,0:0:0:0:
256,192,42700,1,2,0:0:0:0:
256,192,43318,1,4,0:0:0:0:
256,192,45793,1,4,0:0:0:0:
256,192,46102,1,4,0:0:0:0:
256,192,47958,1,4,0:0:0:0:
256,192,48267,1,4,0:0:0:0:
256,192,49504,1,4,0:0:0:0:
256,192,50741,1,4,0:0:0:0:
256,192,51360,1,4,0:0:0:0:
256,192,51978,1,0,0:0:0:0:
256,192,52906,1,0,0:0:0:0:
256,192,53215,1,6,0:0:0:0:
256,192,53370,1,6,0:0:0:0:
256,192,53834,1,6,0:0:0:0:
256,192,53989,1,6,0:0:0:0:
256,192,54452,1,6,0:0:0:0:
256,192,54607,1,6,0:0:0:0:
256,192,54916,1,2,0:0:0:0:
256,192,55226,1,2,0:0:0:0:
256,192,55690,1,0,0:0:0:0:
256,192,55999,1,2,0:0:0:0:
256,192,56154,1,0,0:0:0:0:
256,192,56308,1,0,0:0:0:0:
256,192,56617,1,2,0:0:0:0:
256,192,56927,1,0,0:0:0:0:
256,192,57236,1,0,0:0:0:0:
256,192,57545,1,2,0:0:0:0:
256,192,58164,1,6,0:0:0:0:
256,192,58318,1,6,0:0:0:0:
256,192,58782,1,6,0:0:0:0:
256,192,58937,1,6,0:0:0:0:
256,192,59401,1,6,0:0:0:0:
256,192,59556,1,6,0:0:0:0:
256,192,59865,1,2,0:0:0:0:
256,192,60174,1,2,0:0:0:0:
256,192,60638,1,0,0:0:0:0:
256,192,60947,1,2,0:0:0:0:
256,192,61102,1,0,0:0:0:0:
256,192,61257,1,0,0:0:0:0:
256,192,61566,1,0,0:0:0:0:
256,192,61875,1,2,0:0:0:0:
256,192,62494,1,2,0:0:0:0:
256,192,63112,1,6,0:0:0:0:
256,192,63267,1,6,0:0:0:0:
256,192,63731,1,6,0:0:0:0:
256,192,63885,1,6,0:0:0:0:
256,192,64349,1,6,0:0:0:0:
256,192,64504,1,6,0:0:0:0:
256,192,64813,1,2,0:0:0:0:
256,192,65123,1,2,0:0:0:0:
256,192,65587,1,0,0:0:0:0:
256,192,65896,1,2,0:0:0:0:
256,192,66050,1,0,0:0:0:0:
256,192,66205,1,0,0:0:0:0:
256,192,66514,1,2,0:0:0:0:
256,192,66824,1,0,0:0:0:0:
256,192,67133,1,0,0:0:0:0:
256,192,67442,1,2,0:0:0:0:
256,192,68061,1,6,0:0:0:0:
256,192,68215,1,6,0:0:0:0:
256,192,68679,1,6,0:0:0:0:
256,192,68834,1,6,0:0:0:0:
256,192,69298,1,6,0:0:0:0:
256,192,69452,1,6,0:0:0:0:
256,192,69762,1,2,0:0:0:0:
256,192,70071,1,2,0:0:0:0:
256,192,70535,1,0,0:0:0:0:
256,192,70844,1,2,0:0:0:0:
256,192,70999,1,0,0:0:0:0:
256,192,71154,1,0,0:0:0:0:
256,192,71463,1,0,0:0:0:0:
256,192,71772,1,2,0:0:0:0:
256,192,72081,1,2,0:0:0:0:
256,192,72391,1,2,0:0:0:0:
256,192,72855,1,2,0:0:0:0:
256,192,73473,1,2,0:0:0:0:
256,192,73782,1,2,0:0:0:0:
256,192,74092,1,2,0:0:0:0:
256,192,74710,1,2,0:0:0:0:
256,192,75020,1,2,0:0:0:0:
256,192,75483,1,4,0:0:0:0:
256,192,76102,1,4,0:0:0:0:
256,192,76721,1,4,0:0:0:0:
256,192,77030,1,6,0:0:0:0:
256,192,77184,1,6,0:0:0:0:
256,192,77339,1,6,0:0:0:0:
256,192,77958,1,4,0:0:0:0:
256,192,80432,1,0,0:0:0:0:
256,192,82906,1,2,0:0:0:0:
256,192,85380,1,2,0:0:0:0:
256,192,86617,1,0,0:0:0:0:
256,192,87236,1,2,0:0:0:0:
256,192,87855,1,4,0:0:0:0:
256,192,88473,1,2,0:0:0:0:
256,192,88782,1,2,0:0:0:0:
256,192,89092,1,0,0:0:0:0:
256,192,89246,1,0,0:0:0:0:
256,192,89401,1,2,0:0:0:0:
256,192,89710,1,2,0:0:0:0:
256,192,90329,1,0,0:0:0:0:
256,192,90947,1,2,0:0:0:0:
256,192,91257,1,0,0:0:0:0:
256,192,91566,1,0,0:0:0:0:
256,192,91721,1,0,0:0:0:0:
256,192,91875,1,2,0:0:0:0:
256,192,92184,1,2,0:0:0:0:
256,192,92803,1,4,0:0:0:0:
256,192,94040,1,4,0:0:0:0:
256,192,95277,1,4,0:0:0:0:
256,192,95896,1,4,0:0:0:0:
256,192,96514,1,0,0:0:0:0:
256,192,97751,1,6,0:0:0:0:
256,192,97906,1,6,0:0:0:0:
256,192,98370,1,6,0:0:0:0:
256,192,98525,1,6,0:0:0:0:
256,192,98989,1,6,0:0:0:0:
256,192,99143,1,6,0:0:0:0:
256,192,99452,1,2,0:0:0:0:
256,192,99762,1,2,0:0:0:0:
256,192,100226,1,0,0:0:0:0:
256,192,100535,1,2,0:0:0:0:
256,192,100690,1,0,0:0:0:0:
256,192,100844,1,0,0:0:0:0:
256,192,101154,1,2,0:0:0:0:
256,192,101463,1,0,0:0:0:0:
256,192,101772,1,0,0:0:0:0:
256,192,102081,1,2,0:0:0:0:
256,192,102700,1,6,0:0:0:0:
256,192,102855,1,6,0:0:0:0:
256,192,103318,1,6,0:0:0:0:
256,192,103473,1,6,0:0:0:0:
256,192,103937,1,6,0:0:0:0:
256,192,104092,1,6,0:0:0:0:
256,192,104401,1,2,0:0:0:0:
256,192,104710,1,2,0:0:0:0:
256,192,105174,1,0,0:0:0:0:
256,192,105483,1,2,0:0:0:0:
256,192,105638,1,0,0:0:0:0:
256,192,105793,1,0,0:0:0:0:
256,192,106102,1,0,0:0:0:0:
256,192,106411,1,2,0:0:0:0:
256,192,107030,1,2,0:0:0:0:
256,192,107648,1,6,0:0:0:0:
256,192,107803,1,6,0:0:0:0:
256,192,108267,1,6,0:0:0:0:
256,192,108422,1,6,0:0:0:0:
256,192,108885,1,6,0:0:0:0:
256,192,109040,1,6,0:0:0:0:
256,192,109349,1,2,0:0:0:0:
256,192,109659,1,2,0:0:0:0:
256,192,110123,1,0,0:0:0:0:
256,192,110432,1,2,0:0:0:0:
256,192,110587,1,0,0:0:0:0:
256,192,110741,1,0,0:0:0:0:
256,192,111050,1,2,0:0:0:0:
256,192,111360,1,0,0:0:0:0:
256,192,111669,1,0,0:0:0:0:
256,192,111978,1,2,0:0:0:0:
256,192,112597,1,6,0:0:0:0:
256,192,112751,1,6,0:0:0:0:
256,192,113215,1,6,0:0:0:0:
256,192,113370,1,6,0:0:0:0:
256,192,113834,1,6,0:0:0:0:
256,192,113989,1,6,0:0:0:0:
256,192,114298,1,2,0:0:0:0:
256,192,114607,1,2,0:0:0:0:
256,192,115071,1,0,0:0:0:0:
256,192,115380,1,2,0:0:0:0:
256,192,115535,1,0,0:0:0:0:
256,192,115690,1,0,0:0:0:0:
256,192,115999,1,0,0:0:0:0:
256,192,116308,1,2,0:0:0:0:
256,192,116617,1,2,0:0:0:0:
256,192,116927,1,2,0:0:0:0:
256,192,117391,1,2,0:0:0:0:
256,192,118009,1,2,0:0:0:0:
256,192,118318,1,2,0:0:0:0:
256,192,118628,1,2,0:0:0:0:
256,192,119246,1,2,0:0:0:0:
256,192,119556,1,2,0:0:0:0:
256,192,120020,1,4,0:0:0:0:
256,192,120639,1,4,0:0:0:0:
256,192,121258,1,4,0:0:0:0:
256,192,121567,1,6,0:0:0:0:
256,192,121721,1,6,0:0:0:0:
256,192,121876,1,6,0:0:0:0:
256,192,122184,1,2,0:0:0:0:
