osu file format v14

[General]
AudioFilename: audio.mp3
AudioLeadIn: 0
PreviewTime: 56405
Countdown: 0
SampleSet: Normal
StackLeniency: 0.7
Mode: 1
LetterboxInBreaks: 0
WidescreenStoryboard: 0

[Editor]
DistanceSpacing: 1.8
BeatDivisor: 4
GridSize: 32
TimelineZoom: 2.1

[Metadata]
Title:Amenohoakari
TitleUnicode:天火明命
Artist:sakuzyo
ArtistUnicode:削除
Creator:D o t
Version:.'s Taiko
Source:maimai MURASAKi
Tags:∀rkadia Arkadia Arcadia C94 sega
BeatmapID:1805254
BeatmapSetID:863022

[Difficulty]
HPDrainRate:5
CircleSize:5
OverallDifficulty:5
ApproachRate:5
SliderMultiplier:1.4
SliderTickRate:1

[Events]
//Background and Video events
0,0,"bg.png",0,0
//Break Periods
//Storyboard Layer 0 (Background)
//Storyboard Layer 1 (Fail)
//Storyboard Layer 2 (Pass)
//Storyboard Layer 3 (Foreground)
//Storyboard Sound Samples

[TimingPoints]
760,387.096774193548,4,1,0,97,1,0
17018,387.096774193548,4,1,0,97,1,0
41017,-102.040816326531,4,1,0,97,0,0
41114,-103.092783505155,4,1,0,97,0,0
41211,-104.166666666667,4,1,0,97,0,0
41308,-105.263157894737,4,1,0,97,0,0
41405,-106.382978723404,4,1,0,97,0,0
41501,-107.52688172043,4,1,0,97,0,0
41598,-108.695652173913,4,1,0,97,0,0
41695,-109.89010989011,4,1,0,97,0,0
41792,-111.111111111111,4,1,0,90,0,0
57276,-95.2380952380952,4,1,0,100,0,1
61340,-90.9090909090909,4,1,0,100,0,1
63566,-95.2380952380952,4,1,0,100,0,1
73727,-90.9090909090909,4,1,0,100,0,1
75953,-95.2380952380952,4,1,0,100,0,1
81663,-83.3333333333333,4,1,0,100,0,0
81663,-95.2380952380952,4,1,0,100,0,0
82050,-90.9090909090909,4,1,0,100,0,1
88243,-90.9090909090909,4,1,0,100,0,0
88437,-100,4,1,0,97,0,0
93276,-90.9090909090909,4,1,0,97,0,0
93663,-83.3333333333333,4,1,0,97,0,0
93856,-81.3008130081301,4,1,0,97,0,0
93953,-79.3650793650794,4,1,0,97,0,0
94050,-77.5193798449612,4,1,0,97,0,0
94437,-100,4,1,0,80,0,0
95985,-100,4,1,0,97,0,0
120759,-90.9090909090909,4,1,0,100,0,1
126953,-90.9090909090909,4,1,0,100,0,0
127147,-100,4,1,0,97,0,0
131985,-90.9090909090909,4,1,0,97,0,0
132372,-83.3333333333333,4,1,0,97,0,0
132566,-81.3008130081301,4,1,0,97,0,0
132663,-79.3650793650794,4,1,0,97,0,0
132759,-77.5193798449612,4,1,0,97,0,0
133147,-100,4,1,0,80,0,0
145534,-100,4,1,0,95,0,0
157921,-100,4,1,0,100,0,1
170114,-105.263157894737,4,1,0,100,0,1
170308,-111.111111111111,4,1,0,100,0,0
170501,-117.647058823529,4,1,0,90,0,0
182695,-111.111111111111,4,1,0,93,0,0
195082,-100,4,1,0,80,0,0
196630,-100,4,1,0,97,0,0
209018,-95.2380952380952,4,1,0,100,0,1
233405,-95.2380952380952,4,1,0,100,0,0
233792,-90.9090909090909,4,1,0,100,0,1
239985,-90.9090909090909,4,1,0,100,0,0
240179,-100,4,1,0,97,0,0
245017,-90.9090909090909,4,1,0,97,0,0
245405,-83.3333333333333,4,1,0,97,0,0
245598,-81.3008130081301,4,1,0,97,0,0
245695,-79.3650793650794,4,1,0,97,0,0
245792,-77.5193798449612,4,1,0,97,0,0
246179,-100,4,1,0,90,0,0

[HitObjects]
256,192,760,5,2,0:0:0:0:
256,192,1147,1,2,0:0:0:0:
256,192,1437,1,2,0:0:0:0:
256,192,1727,1,2,0:0:0:0:
256,192,1921,1,2,0:0:0:0:
256,192,2114,1,2,0:0:0:0:
256,192,2308,1,2,0:0:0:0:
256,192,2437,1,2,0:0:0:0:
256,192,2566,1,2,0:0:0:0:
256,192,2695,1,2,0:0:0:0:
256,192,2792,1,2,0:0:0:0:
256,192,2889,1,2,0:0:0:0:
256,192,2985,1,2,0:0:0:0:
256,192,3082,1,2,0:0:0:0:
256,192,3276,1,2,0:0:0:0:
256,192,3469,1,6,0:0:0:0:
256,192,3856,1,4,0:0:0:0:
256,192,6953,1,0,0:0:0:0:
256,192,10050,1,0,0:0:0:0:
256,192,10437,1,0,0:0:0:0:
256,192,10824,1,0,0:0:0:0:
256,192,11211,1,0,0:0:0:0:
256,192,11598,1,0,0:0:0:0:
256,192,11985,1,0,0:0:0:0:
256,192,12372,1,0,0:0:0:0:
256,192,12759,1,0,0:0:0:0:
256,192,12953,1,0,0:0:0:0:
256,192,13147,1,0,0:0:0:0:
256,192,13534,1,0,0:0:0:0:
256,192,13727,1,2,0:0:0:0:
256,192,13921,1,0,0:0:0:0:
256,192,14114,1,2,0:0:0:0:
256,192,14179,1,2,0:0:0:0:
256,192,14243,1,2,0:0:0:0:
256,192,14308,1,0,0:0:0:0:
256,192,14501,1,0,0:0:0:0:
256,192,14695,1,2,0:0:0:0:
256,192,14889,1,0,0:0:0:0:
256,192,14953,1,2,0:0:0:0:
256,192,15018,1,2,0:0:0:0:
256,192,15082,1,0,0:0:0:0:
256,192,15276,1,0,0:0:0:0:
256,192,15469,1,2,0:0:0:0:
256,192,15663,1,0,0:0:0:0:
256,192,15759,1,2,0:0:0:0:
256,192,15856,1,2,0:0:0:0:
256,192,15953,1,0,0:0:0:0:
256,192,16050,1,2,0:0:0:0:
256,192,16243,1,4,0:0:0:0:
256,192,16630,1,6,0:0:0:0:
256,192,17018,1,0,0:0:0:0:
256,192,17211,1,0,0:0:0:0:
256,192,17405,1,2,0:0:0:0:
256,192,17598,1,2,0:0:0:0:
256,192,17792,1,0,0:0:0:0:
256,192,17985,1,2,0:0:0:0:
256,192,18179,1,0,0:0:0:0:
256,192,18372,1,0,0:0:0:0:
256,192,18566,1,2,0:0:0:0:
256,192,18759,1,0,0:0:0:0:
256,192,18953,1,0,0:0:0:0:
256,192,19147,1,2,0:0:0:0:
256,192,19340,1,0,0:0:0:0:
256,192,19534,1,2,0:0:0:0:
256,192,19727,1,0,0:0:0:0:
256,192,19921,1,2,0:0:0:0:
256,192,20114,1,0,0:0:0:0:
256,192,20308,1,0,0:0:0:0:
256,192,20501,1,2,0:0:0:0:
256,192,20695,1,0,0:0:0:0:
256,192,20888,1,0,0:0:0:0:
256,192,21082,1,2,0:0:0:0:
256,192,21276,1,0,0:0:0:0:
256,192,21469,1,0,0:0:0:0:
256,192,21663,1,2,0:0:0:0:
256,192,21856,1,0,0:0:0:0:
256,192,22050,1,2,0:0:0:0:
256,192,22243,1,2,0:0:0:0:
256,192,22437,1,0,0:0:0:0:
256,192,22630,1,2,0:0:0:0:
256,192,22824,1,0,0:0:0:0:
256,192,23017,1,2,0:0:0:0:
256,192,23211,1,0,0:0:0:0:
256,192,23405,1,2,0:0:0:0:
256,192,23501,1,2,0:0:0:0:
256,192,23598,1,0,0:0:0:0:
256,192,23792,1,2,0:0:0:0:
256,192,23888,1,0,0:0:0:0:
256,192,23985,1,0,0:0:0:0:
256,192,24179,1,2,0:0:0:0:
256,192,24276,1,2,0:0:0:0:
256,192,24372,1,0,0:0:0:0:
256,192,24469,1,2,0:0:0:0:
256,192,24566,1,0,0:0:0:0:
256,192,24663,1,2,0:0:0:0:
256,192,24759,1,0,0:0:0:0:
256,192,24953,1,2,0:0:0:0:
256,192,25050,1,2,0:0:0:0:
256,192,25147,1,0,0:0:0:0:
256,192,25340,1,2,0:0:0:0:
256,192,25437,1,0,0:0:0:0:
256,192,25534,1,0,0:0:0:0:
256,192,25727,1,2,0:0:0:0:
256,192,25824,1,2,0:0:0:0:
256,192,25921,1,0,0:0:0:0:
256,192,26017,1,0,0:0:0:0:
256,192,26114,1,2,0:0:0:0:
256,192,26211,1,2,0:0:0:0:
256,192,26308,1,2,0:0:0:0:
256,192,26501,1,2,0:0:0:0:
256,192,26598,1,2,0:0:0:0:
256,192,26695,1,0,0:0:0:0:
256,192,26888,1,2,0:0:0:0:
256,192,26985,1,0,0:0:0:0:
256,192,27082,1,0,0:0:0:0:
256,192,27276,1,2,0:0:0:0:
256,192,27372,1,2,0:0:0:0:
256,192,27469,1,0,0:0:0:0:
256,192,27566,1,0,0:0:0:0:
256,192,27663,1,2,0:0:0:0:
256,192,27759,1,2,0:0:0:0:
256,192,27856,1,0,0:0:0:0:
256,192,28050,1,0,0:0:0:0:
256,192,28630,1,0,0:0:0:0:
256,192,28727,1,2,0:0:0:0:
256,192,28824,1,0,0:0:0:0:
256,192,28921,1,0,0:0:0:0:
256,192,29017,1,2,0:0:0:0:
256,192,29114,1,2,0:0:0:0:
256,192,29211,1,0,0:0:0:0:
256,192,29308,1,2,0:0:0:0:
256,192,29405,1,0,0:0:0:0:
256,192,29501,1,2,0:0:0:0:
256,192,29598,1,2,0:0:0:0:
256,192,29695,1,2,0:0:0:0:
256,192,29792,1,0,0:0:0:0:
256,192,29888,1,2,0:0:0:0:
256,192,29985,1,2,0:0:0:0:
256,192,30082,1,2,0:0:0:0:
256,192,30179,1,0,0:0:0:0:
256,192,30276,1,2,0:0:0:0:
256,192,30469,1,2,0:0:0:0:
256,192,30566,1,0,0:0:0:0:
256,192,30759,1,2,0:0:0:0:
256,192,30953,1,0,0:0:0:0:
256,192,31050,1,2,0:0:0:0:
256,192,31147,1,2,0:0:0:0:
256,192,31243,1,2,0:0:0:0:
256,192,31340,1,0,0:0:0:0:
256,192,31437,1,2,0:0:0:0:
256,192,31534,1,2,0:0:0:0:
256,192,31630,1,2,0:0:0:0:
256,192,31727,1,0,0:0:0:0:
256,192,31824,1,2,0:0:0:0:
256,192,32017,1,2,0:0:0:0:
256,192,32114,1,0,0:0:0:0:
256,192,32211,1,0,0:0:0:0:
256,192,32308,1,2,0:0:0:0:
256,192,32405,1,0,0:0:0:0:
256,192,32501,1,0,0:0:0:0:
256,192,32598,1,2,0:0:0:0:
256,192,32695,1,2,0:0:0:0:
256,192,32792,1,2,0:0:0:0:
256,192,32888,1,0,0:0:0:0:
256,192,32985,1,2,0:0:0:0:
256,192,33082,1,2,0:0:0:0:
256,192,33179,1,2,0:0:0:0:
256,192,33276,1,0,0:0:0:0:
256,192,33372,1,2,0:0:0:0:
256,192,33566,1,2,0:0:0:0:
256,192,33663,1,0,0:0:0:0:
256,192,33759,1,0,0:0:0:0:
256,192,33856,1,2,0:0:0:0:
256,192,33953,1,2,0:0:0:0:
256,192,34050,1,0,0:0:0:0:
256,192,34147,1,0,0:0:0:0:
256,192,34243,1,0,0:0:0:0:
256,192,34340,1,2,0:0:0:0:
256,192,34437,1,2,0:0:0:0:
256,192,34534,1,0,0:0:0:0:
256,192,34630,1,0,0:0:0:0:
256,192,34727,1,2,0:0:0:0:
256,192,34824,1,2,0:0:0:0:
256,192,34921,1,0,0:0:0:0:
256,192,35017,1,2,0:0:0:0:
256,192,35114,1,2,0:0:0:0:
256,192,35211,1,0,0:0:0:0:
256,192,35308,1,2,0:0:0:0:
256,192,35405,1,2,0:0:0:0:
256,192,35501,1,0,0:0:0:0:
256,192,35598,1,0,0:0:0:0:
256,192,35695,1,2,0:0:0:0:
256,192,35792,1,2,0:0:0:0:
256,192,35888,1,2,0:0:0:0:
256,192,35985,1,0,0:0:0:0:
256,192,36082,1,2,0:0:0:0:
256,192,36179,1,2,0:0:0:0:
256,192,36276,1,2,0:0:0:0:
256,192,36372,1,0,0:0:0:0:
256,192,36469,1,2,0:0:0:0:
256,192,36663,1,2,0:0:0:0:
256,192,36759,1,0,0:0:0:0:
256,192,36856,1,2,0:0:0:0:
256,192,36953,1,2,0:0:0:0:
256,192,37050,1,0,0:0:0:0:
256,192,37147,1,0,0:0:0:0:
256,192,37243,1,2,0:0:0:0:
256,192,37340,1,2,0:0:0:0:
256,192,37437,1,2,0:0:0:0:
256,192,37534,1,0,0:0:0:0:
256,192,37630,1,2,0:0:0:0:
256,192,37727,1,2,0:0:0:0:
256,192,37824,1,2,0:0:0:0:
256,192,37921,1,0,0:0:0:0:
256,192,38017,1,2,0:0:0:0:
256,192,38211,1,2,0:0:0:0:
256,192,38308,1,0,0:0:0:0:
256,192,38405,1,0,0:0:0:0:
256,192,38501,1,2,0:0:0:0:
256,192,38598,1,0,0:0:0:0:
256,192,38695,1,0,0:0:0:0:
256,192,38792,1,2,0:0:0:0:
256,192,38888,1,2,0:0:0:0:
256,192,38985,1,2,0:0:0:0:
256,192,39082,1,0,0:0:0:0:
256,192,39179,1,2,0:0:0:0:
256,192,39276,1,2,0:0:0:0:
256,192,39372,1,2,0:0:0:0:
256,192,39469,1,0,0:0:0:0:
256,192,39566,1,2,0:0:0:0:
256,192,39759,1,2,0:0:0:0:
256,192,39856,1,0,0:0:0:0:
256,192,39953,1,0,0:0:0:0:
256,192,40050,1,2,0:0:0:0:
256,192,40147,1,2,0:0:0:0:
256,192,40243,1,0,0:0:0:0:
256,192,40437,1,0,0:0:0:0:
256,192,41017,1,2,0:0:0:0:
256,192,41114,1,2,0:0:0:0:
256,192,41211,1,0,0:0:0:0:
256,192,41308,1,2,0:0:0:0:
256,192,41405,1,0,0:0:0:0:
256,192,41501,1,0,0:0:0:0:
256,192,41598,1,2,0:0:0:0:
256,192,41695,1,2,0:0:0:0:
256,192,41792,1,0,0:0:0:0:
256,192,41985,1,0,0:0:0:0:
256,192,42179,1,2,0:0:0:0:
256,192,42243,1,2,0:0:0:0:
256,192,42308,1,2,0:0:0:0:
256,192,42372,1,2,0:0:0:0:
256,192,42469,1,0,0:0:0:0:
256,192,42663,1,2,0:0:0:0:
256,192,42759,1,0,0:0:0:0:
256,192,42953,1,0,0:0:0:0:
256,192,43050,1,0,0:0:0:0:
256,192,43147,1,2,0:0:0:0:
256,192,43340,1,0,0:0:0:0:
256,192,43405,1,0,0:0:0:0:
256,192,43469,1,0,0:0:0:0:
256,192,43534,1,0,0:0:0:0:
256,192,43598,1,0,0:0:0:0:
256,192,43663,1,0,0:0:0:0:
256,192,43727,1,2,0:0:0:0:
256,192,43921,1,2,0:0:0:0:
256,192,44017,1,2,0:0:0:0:
256,192,44114,1,0,0:0:0:0:
256,192,44211,1,2,0:0:0:0:
256,192,44308,1,0,0:0:0:0:
256,192,44501,1,2,0:0:0:0:
256,192,44598,1,0,0:0:0:0:
256,192,44695,1,2,0:0:0:0:
256,192,44792,1,2,0:0:0:0:
256,192,44888,1,0,0:0:0:0:
256,192,45082,1,0,0:0:0:0:
256,192,45276,1,2,0:0:0:0:
256,192,45340,1,2,0:0:0:0:
256,192,45405,1,2,0:0:0:0:
256,192,45469,1,0,0:0:0:0:
256,192,45566,1,2,0:0:0:0:
256,192,45614,1,2,0:0:0:0:
256,192,45759,1,2,0:0:0:0:
256,192,45856,1,0,0:0:0:0:
256,192,45953,1,0,0:0:0:0:
256,192,46050,1,2,0:0:0:0:
256,192,46098,1,2,0:0:0:0:
256,192,46147,1,0,0:0:0:0:
256,192,46243,1,0,0:0:0:0:
256,192,46437,1,0,0:0:0:0:
256,192,46534,1,0,0:0:0:0:
256,192,46727,1,0,0:0:0:0:
256,192,46824,1,2,0:0:0:0:
256,192,46921,1,0,0:0:0:0:
256,192,47017,1,0,0:0:0:0:
256,192,47114,1,0,0:0:0:0:
256,192,47308,1,2,0:0:0:0:
256,192,47405,1,0,0:0:0:0:
256,192,47598,1,0,0:0:0:0:
256,192,47695,1,0,0:0:0:0:
256,192,47792,1,2,0:0:0:0:
256,192,47985,1,0,0:0:0:0:
256,192,48082,1,0,0:0:0:0:
256,192,48276,1,0,0:0:0:0:
256,192,48372,1,2,0:0:0:0:
256,192,48566,1,2,0:0:0:0:
256,192,48663,1,2,0:0:0:0:
256,192,48759,1,0,0:0:0:0:
256,192,48856,1,2,0:0:0:0:
256,192,48953,1,0,0:0:0:0:
256,192,49147,1,2,0:0:0:0:
256,192,49243,1,0,0:0:0:0:
256,192,49340,1,0,0:0:0:0:
256,192,49437,1,2,0:0:0:0:
256,192,49534,1,0,0:0:0:0:
256,192,49598,1,0,0:0:0:0:
256,192,49663,1,0,0:0:0:0:
256,192,49727,1,0,0:0:0:0:
256,192,49792,1,0,0:0:0:0:
256,192,49856,1,0,0:0:0:0:
256,192,49921,1,2,0:0:0:0:
256,192,50114,1,2,0:0:0:0:
256,192,50211,1,2,0:0:0:0:
256,192,50308,1,0,0:0:0:0:
256,192,50405,1,2,0:0:0:0:
256,192,50501,1,0,0:0:0:0:
256,192,50695,1,2,0:0:0:0:
256,192,50792,1,0,0:0:0:0:
256,192,50888,1,2,0:0:0:0:
256,192,50985,1,2,0:0:0:0:
256,192,51082,1,0,0:0:0:0:
256,192,51276,1,0,0:0:0:0:
256,192,51469,1,2,0:0:0:0:
256,192,51534,1,2,0:0:0:0:
256,192,51598,1,2,0:0:0:0:
256,192,51663,1,0,0:0:0:0:
256,192,51759,1,2,0:0:0:0:
256,192,51808,1,2,0:0:0:0:
256,192,51856,1,0,0:0:0:0:
256,192,52050,1,0,0:0:0:0:
256,192,52243,1,2,0:0:0:0:
256,192,52340,1,0,0:0:0:0:
256,192,52437,1,2,0:0:0:0:
256,192,52534,1,2,0:0:0:0:
256,192,52630,1,0,0:0:0:0:
256,192,52727,1,0,0:0:0:0:
256,192,52921,1,0,0:0:0:0:
256,192,53017,1,2,0:0:0:0:
256,192,53114,1,0,0:0:0:0:
256,192,53211,1,0,0:0:0:0:
256,192,53405,1,0,0:0:0:0:
256,192,53501,1,0,0:0:0:0:
256,192,53695,1,2,0:0:0:0:
256,192,53792,1,0,0:0:0:0:
256,192,53888,1,0,0:0:0:0:
256,192,53985,1,2,0:0:0:0:
256,192,54179,1,4,0:0:0:0:
256,192,54953,1,0,0:0:0:0:
256,192,55050,1,0,0:0:0:0:
256,192,55147,1,0,0:0:0:0:
256,192,55243,1,2,0:0:0:0:
256,192,55340,1,0,0:0:0:0:
256,192,55437,1,0,0:0:0:0:
256,192,55534,1,2,0:0:0:0:
256,192,55727,1,6,0:0:0:0:
256,192,56114,12,0,56501,0:0:0:0:
256,192,56888,5,0,0:0:0:0:
256,192,56985,1,0,0:0:0:0:
256,192,57082,1,2,0:0:0:0:
256,192,57276,1,6,0:0:0:0:
256,192,57663,1,2,0:0:0:0:
256,192,57953,1,0,0:0:0:0:
256,192,58050,1,2,0:0:0:0:
256,192,58243,1,2,0:0:0:0:
256,192,58340,1,0,0:0:0:0:
256,192,58437,1,2,0:0:0:0:
256,192,58630,1,2,0:0:0:0:
256,192,59017,1,0,0:0:0:0:
256,192,59114,1,2,0:0:0:0:
256,192,59211,1,0,0:0:0:0:
256,192,59405,1,0,0:0:0:0:
256,192,59598,1,2,0:0:0:0:
256,192,59792,1,0,0:0:0:0:
256,192,59888,1,0,0:0:0:0:
256,192,59985,1,2,0:0:0:0:
256,192,60179,1,2,0:0:0:0:
256,192,60276,1,0,0:0:0:0:
256,192,60372,1,2,0:0:0:0:
256,192,60663,1,2,0:0:0:0:
256,192,60759,1,0,0:0:0:0:
256,192,60953,1,2,0:0:0:0:
256,192,61147,1,0,0:0:0:0:
256,192,61340,1,0,0:0:0:0:
256,192,61437,1,2,0:0:0:0:
256,192,61534,1,0,0:0:0:0:
256,192,61630,1,0,0:0:0:0:
256,192,61727,1,0,0:0:0:0:
256,192,61824,1,2,0:0:0:0:
256,192,61921,1,2,0:0:0:0:
256,192,62017,1,0,0:0:0:0:
256,192,62114,1,2,0:0:0:0:
256,192,62211,1,2,0:0:0:0:
256,192,62308,1,0,0:0:0:0:
256,192,62405,1,2,0:0:0:0:
256,192,62501,1,0,0:0:0:0:
256,192,62598,1,0,0:0:0:0:
256,192,62695,1,2,0:0:0:0:
256,192,62792,1,0,0:0:0:0:
256,192,62888,1,0,0:0:0:0:
256,192,62985,1,2,0:0:0:0:
256,192,63082,1,2,0:0:0:0:
256,192,63179,1,0,0:0:0:0:
256,192,63276,1,2,0:0:0:0:
256,192,63372,1,0,0:0:0:0:
256,192,63469,1,0,0:0:0:0:
256,192,63856,1,0,0:0:0:0:
256,192,64147,1,2,0:0:0:0:
256,192,64243,1,0,0:0:0:0:
256,192,64437,1,2,0:0:0:0:
256,192,64534,1,2,0:0:0:0:
256,192,64630,1,0,0:0:0:0:
256,192,64824,1,0,0:0:0:0:
256,192,65211,1,0,0:0:0:0:
256,192,65308,1,0,0:0:0:0:
256,192,65405,1,2,0:0:0:0:
256,192,65598,1,0,0:0:0:0:
256,192,65792,1,2,0:0:0:0:
256,192,65985,1,2,0:0:0:0:
256,192,66082,1,0,0:0:0:0:
256,192,66179,1,0,0:0:0:0:
256,192,66372,1,2,0:0:0:0:
256,192,66566,1,0,0:0:0:0:
256,192,66953,1,0,0:0:0:0:
256,192,67147,1,2,0:0:0:0:
256,192,67243,1,2,0:0:0:0:
256,192,67340,1,0,0:0:0:0:
256,192,67534,1,0,0:0:0:0:
256,192,67630,1,2,0:0:0:0:
256,192,67727,1,0,0:0:0:0:
256,192,67921,1,0,0:0:0:0:
256,192,68114,1,2,0:0:0:0:
256,192,68308,1,0,0:0:0:0:
256,192,68405,1,2,0:0:0:0:
256,192,68501,1,2,0:0:0:0:
256,192,68696,1,2,0:0:0:0:
256,192,68888,1,0,0:0:0:0:
256,192,69082,1,2,0:0:0:0:
256,192,69179,1,2,0:0:0:0:
256,192,69276,1,0,0:0:0:0:
256,192,69372,1,0,0:0:0:0:
256,192,69469,1,0,0:0:0:0:
256,192,69566,1,2,0:0:0:0:
256,192,69663,1,2,0:0:0:0:
256,192,70050,1,2,0:0:0:0:
256,192,70340,1,0,0:0:0:0:
256,192,70437,1,2,0:0:0:0:
256,192,70630,1,2,0:0:0:0:
256,192,70727,1,0,0:0:0:0:
256,192,70824,1,2,0:0:0:0:
256,192,71017,1,2,0:0:0:0:
256,192,71405,1,0,0:0:0:0:
256,192,71501,1,2,0:0:0:0:
256,192,71598,1,0,0:0:0:0:
256,192,71792,1,0,0:0:0:0:
256,192,71985,1,2,0:0:0:0:
256,192,72179,1,2,0:0:0:0:
256,192,72276,1,2,0:0:0:0:
256,192,72372,1,0,0:0:0:0:
256,192,72566,1,0,0:0:0:0:
256,192,72759,1,2,0:0:0:0:
256,192,73050,1,2,0:0:0:0:
256,192,73147,1,0,0:0:0:0:
256,192,73340,1,2,0:0:0:0:
256,192,73534,1,0,0:0:0:0:
256,192,73727,1,0,0:0:0:0:
256,192,73824,1,2,0:0:0:0:
256,192,73921,1,0,0:0:0:0:
256,192,74017,1,0,0:0:0:0:
256,192,74114,1,0,0:0:0:0:
256,192,74211,1,2,0:0:0:0:
256,192,74308,1,2,0:0:0:0:
256,192,74405,1,2,0:0:0:0:
256,192,74501,1,0,0:0:0:0:
256,192,74598,1,0,0:0:0:0:
256,192,74695,1,2,0:0:0:0:
256,192,74792,1,0,0:0:0:0:
256,192,74888,1,0,0:0:0:0:
256,192,74985,1,2,0:0:0:0:
256,192,75082,1,0,0:0:0:0:
256,192,75179,1,0,0:0:0:0:
256,192,75276,1,2,0:0:0:0:
256,192,75372,1,2,0:0:0:0:
256,192,75469,1,2,0:0:0:0:
256,192,75566,1,0,0:0:0:0:
256,192,75663,1,2,0:0:0:0:
256,192,75759,1,0,0:0:0:0:
256,192,75856,1,0,0:0:0:0:
256,192,76243,1,0,0:0:0:0:
256,192,76534,1,0,0:0:0:0:
256,192,76630,1,2,0:0:0:0:
256,192,76824,1,2,0:0:0:0:
256,192,76921,1,2,0:0:0:0:
256,192,77017,1,0,0:0:0:0:
256,192,77211,1,0,0:0:0:0:
256,192,77598,1,0,0:0:0:0:
256,192,77695,1,0,0:0:0:0:
256,192,77792,1,2,0:0:0:0:
256,192,77985,1,0,0:0:0:0:
256,192,78179,1,0,0:0:0:0:
256,192,78276,1,0,0:0:0:0:
256,192,78372,1,2,0:0:0:0:
256,192,78566,1,0,0:0:0:0:
256,192,78759,1,2,0:0:0:0:
256,192,78953,1,2,0:0:0:0:
256,192,79147,1,0,0:0:0:0:
256,192,79243,1,0,0:0:0:0:
256,192,79340,1,2,0:0:0:0:
256,192,79437,1,0,0:0:0:0:
256,192,79534,1,2,0:0:0:0:
256,192,79630,1,2,0:0:0:0:
256,192,79727,1,0,0:0:0:0:
256,192,79921,1,0,0:0:0:0:
256,192,80017,1,2,0:0:0:0:
256,192,80114,1,0,0:0:0:0:
256,192,80211,1,0,0:0:0:0:
256,192,80308,1,2,0:0:0:0:
256,192,80405,1,2,0:0:0:0:
256,192,80501,1,0,0:0:0:0:
256,192,80598,1,0,0:0:0:0:
256,192,80695,1,0,0:0:0:0:
256,192,80792,1,0,0:0:0:0:
256,192,80888,1,2,0:0:0:0:
256,192,80985,1,0,0:0:0:0:
256,192,81082,1,2,0:0:0:0:
256,192,81179,1,2,0:0:0:0:
256,192,81276,1,0,0:0:0:0:
256,192,81469,1,0,0:0:0:0:
256,192,81663,1,6,0:0:0:0:
256,192,82050,1,0,0:0:0:0:
256,192,82147,1,2,0:0:0:0:
256,192,82243,1,2,0:0:0:0:
256,192,82340,1,0,0:0:0:0:
256,192,82437,1,0,0:0:0:0:
256,192,82534,1,0,0:0:0:0:
256,192,82630,1,2,0:0:0:0:
256,192,82727,1,0,0:0:0:0:
256,192,82824,1,2,0:0:0:0:
256,192,82921,1,2,0:0:0:0:
256,192,83017,1,0,0:0:0:0:
256,192,83114,1,2,0:0:0:0:
256,192,83211,1,0,0:0:0:0:
256,192,83308,1,2,0:0:0:0:
256,192,83405,1,2,0:0:0:0:
256,192,83501,1,0,0:0:0:0:
256,192,83598,1,0,0:0:0:0:
256,192,83695,1,0,0:0:0:0:
256,192,83792,1,2,0:0:0:0:
256,192,83888,1,0,0:0:0:0:
256,192,83985,1,2,0:0:0:0:
256,192,84082,1,2,0:0:0:0:
256,192,84179,1,0,0:0:0:0:
256,192,84276,1,2,0:0:0:0:
256,192,84372,1,0,0:0:0:0:
256,192,84469,1,0,0:0:0:0:
256,192,84566,1,0,0:0:0:0:
256,192,84663,1,2,0:0:0:0:
256,192,84759,1,2,0:0:0:0:
256,192,84856,1,0,0:0:0:0:
256,192,84953,1,2,0:0:0:0:
256,192,85050,1,2,0:0:0:0:
256,192,85147,1,0,0:0:0:0:
256,192,85243,1,2,0:0:0:0:
256,192,85340,1,2,0:0:0:0:
256,192,85437,1,0,0:0:0:0:
256,192,85534,1,0,0:0:0:0:
256,192,85630,1,0,0:0:0:0:
256,192,85727,1,2,0:0:0:0:
256,192,85824,1,0,0:0:0:0:
256,192,85921,1,2,0:0:0:0:
256,192,86017,1,2,0:0:0:0:
256,192,86114,1,0,0:0:0:0:
256,192,86211,1,2,0:0:0:0:
256,192,86308,1,0,0:0:0:0:
256,192,86405,1,2,0:0:0:0:
256,192,86501,1,2,0:0:0:0:
256,192,86598,1,0,0:0:0:0:
256,192,86695,1,0,0:0:0:0:
256,192,86792,1,0,0:0:0:0:
256,192,86888,1,2,0:0:0:0:
256,192,86985,1,0,0:0:0:0:
256,192,87082,1,2,0:0:0:0:
256,192,87179,1,2,0:0:0:0:
256,192,87276,1,0,0:0:0:0:
256,192,87372,1,0,0:0:0:0:
256,192,87469,1,2,0:0:0:0:
256,192,87566,1,0,0:0:0:0:
256,192,87663,1,0,0:0:0:0:
256,192,87759,1,2,0:0:0:0:
256,192,87856,1,0,0:0:0:0:
256,192,87953,1,2,0:0:0:0:
256,192,88050,1,2,0:0:0:0:
256,192,88147,1,0,0:0:0:0:
256,192,88243,1,0,0:0:0:0:
256,192,88630,1,0,0:0:0:0:
256,192,89017,1,2,0:0:0:0:
256,192,89405,1,0,0:0:0:0:
256,192,89792,1,0,0:0:0:0:
256,192,89985,1,0,0:0:0:0:
256,192,90179,1,0,0:0:0:0:
256,192,90372,1,2,0:0:0:0:
256,192,90566,1,0,0:0:0:0:
256,192,90663,1,2,0:0:0:0:
256,192,90759,1,2,0:0:0:0:
256,192,90856,1,0,0:0:0:0:
256,192,90953,1,0,0:0:0:0:
256,192,91147,1,2,0:0:0:0:
256,192,91340,1,4,0:0:0:0:
256,192,91533,1,2,0:0:0:0:
256,192,91630,1,2,0:0:0:0:
256,192,91727,1,0,0:0:0:0:
256,192,91921,1,2,0:0:0:0:
256,192,92114,1,4,0:0:0:0:
256,192,92308,1,0,0:0:0:0:
256,192,92405,1,2,0:0:0:0:
256,192,92501,1,0,0:0:0:0:
256,192,92695,1,2,0:0:0:0:
256,192,92888,1,4,0:0:0:0:
256,192,93276,1,4,0:0:0:0:
256,192,93663,1,6,0:0:0:0:
256,192,93856,1,0,0:0:0:0:
256,192,93953,1,0,0:0:0:0:
256,192,94050,1,2,0:0:0:0:
256,192,94437,1,4,0:0:0:0:
256,192,94727,1,2,0:0:0:0:
256,192,94824,1,0,0:0:0:0:
256,192,95017,1,0,0:0:0:0:
256,192,95114,1,0,0:0:0:0:
256,192,95211,1,2,0:0:0:0:
256,192,95405,1,2,0:0:0:0:
256,192,95501,1,2,0:0:0:0:
256,192,95598,1,2,0:0:0:0:
256,192,95985,1,4,0:0:0:0:
256,192,99082,1,0,0:0:0:0:
256,192,102179,1,0,0:0:0:0:
256,192,102566,1,0,0:0:0:0:
256,192,102953,1,0,0:0:0:0:
256,192,103147,1,0,0:0:0:0:
256,192,103243,1,2,0:0:0:0:
256,192,103340,1,0,0:0:0:0:
256,192,103437,1,0,0:0:0:0:
256,192,103534,1,2,0:0:0:0:
256,192,103630,1,2,0:0:0:0:
256,192,103727,1,0,0:0:0:0:
256,192,104114,1,0,0:0:0:0:
256,192,104501,1,0,0:0:0:0:
256,192,104695,1,2,0:0:0:0:
256,192,104792,1,0,0:0:0:0:
256,192,104888,1,2,0:0:0:0:
256,192,104985,1,2,0:0:0:0:
256,192,105082,1,0,0:0:0:0:
256,192,105276,1,0,0:0:0:0:
256,192,105663,1,0,0:0:0:0:
256,192,105856,1,2,0:0:0:0:
256,192,106050,1,0,0:0:0:0:
256,192,106243,1,2,0:0:0:0:
256,192,106308,1,2,0:0:0:0:
256,192,106372,1,2,0:0:0:0:
256,192,106437,1,0,0:0:0:0:
256,192,106630,1,0,0:0:0:0:
256,192,106824,1,2,0:0:0:0:
256,192,107017,1,0,0:0:0:0:
256,192,107082,1,2,0:0:0:0:
256,192,107147,1,2,0:0:0:0:
256,192,107211,1,0,0:0:0:0:
256,192,107405,1,0,0:0:0:0:
256,192,107598,1,2,0:0:0:0:
256,192,107695,1,2,0:0:0:0:
256,192,107792,1,0,0:0:0:0:
256,192,107888,1,2,0:0:0:0:
256,192,107985,1,2,0:0:0:0:
256,192,108179,1,2,0:0:0:0:
256,192,108372,1,4,0:0:0:0:
256,192,108759,1,0,0:0:0:0:
256,192,108953,1,0,0:0:0:0:
256,192,109147,1,2,0:0:0:0:
256,192,109534,1,2,0:0:0:0:
256,192,109727,1,0,0:0:0:0:
256,192,109921,1,2,0:0:0:0:
256,192,110211,1,2,0:0:0:0:
256,192,110308,1,0,0:0:0:0:
256,192,110501,1,0,0:0:0:0:
256,192,110695,1,2,0:0:0:0:
256,192,111082,1,0,0:0:0:0:
256,192,111179,1,0,0:0:0:0:
256,192,111276,1,0,0:0:0:0:
256,192,111372,1,2,0:0:0:0:
256,192,111469,1,2,0:0:0:0:
256,192,111856,1,0,0:0:0:0:
256,192,112050,1,0,0:0:0:0:
256,192,112243,1,2,0:0:0:0:
256,192,112501,1,2,0:0:0:0:
256,192,112566,1,2,0:0:0:0:
256,192,112630,1,0,0:0:0:0:
256,192,112824,1,2,0:0:0:0:
256,192,113017,1,2,0:0:0:0:
256,192,113405,1,0,0:0:0:0:
256,192,113792,1,0,0:0:0:0:
256,192,113985,1,2,0:0:0:0:
256,192,114179,1,2,0:0:0:0:
256,192,114372,1,0,0:0:0:0:
256,192,114566,1,0,0:0:0:0:
256,192,114759,1,2,0:0:0:0:
256,192,114953,1,2,0:0:0:0:
256,192,115340,1,2,0:0:0:0:
256,192,115534,1,0,0:0:0:0:
256,192,115630,1,2,0:0:0:0:
256,192,115727,1,0,0:0:0:0:
256,192,115824,1,0,0:0:0:0:
256,192,115921,1,2,0:0:0:0:
256,192,116017,1,2,0:0:0:0:
256,192,116114,1,0,0:0:0:0:
256,192,116308,1,0,0:0:0:0:
256,192,116501,1,2,0:0:0:0:
256,192,116695,1,0,0:0:0:0:
256,192,116888,1,6,0:0:0:0:
256,192,117276,1,2,0:0:0:0:
256,192,117469,1,2,0:0:0:0:
256,192,117663,1,4,0:0:0:0:
256,192,118050,1,0,0:0:0:0:
256,192,118243,1,0,0:0:0:0:
256,192,118340,1,2,0:0:0:0:
256,192,118437,1,0,0:0:0:0:
256,192,118630,1,0,0:0:0:0:
256,192,118727,1,0,0:0:0:0:
256,192,118824,1,2,0:0:0:0:
256,192,119017,1,2,0:0:0:0:
256,192,119211,1,0,0:0:0:0:
256,192,119308,1,2,0:0:0:0:
256,192,119405,1,0,0:0:0:0:
256,192,119501,1,0,0:0:0:0:
256,192,119598,1,2,0:0:0:0:
256,192,119695,1,0,0:0:0:0:
256,192,119792,1,2,0:0:0:0:
256,192,119888,1,2,0:0:0:0:
256,192,119985,1,2,0:0:0:0:
256,192,120179,1,0,0:0:0:0:
256,192,120276,1,2,0:0:0:0:
256,192,120372,1,2,0:0:0:0:
256,192,120566,1,6,0:0:0:0:
256,192,120759,1,0,0:0:0:0:
256,192,120856,1,2,0:0:0:0:
256,192,120953,1,2,0:0:0:0:
256,192,121050,1,0,0:0:0:0:
256,192,121147,1,0,0:0:0:0:
256,192,121243,1,0,0:0:0:0:
256,192,121340,1,2,0:0:0:0:
256,192,121437,1,0,0:0:0:0:
256,192,121534,1,2,0:0:0:0:
256,192,121630,1,2,0:0:0:0:
256,192,121727,1,0,0:0:0:0:
256,192,121824,1,0,0:0:0:0:
256,192,121921,1,0,0:0:0:0:
256,192,122017,1,2,0:0:0:0:
256,192,122114,1,2,0:0:0:0:
256,192,122211,1,0,0:0:0:0:
256,192,122308,1,0,0:0:0:0:
256,192,122405,1,0,0:0:0:0:
256,192,122501,1,2,0:0:0:0:
256,192,122598,1,0,0:0:0:0:
256,192,122695,1,2,0:0:0:0:
256,192,122792,1,2,0:0:0:0:
256,192,122888,1,0,0:0:0:0:
256,192,122985,1,2,0:0:0:0:
256,192,123082,1,0,0:0:0:0:
256,192,123179,1,0,0:0:0:0:
256,192,123276,1,0,0:0:0:0:
256,192,123372,1,2,0:0:0:0:
256,192,123469,1,2,0:0:0:0:
256,192,123566,1,0,0:0:0:0:
256,192,123663,1,2,0:0:0:0:
256,192,123759,1,2,0:0:0:0:
256,192,123856,1,0,0:0:0:0:
256,192,123953,1,2,0:0:0:0:
256,192,124050,1,2,0:0:0:0:
256,192,124147,1,0,0:0:0:0:
256,192,124243,1,0,0:0:0:0:
256,192,124340,1,0,0:0:0:0:
256,192,124437,1,2,0:0:0:0:
256,192,124534,1,0,0:0:0:0:
256,192,124630,1,2,0:0:0:0:
256,192,124727,1,2,0:0:0:0:
256,192,124824,1,0,0:0:0:0:
256,192,124921,1,0,0:0:0:0:
256,192,125017,1,0,0:0:0:0:
256,192,125114,1,2,0:0:0:0:
256,192,125211,1,2,0:0:0:0:
256,192,125308,1,0,0:0:0:0:
256,192,125405,1,0,0:0:0:0:
256,192,125501,1,0,0:0:0:0:
256,192,125598,1,2,0:0:0:0:
256,192,125695,1,0,0:0:0:0:
256,192,125792,1,2,0:0:0:0:
256,192,125888,1,2,0:0:0:0:
256,192,125985,1,0,0:0:0:0:
256,192,126082,1,0,0:0:0:0:
256,192,126179,1,2,0:0:0:0:
256,192,126276,1,0,0:0:0:0:
256,192,126372,1,0,0:0:0:0:
256,192,126469,1,2,0:0:0:0:
256,192,126566,1,2,0:0:0:0:
256,192,126663,1,2,0:0:0:0:
256,192,126759,1,2,0:0:0:0:
256,192,126856,1,0,0:0:0:0:
256,192,126953,1,0,0:0:0:0:
256,192,127340,1,0,0:0:0:0:
256,192,127727,1,2,0:0:0:0:
256,192,128114,1,0,0:0:0:0:
256,192,128501,1,0,0:0:0:0:
256,192,128695,1,0,0:0:0:0:
256,192,128888,1,0,0:0:0:0:
256,192,129082,1,2,0:0:0:0:
256,192,129276,1,0,0:0:0:0:
256,192,129372,1,2,0:0:0:0:
256,192,129469,1,2,0:0:0:0:
256,192,129566,1,0,0:0:0:0:
256,192,129663,1,0,0:0:0:0:
256,192,129856,1,2,0:0:0:0:
256,192,130050,1,4,0:0:0:0:
256,192,130243,1,2,0:0:0:0:
256,192,130340,1,2,0:0:0:0:
256,192,130437,1,0,0:0:0:0:
256,192,130630,1,2,0:0:0:0:
256,192,130824,1,4,0:0:0:0:
256,192,131017,1,0,0:0:0:0:
256,192,131114,1,2,0:0:0:0:
256,192,131211,1,0,0:0:0:0:
256,192,131405,1,2,0:0:0:0:
256,192,131598,1,4,0:0:0:0:
256,192,131985,1,4,0:0:0:0:
256,192,132372,1,6,0:0:0:0:
256,192,132566,1,0,0:0:0:0:
256,192,132663,1,0,0:0:0:0:
256,192,132759,1,2,0:0:0:0:
256,192,133147,1,4,0:0:0:0:
256,192,133534,1,2,0:0:0:0:
256,192,133824,1,2,0:0:0:0:
256,192,134114,1,2,0:0:0:0:
256,192,134308,1,2,0:0:0:0:
256,192,134501,1,2,0:0:0:0:
256,192,134695,1,0,0:0:0:0:
256,192,134985,1,0,0:0:0:0:
256,192,135082,1,0,0:0:0:0:
256,192,135276,1,0,0:0:0:0:
256,192,135469,1,0,0:0:0:0:
256,192,135566,1,0,0:0:0:0:
256,192,135663,1,0,0:0:0:0:
256,192,135856,1,0,0:0:0:0:
256,192,136243,1,2,0:0:0:0:
256,192,136630,1,2,0:0:0:0:
256,192,136921,1,2,0:0:0:0:
256,192,137211,1,2,0:0:0:0:
256,192,137405,1,2,0:0:0:0:
256,192,137598,1,2,0:0:0:0:
256,192,137792,1,0,0:0:0:0:
256,192,138082,1,0,0:0:0:0:
256,192,138179,1,0,0:0:0:0:
256,192,138372,1,0,0:0:0:0:
256,192,138566,1,0,0:0:0:0:
256,192,138663,1,0,0:0:0:0:
256,192,138759,1,0,0:0:0:0:
256,192,138953,1,0,0:0:0:0:
256,192,139340,1,2,0:0:0:0:
256,192,139727,1,2,0:0:0:0:
256,192,140017,1,2,0:0:0:0:
256,192,140308,1,2,0:0:0:0:
256,192,140501,1,2,0:0:0:0:
256,192,140695,1,2,0:0:0:0:
256,192,140888,1,2,0:0:0:0:
256,192,141017,1,2,0:0:0:0:
256,192,141147,1,2,0:0:0:0:
256,192,141276,1,2,0:0:0:0:
256,192,141372,1,2,0:0:0:0:
256,192,141469,1,2,0:0:0:0:
256,192,141566,1,2,0:0:0:0:
256,192,141663,1,2,0:0:0:0:
256,192,141856,1,2,0:0:0:0:
256,192,142243,1,6,0:0:0:0:
256,192,142437,1,2,0:0:0:0:
256,192,142824,1,2,0:0:0:0:
256,192,143114,1,2,0:0:0:0:
256,192,143405,1,2,0:0:0:0:
256,192,143598,1,2,0:0:0:0:
256,192,143792,1,2,0:0:0:0:
256,192,143985,1,2,0:0:0:0:
256,192,144114,1,2,0:0:0:0:
256,192,144243,1,2,0:0:0:0:
256,192,144372,1,2,0:0:0:0:
256,192,144469,1,2,0:0:0:0:
256,192,144566,1,2,0:0:0:0:
256,192,144663,1,2,0:0:0:0:
256,192,144759,1,2,0:0:0:0:
256,192,144953,1,2,0:0:0:0:
256,192,145147,1,6,0:0:0:0:
256,192,145534,1,4,0:0:0:0:
256,192,145921,1,0,0:0:0:0:
256,192,146114,1,2,0:0:0:0:
256,192,146308,1,0,0:0:0:0:
256,192,146501,1,0,0:0:0:0:
256,192,146695,1,2,0:0:0:0:
256,192,146888,1,0,0:0:0:0:
256,192,147082,1,2,0:0:0:0:
256,192,147469,1,0,0:0:0:0:
256,192,147663,1,2,0:0:0:0:
256,192,148050,1,2,0:0:0:0:
256,192,148147,1,2,0:0:0:0:
256,192,148243,1,0,0:0:0:0:
256,192,148437,1,0,0:0:0:0:
256,192,148630,1,0,0:0:0:0:
256,192,148824,1,0,0:0:0:0:
256,192,148921,1,2,0:0:0:0:
256,192,149017,1,0,0:0:0:0:
256,192,149211,1,0,0:0:0:0:
256,192,149405,1,0,0:0:0:0:
256,192,149598,1,0,0:0:0:0:
256,192,149695,1,2,0:0:0:0:
256,192,149792,1,0,0:0:0:0:
256,192,149985,1,0,0:0:0:0:
256,192,150179,1,2,0:0:0:0:
256,192,150566,1,0,0:0:0:0:
256,192,150759,1,2,0:0:0:0:
256,192,150953,1,2,0:0:0:0:
256,192,151147,1,0,0:0:0:0:
256,192,151340,1,2,0:0:0:0:
256,192,151534,1,0,0:0:0:0:
256,192,151921,1,2,0:0:0:0:
256,192,152114,1,0,0:0:0:0:
256,192,152308,1,0,0:0:0:0:
256,192,152501,1,2,0:0:0:0:
256,192,152695,1,0,0:0:0:0:
256,192,152888,1,2,0:0:0:0:
256,192,153082,1,2,0:0:0:0:
256,192,153276,1,0,0:0:0:0:
256,192,153663,1,0,0:0:0:0:
256,192,153856,1,2,0:0:0:0:
256,192,154243,1,2,0:0:0:0:
256,192,154437,1,0,0:0:0:0:
256,192,154630,1,2,0:0:0:0:
256,192,154727,1,2,0:0:0:0:
256,192,154824,1,0,0:0:0:0:
256,192,155211,1,0,0:0:0:0:
256,192,155405,1,0,0:0:0:0:
256,192,155501,1,2,0:0:0:0:
256,192,155598,1,0,0:0:0:0:
256,192,155985,1,0,0:0:0:0:
256,192,156372,1,2,0:0:0:0:
256,192,156566,1,0,0:0:0:0:
256,192,156759,1,2,0:0:0:0:
256,192,156953,1,2,0:0:0:0:
256,192,157147,1,0,0:0:0:0:
256,192,157340,1,2,0:0:0:0:
256,192,157534,1,0,0:0:0:0:
256,192,157630,1,0,0:0:0:0:
256,192,157727,1,2,0:0:0:0:
256,192,157921,1,6,0:0:0:0:
256,192,158308,1,2,0:0:0:0:
256,192,158501,1,0,0:0:0:0:
256,192,158598,1,0,0:0:0:0:
256,192,158695,1,2,0:0:0:0:
256,192,159082,1,2,0:0:0:0:
256,192,159276,1,2,0:0:0:0:
256,192,159372,1,0,0:0:0:0:
256,192,159469,1,2,0:0:0:0:
256,192,159759,1,2,0:0:0:0:
256,192,159856,1,0,0:0:0:0:
256,192,160050,1,0,0:0:0:0:
256,192,160243,1,2,0:0:0:0:
256,192,160437,1,2,0:0:0:0:
256,192,160534,1,2,0:0:0:0:
256,192,160630,1,0,0:0:0:0:
256,192,160824,1,0,0:0:0:0:
256,192,161017,1,2,0:0:0:0:
256,192,161405,1,2,0:0:0:0:
256,192,161598,1,0,0:0:0:0:
256,192,161695,1,0,0:0:0:0:
256,192,161792,1,2,0:0:0:0:
256,192,162179,1,2,0:0:0:0:
256,192,162372,1,2,0:0:0:0:
256,192,162469,1,0,0:0:0:0:
256,192,162566,1,2,0:0:0:0:
256,192,162856,1,2,0:0:0:0:
256,192,162953,1,0,0:0:0:0:
256,192,163147,1,0,0:0:0:0:
256,192,163243,1,0,0:0:0:0:
256,192,163340,1,2,0:0:0:0:
256,192,163534,1,2,0:0:0:0:
256,192,163727,1,0,0:0:0:0:
256,192,163921,1,0,0:0:0:0:
256,192,164114,1,2,0:0:0:0:
256,192,164501,1,2,0:0:0:0:
256,192,164695,1,0,0:0:0:0:
256,192,164888,1,2,0:0:0:0:
256,192,165082,1,2,0:0:0:0:
256,192,165179,1,2,0:0:0:0:
256,192,165276,1,0,0:0:0:0:
256,192,165469,1,2,0:0:0:0:
256,192,165663,1,0,0:0:0:0:
256,192,165856,1,0,0:0:0:0:
256,192,166050,1,2,0:0:0:0:
256,192,166243,1,0,0:0:0:0:
256,192,166437,1,2,0:0:0:0:
256,192,166630,1,0,0:0:0:0:
256,192,166727,1,2,0:0:0:0:
256,192,166824,1,0,0:0:0:0:
256,192,167017,1,0,0:0:0:0:
256,192,167211,1,2,0:0:0:0:
256,192,167598,1,0,0:0:0:0:
256,192,167792,1,2,0:0:0:0:
256,192,167888,1,2,0:0:0:0:
256,192,167985,1,0,0:0:0:0:
256,192,168179,1,0,0:0:0:0:
256,192,168372,1,2,0:0:0:0:
256,192,168566,1,0,0:0:0:0:
256,192,168759,1,2,0:0:0:0:
256,192,169147,1,2,0:0:0:0:
256,192,169340,1,0,0:0:0:0:
256,192,169437,1,2,0:0:0:0:
256,192,169534,1,2,0:0:0:0:
256,192,169921,1,0,0:0:0:0:
256,192,170114,1,0,0:0:0:0:
256,192,170308,1,4,0:0:0:0:
256,192,170501,1,0,0:0:0:0:
256,192,170598,1,2,0:0:0:0:
256,192,170695,1,0,0:0:0:0:
256,192,170792,1,2,0:0:0:0:
256,192,170888,1,0,0:0:0:0:
256,192,170985,1,0,0:0:0:0:
256,192,171082,1,2,0:0:0:0:
256,192,171179,1,2,0:0:0:0:
256,192,171276,1,0,0:0:0:0:
256,192,171372,1,2,0:0:0:0:
256,192,171469,1,0,0:0:0:0:
256,192,171566,1,0,0:0:0:0:
256,192,171663,1,2,0:0:0:0:
256,192,171759,1,2,0:0:0:0:
256,192,171856,1,0,0:0:0:0:
256,192,171953,1,2,0:0:0:0:
256,192,172050,1,2,0:0:0:0:
256,192,172147,1,2,0:0:0:0:
256,192,172243,1,0,0:0:0:0:
256,192,172340,1,2,0:0:0:0:
256,192,172437,1,0,0:0:0:0:
256,192,172534,1,0,0:0:0:0:
256,192,172630,1,2,0:0:0:0:
256,192,172727,1,0,0:0:0:0:
256,192,172824,1,0,0:0:0:0:
256,192,172921,1,2,0:0:0:0:
256,192,173017,1,2,0:0:0:0:
256,192,173114,1,0,0:0:0:0:
256,192,173211,1,2,0:0:0:0:
256,192,173308,1,0,0:0:0:0:
256,192,173405,1,2,0:0:0:0:
256,192,173501,1,0,0:0:0:0:
256,192,173598,1,0,0:0:0:0:
256,192,173695,1,0,0:0:0:0:
256,192,173792,1,2,0:0:0:0:
256,192,173888,1,0,0:0:0:0:
256,192,173985,1,0,0:0:0:0:
256,192,174082,1,2,0:0:0:0:
256,192,174179,1,0,0:0:0:0:
256,192,174276,1,0,0:0:0:0:
256,192,174372,1,2,0:0:0:0:
256,192,174469,1,0,0:0:0:0:
256,192,174566,1,2,0:0:0:0:
256,192,174663,1,2,0:0:0:0:
256,192,174759,1,2,0:0:0:0:
256,192,174856,1,0,0:0:0:0:
256,192,174953,1,0,0:0:0:0:
256,192,175050,1,2,0:0:0:0:
256,192,175147,1,2,0:0:0:0:
256,192,175243,1,2,0:0:0:0:
256,192,175340,1,0,0:0:0:0:
256,192,175437,1,2,0:0:0:0:
256,192,175534,1,0,0:0:0:0:
256,192,175630,1,0,0:0:0:0:
256,192,175727,1,0,0:0:0:0:
256,192,175824,1,2,0:0:0:0:
256,192,175921,1,2,0:0:0:0:
256,192,176017,1,0,0:0:0:0:
256,192,176114,1,2,0:0:0:0:
256,192,176211,1,2,0:0:0:0:
256,192,176308,1,0,0:0:0:0:
256,192,176405,1,2,0:0:0:0:
256,192,176501,1,0,0:0:0:0:
256,192,176598,1,2,0:0:0:0:
256,192,176695,1,2,0:0:0:0:
256,192,176792,1,2,0:0:0:0:
256,192,176888,1,0,0:0:0:0:
256,192,176985,1,2,0:0:0:0:
256,192,177082,1,2,0:0:0:0:
256,192,177179,1,0,0:0:0:0:
256,192,177276,1,2,0:0:0:0:
256,192,177372,1,0,0:0:0:0:
256,192,177469,1,0,0:0:0:0:
256,192,177566,1,2,0:0:0:0:
256,192,177663,1,2,0:0:0:0:
256,192,177759,1,0,0:0:0:0:
256,192,177856,1,2,0:0:0:0:
256,192,177953,1,0,0:0:0:0:
256,192,178050,1,0,0:0:0:0:
256,192,178147,1,2,0:0:0:0:
256,192,178243,1,2,0:0:0:0:
256,192,178340,1,2,0:0:0:0:
256,192,178437,1,0,0:0:0:0:
256,192,178534,1,0,0:0:0:0:
256,192,178630,1,2,0:0:0:0:
256,192,178727,1,0,0:0:0:0:
256,192,178824,1,2,0:0:0:0:
256,192,178921,1,0,0:0:0:0:
256,192,179017,1,0,0:0:0:0:
256,192,179114,1,2,0:0:0:0:
256,192,179211,1,2,0:0:0:0:
256,192,179308,1,0,0:0:0:0:
256,192,179405,1,2,0:0:0:0:
256,192,179501,1,0,0:0:0:0:
256,192,179598,1,0,0:0:0:0:
256,192,179695,1,2,0:0:0:0:
256,192,179792,1,2,0:0:0:0:
256,192,179888,1,0,0:0:0:0:
256,192,179985,1,2,0:0:0:0:
256,192,180082,1,0,0:0:0:0:
256,192,180179,1,0,0:0:0:0:
256,192,180276,1,2,0:0:0:0:
256,192,180372,1,2,0:0:0:0:
256,192,180469,1,0,0:0:0:0:
256,192,180566,1,2,0:0:0:0:
256,192,180663,1,2,0:0:0:0:
256,192,180759,1,0,0:0:0:0:
256,192,180856,1,2,0:0:0:0:
256,192,180953,1,2,0:0:0:0:
256,192,181050,1,0,0:0:0:0:
256,192,181147,1,0,0:0:0:0:
256,192,181243,1,0,0:0:0:0:
256,192,181340,1,2,0:0:0:0:
256,192,181437,1,0,0:0:0:0:
256,192,181534,1,2,0:0:0:0:
256,192,181630,1,0,0:0:0:0:
256,192,181727,1,0,0:0:0:0:
256,192,181824,1,2,0:0:0:0:
256,192,181921,1,2,0:0:0:0:
256,192,182017,1,0,0:0:0:0:
256,192,182114,1,2,0:0:0:0:
256,192,182211,1,2,0:0:0:0:
256,192,182308,1,0,0:0:0:0:
256,192,182405,1,0,0:0:0:0:
256,192,182501,1,2,0:0:0:0:
256,192,182695,1,6,0:0:0:0:
256,192,183082,1,2,0:0:0:0:
256,192,183276,1,2,0:0:0:0:
256,192,183469,1,0,0:0:0:0:
256,192,183566,1,2,0:0:0:0:
256,192,183663,1,0,0:0:0:0:
256,192,183856,1,2,0:0:0:0:
256,192,184147,1,2,0:0:0:0:
256,192,184243,1,0,0:0:0:0:
256,192,184308,1,0,0:0:0:0:
256,192,184372,1,0,0:0:0:0:
256,192,184437,1,0,0:0:0:0:
256,192,184501,1,0,0:0:0:0:
256,192,184566,1,0,0:0:0:0:
256,192,184630,1,2,0:0:0:0:
256,192,184824,1,2,0:0:0:0:
256,192,184921,1,2,0:0:0:0:
256,192,185017,1,0,0:0:0:0:
256,192,185114,1,2,0:0:0:0:
256,192,185211,1,0,0:0:0:0:
256,192,185308,1,0,0:0:0:0:
256,192,185405,1,2,0:0:0:0:
256,192,185598,1,2,0:0:0:0:
256,192,185792,1,0,0:0:0:0:
256,192,185985,1,0,0:0:0:0:
256,192,186082,1,0,0:0:0:0:
256,192,186179,1,2,0:0:0:0:
256,192,186243,1,2,0:0:0:0:
256,192,186308,1,2,0:0:0:0:
256,192,186372,1,0,0:0:0:0:
256,192,186469,1,2,0:0:0:0:
256,192,186663,1,2,0:0:0:0:
256,192,186759,1,0,0:0:0:0:
256,192,186856,1,0,0:0:0:0:
256,192,186953,1,2,0:0:0:0:
256,192,187050,1,2,0:0:0:0:
256,192,187147,1,0,0:0:0:0:
256,192,187340,1,0,0:0:0:0:
256,192,187630,1,2,0:0:0:0:
256,192,187727,1,0,0:0:0:0:
256,192,187921,1,2,0:0:0:0:
256,192,188114,1,0,0:0:0:0:
256,192,188211,1,2,0:0:0:0:
256,192,188308,1,0,0:0:0:0:
256,192,188405,1,0,0:0:0:0:
256,192,188501,1,2,0:0:0:0:
256,192,188598,1,2,0:0:0:0:
256,192,188695,1,0,0:0:0:0:
256,192,188888,1,4,0:0:0:0:
256,192,189082,1,0,0:0:0:0:
256,192,189276,1,2,0:0:0:0:
256,192,189469,1,2,0:0:0:0:
256,192,189566,1,2,0:0:0:0:
256,192,189663,1,0,0:0:0:0:
256,192,189856,1,0,0:0:0:0:
256,192,190050,1,2,0:0:0:0:
256,192,190147,1,0,0:0:0:0:
256,192,190243,1,2,0:0:0:0:
256,192,190340,1,2,0:0:0:0:
256,192,190437,1,0,0:0:0:0:
256,192,190501,1,0,0:0:0:0:
256,192,190566,1,0,0:0:0:0:
256,192,190630,1,0,0:0:0:0:
256,192,190695,1,0,0:0:0:0:
256,192,190759,1,0,0:0:0:0:
256,192,190824,1,2,0:0:0:0:
256,192,191017,1,2,0:0:0:0:
256,192,191114,1,2,0:0:0:0:
256,192,191211,1,0,0:0:0:0:
256,192,191308,1,2,0:0:0:0:
256,192,191405,1,0,0:0:0:0:
256,192,191501,1,0,0:0:0:0:
256,192,191598,1,2,0:0:0:0:
256,192,191792,1,2,0:0:0:0:
256,192,191985,1,0,0:0:0:0:
256,192,192082,1,0,0:0:0:0:
256,192,192179,1,2,0:0:0:0:
256,192,192276,1,0,0:0:0:0:
256,192,192372,1,2,0:0:0:0:
256,192,192469,1,0,0:0:0:0:
256,192,192566,1,0,0:0:0:0:
256,192,192663,1,0,0:0:0:0:
256,192,192759,1,2,0:0:0:0:
256,192,192856,1,2,0:0:0:0:
256,192,192953,1,0,0:0:0:0:
256,192,193050,1,0,0:0:0:0:
256,192,193147,1,2,0:0:0:0:
256,192,193243,1,0,0:0:0:0:
256,192,193340,1,2,0:0:0:0:
256,192,193437,1,2,0:0:0:0:
256,192,193534,1,0,0:0:0:0:
256,192,195082,1,4,0:0:0:0:
256,192,195372,1,0,0:0:0:0:
256,192,195469,1,0,0:0:0:0:
256,192,195663,1,0,0:0:0:0:
256,192,195759,1,0,0:0:0:0:
256,192,195856,1,2,0:0:0:0:
256,192,196050,1,2,0:0:0:0:
256,192,196147,1,2,0:0:0:0:
256,192,196243,1,2,0:0:0:0:
256,192,196630,1,4,0:0:0:0:
256,192,199727,1,0,0:0:0:0:
256,192,202824,1,0,0:0:0:0:
256,192,203211,1,0,0:0:0:0:
256,192,203598,1,0,0:0:0:0:
256,192,203792,1,0,0:0:0:0:
256,192,203888,1,2,0:0:0:0:
256,192,203985,1,0,0:0:0:0:
256,192,204082,1,0,0:0:0:0:
256,192,204179,1,2,0:0:0:0:
256,192,204276,1,0,0:0:0:0:
256,192,204372,1,0,0:0:0:0:
256,192,204759,1,0,0:0:0:0:
256,192,205147,1,0,0:0:0:0:
256,192,205340,1,2,0:0:0:0:
256,192,205437,1,0,0:0:0:0:
256,192,205534,1,2,0:0:0:0:
256,192,205630,1,2,0:0:0:0:
256,192,205727,1,0,0:0:0:0:
256,192,205921,1,0,0:0:0:0:
256,192,206308,1,0,0:0:0:0:
256,192,206501,1,2,0:0:0:0:
256,192,206695,1,0,0:0:0:0:
256,192,206888,1,2,0:0:0:0:
256,192,206953,1,2,0:0:0:0:
256,192,207017,1,2,0:0:0:0:
256,192,207082,1,0,0:0:0:0:
256,192,207276,1,0,0:0:0:0:
256,192,207469,1,2,0:0:0:0:
256,192,207663,1,0,0:0:0:0:
256,192,207727,1,2,0:0:0:0:
256,192,207792,1,2,0:0:0:0:
256,192,207856,1,0,0:0:0:0:
256,192,208050,1,0,0:0:0:0:
256,192,208243,1,2,0:0:0:0:
256,192,208437,1,2,0:0:0:0:
256,192,208534,1,2,0:0:0:0:
256,192,208630,1,2,0:0:0:0:
256,192,208824,1,0,0:0:0:0:
256,192,209017,1,6,0:0:0:0:
256,192,209405,1,2,0:0:0:0:
256,192,209598,1,0,0:0:0:0:
256,192,209792,1,2,0:0:0:0:
256,192,210179,1,0,0:0:0:0:
256,192,210372,1,0,0:0:0:0:
256,192,210566,1,2,0:0:0:0:
256,192,210856,1,2,0:0:0:0:
256,192,210953,1,0,0:0:0:0:
256,192,211147,1,0,0:0:0:0:
256,192,211340,1,2,0:0:0:0:
256,192,211534,1,0,0:0:0:0:
256,192,211630,1,2,0:0:0:0:
256,192,211727,1,0,0:0:0:0:
256,192,211824,1,0,0:0:0:0:
256,192,211921,1,0,0:0:0:0:
256,192,212017,1,2,0:0:0:0:
256,192,212114,1,2,0:0:0:0:
256,192,212501,1,2,0:0:0:0:
256,192,212695,1,0,0:0:0:0:
256,192,212888,1,2,0:0:0:0:
256,192,213082,1,2,0:0:0:0:
256,192,213147,1,2,0:0:0:0:
256,192,213211,1,2,0:0:0:0:
256,192,213276,1,0,0:0:0:0:
256,192,213469,1,2,0:0:0:0:
256,192,213663,1,2,0:0:0:0:
256,192,214050,1,0,0:0:0:0:
256,192,214437,1,2,0:0:0:0:
256,192,214630,1,0,0:0:0:0:
256,192,214824,1,2,0:0:0:0:
256,192,215017,1,2,0:0:0:0:
256,192,215211,1,0,0:0:0:0:
256,192,215405,1,2,0:0:0:0:
256,192,215598,1,2,0:0:0:0:
256,192,215985,1,0,0:0:0:0:
256,192,216179,1,0,0:0:0:0:
256,192,216276,1,2,0:0:0:0:
256,192,216372,1,0,0:0:0:0:
256,192,216469,1,0,0:0:0:0:
256,192,216566,1,2,0:0:0:0:
256,192,216663,1,0,0:0:0:0:
256,192,216759,1,2,0:0:0:0:
256,192,216953,1,0,0:0:0:0:
256,192,217147,1,2,0:0:0:0:
256,192,217340,1,0,0:0:0:0:
256,192,217534,1,6,0:0:0:0:
256,192,217921,1,2,0:0:0:0:
256,192,218114,1,2,0:0:0:0:
256,192,218308,1,4,0:0:0:0:
256,192,218501,1,0,0:0:0:0:
256,192,218695,1,0,0:0:0:0:
256,192,218888,1,0,0:0:0:0:
256,192,218985,1,2,0:0:0:0:
256,192,219082,1,0,0:0:0:0:
256,192,219276,1,0,0:0:0:0:
256,192,219372,1,0,0:0:0:0:
256,192,219469,1,2,0:0:0:0:
256,192,219566,1,0,0:0:0:0:
256,192,219663,1,2,0:0:0:0:
256,192,219759,1,2,0:0:0:0:
256,192,219856,1,0,0:0:0:0:
256,192,219953,1,0,0:0:0:0:
256,192,220050,1,0,0:0:0:0:
256,192,220147,1,0,0:0:0:0:
256,192,220243,1,2,0:0:0:0:
256,192,220340,1,0,0:0:0:0:
256,192,220437,1,0,0:0:0:0:
256,192,220534,1,2,0:0:0:0:
256,192,220630,1,0,0:0:0:0:
256,192,220824,1,2,0:0:0:0:
256,192,220921,1,2,0:0:0:0:
256,192,221017,1,2,0:0:0:0:
256,192,221211,1,2,0:0:0:0:
256,192,221405,1,4,0:0:0:0:
256,192,221792,1,0,0:0:0:0:
256,192,221985,1,0,0:0:0:0:
256,192,222082,1,0,0:0:0:0:
256,192,222179,1,2,0:0:0:0:
256,192,222372,1,0,0:0:0:0:
256,192,222566,1,2,0:0:0:0:
256,192,222759,1,2,0:0:0:0:
256,192,222953,1,0,0:0:0:0:
256,192,223243,1,2,0:0:0:0:
256,192,223340,1,0,0:0:0:0:
256,192,223534,1,0,0:0:0:0:
256,192,223727,1,2,0:0:0:0:
256,192,223921,1,0,0:0:0:0:
256,192,224017,1,2,0:0:0:0:
256,192,224114,1,0,0:0:0:0:
256,192,224211,1,0,0:0:0:0:
256,192,224308,1,2,0:0:0:0:
256,192,224405,1,2,0:0:0:0:
256,192,224501,1,0,0:0:0:0:
256,192,224888,1,0,0:0:0:0:
256,192,225082,1,2,0:0:0:0:
256,192,225179,1,0,0:0:0:0:
256,192,225276,1,2,0:0:0:0:
256,192,225469,1,2,0:0:0:0:
256,192,225566,1,2,0:0:0:0:
256,192,225663,1,0,0:0:0:0:
256,192,225856,1,0,0:0:0:0:
256,192,226050,1,2,0:0:0:0:
256,192,226437,1,0,0:0:0:0:
256,192,226824,1,2,0:0:0:0:
256,192,227017,1,2,0:0:0:0:
256,192,227114,1,2,0:0:0:0:
256,192,227211,1,0,0:0:0:0:
256,192,227405,1,2,0:0:0:0:
256,192,227598,1,0,0:0:0:0:
256,192,227985,1,0,0:0:0:0:
256,192,228179,1,2,0:0:0:0:
256,192,228372,1,0,0:0:0:0:
256,192,228566,1,0,0:0:0:0:
256,192,228663,1,0,0:0:0:0:
256,192,228759,1,2,0:0:0:0:
256,192,228856,1,0,0:0:0:0:
256,192,228953,1,2,0:0:0:0:
256,192,229050,1,0,0:0:0:0:
256,192,229147,1,0,0:0:0:0:
256,192,229340,1,0,0:0:0:0:
256,192,229534,1,2,0:0:0:0:
256,192,229727,1,0,0:0:0:0:
256,192,229921,1,6,0:0:0:0:
256,192,230308,1,2,0:0:0:0:
256,192,230501,1,2,0:0:0:0:
256,192,230695,1,4,0:0:0:0:
256,192,230888,1,0,0:0:0:0:
256,192,231082,1,0,0:0:0:0:
256,192,231276,1,0,0:0:0:0:
256,192,231372,1,2,0:0:0:0:
256,192,231469,1,0,0:0:0:0:
256,192,231663,1,0,0:0:0:0:
256,192,231759,1,0,0:0:0:0:
256,192,231856,1,2,0:0:0:0:
256,192,231953,1,0,0:0:0:0:
256,192,232050,1,2,0:0:0:0:
256,192,232147,1,2,0:0:0:0:
256,192,232243,1,0,0:0:0:0:
256,192,232340,1,0,0:0:0:0:
256,192,232437,1,2,0:0:0:0:
256,192,232534,1,0,0:0:0:0:
256,192,232630,1,2,0:0:0:0:
256,192,232727,1,0,0:0:0:0:
256,192,232824,1,0,0:0:0:0:
256,192,232921,1,0,0:0:0:0:
256,192,233017,1,2,0:0:0:0:
256,192,233211,1,2,0:0:0:0:
256,192,233308,1,2,0:0:0:0:
256,192,233405,1,2,0:0:0:0:
256,192,233598,1,6,0:0:0:0:
256,192,233792,1,0,0:0:0:0:
256,192,233888,1,2,0:0:0:0:
256,192,233985,1,2,0:0:0:0:
256,192,234082,1,0,0:0:0:0:
256,192,234179,1,0,0:0:0:0:
256,192,234276,1,0,0:0:0:0:
256,192,234372,1,2,0:0:0:0:
256,192,234469,1,0,0:0:0:0:
256,192,234566,1,2,0:0:0:0:
256,192,234663,1,2,0:0:0:0:
256,192,234759,1,0,0:0:0:0:
256,192,234856,1,0,0:0:0:0:
256,192,234953,1,0,0:0:0:0:
256,192,235050,1,2,0:0:0:0:
256,192,235147,1,2,0:0:0:0:
256,192,235243,1,0,0:0:0:0:
256,192,235340,1,0,0:0:0:0:
256,192,235437,1,0,0:0:0:0:
256,192,235534,1,2,0:0:0:0:
256,192,235630,1,0,0:0:0:0:
256,192,235727,1,2,0:0:0:0:
256,192,235824,1,2,0:0:0:0:
256,192,235921,1,0,0:0:0:0:
256,192,236017,1,0,0:0:0:0:
256,192,236114,1,0,0:0:0:0:
256,192,236211,1,0,0:0:0:0:
256,192,236308,1,2,0:0:0:0:
256,192,236405,1,2,0:0:0:0:
256,192,236501,1,2,0:0:0:0:
256,192,236598,1,0,0:0:0:0:
256,192,236695,1,2,0:0:0:0:
256,192,236792,1,2,0:0:0:0:
256,192,236888,1,0,0:0:0:0:
256,192,236985,1,2,0:0:0:0:
256,192,237082,1,2,0:0:0:0:
256,192,237179,1,0,0:0:0:0:
256,192,237276,1,0,0:0:0:0:
256,192,237373,1,0,0:0:0:0:
256,192,237469,1,2,0:0:0:0:
256,192,237566,1,0,0:0:0:0:
256,192,237663,1,2,0:0:0:0:
256,192,237760,1,2,0:0:0:0:
256,192,237856,1,0,0:0:0:0:
256,192,237953,1,0,0:0:0:0:
256,192,238050,1,0,0:0:0:0:
256,192,238147,1,2,0:0:0:0:
256,192,238244,1,2,0:0:0:0:
256,192,238340,1,0,0:0:0:0:
256,192,238437,1,0,0:0:0:0:
256,192,238534,1,0,0:0:0:0:
256,192,238631,1,2,0:0:0:0:
256,192,238727,1,0,0:0:0:0:
256,192,238824,1,2,0:0:0:0:
256,192,238921,1,2,0:0:0:0:
256,192,239018,1,0,0:0:0:0:
256,192,239114,1,0,0:0:0:0:
256,192,239211,1,2,0:0:0:0:
256,192,239308,1,0,0:0:0:0:
256,192,239405,1,0,0:0:0:0:
256,192,239501,1,2,0:0:0:0:
256,192,239598,1,0,0:0:0:0:
256,192,239695,1,2,0:0:0:0:
256,192,239792,1,2,0:0:0:0:
256,192,239888,1,2,0:0:0:0:
256,192,239985,1,0,0:0:0:0:
256,192,240372,1,0,0:0:0:0:
256,192,240759,1,2,0:0:0:0:
256,192,241147,1,0,0:0:0:0:
256,192,241534,1,0,0:0:0:0:
256,192,241727,1,0,0:0:0:0:
256,192,241921,1,0,0:0:0:0:
256,192,242114,1,2,0:0:0:0:
256,192,242308,1,0,0:0:0:0:
256,192,242405,1,2,0:0:0:0:
256,192,242501,1,2,0:0:0:0:
256,192,242598,1,0,0:0:0:0:
256,192,242695,1,0,0:0:0:0:
256,192,242888,1,2,0:0:0:0:
256,192,243082,1,4,0:0:0:0:
256,192,243276,1,2,0:0:0:0:
256,192,243372,1,2,0:0:0:0:
256,192,243469,1,0,0:0:0:0:
256,192,243663,1,2,0:0:0:0:
256,192,243856,1,4,0:0:0:0:
256,192,244050,1,0,0:0:0:0:
256,192,244147,1,2,0:0:0:0:
256,192,244243,1,0,0:0:0:0:
256,192,244437,1,2,0:0:0:0:
256,192,244630,1,4,0:0:0:0:
256,192,245017,1,4,0:0:0:0:
256,192,245405,1,6,0:0:0:0:
256,192,245598,1,0,0:0:0:0:
256,192,245695,1,0,0:0:0:0:
256,192,245792,1,2,0:0:0:0:
256,192,246179,1,4,0:0:0:0:
256,192,246566,1,0,0:0:0:0:
256,192,246759,1,0,0:0:0:0:
256,192,246856,1,2,0:0:0:0:
256,192,246953,1,0,0:0:0:0:
256,192,247050,1,0,0:0:0:0:
256,192,247147,1,2,0:0:0:0:
256,192,247243,1,2,0:0:0:0:
256,192,247340,1,0,0:0:0:0:
256,192,247437,1,2,0:0:0:0:
256,192,247534,1,2,0:0:0:0:
256,192,247727,1,4,0:0:0:0:
