osu file format v14

[General]
AudioFilename: audio.mp3
AudioLeadIn: 0
PreviewTime: -1
Countdown: 1
SampleSet: Soft
StackLeniency: 0.7
Mode: 0
LetterboxInBreaks: 0
WidescreenStoryboard: 0

[Editor]
Bookmarks: 103731
DistanceSpacing: 0.9
BeatDivisor: 6
GridSize: 4
TimelineZoom: 2

[Metadata]
Title:Altale
TitleUnicode:Altale
Artist:sakuzyo
ArtistUnicode:sakuzyo
Creator:jacky2001114
Version:Insane
Source:BMS
Tags:sakuzyo altale deemo BMS of Fighters bof2014 bof 削除 g2r2014
BeatmapID:971247
BeatmapSetID:452821

[Difficulty]
HPDrainRate:6.5
CircleSize:4
OverallDifficulty:8
ApproachRate:9
SliderMultiplier:2
SliderTickRate:1

[Events]
//Background and Video events
0,0,"BG.png",0,0
Video,1320,"Altale.avi"
//Break Periods
2,78264,94464
//Storyboard Layer 0 (Background)
//Storyboard Layer 1 (Fail)
//Storyboard Layer 2 (Pass)
//Storyboard Layer 3 (Foreground)
//Storyboard Sound Samples

[TimingPoints]
2065,333.333333333333,3,1,0,100,1,0
3731,-200,3,2,0,40,0,0
18064,-83.3333333333333,3,1,0,100,0,1
26064,-100,3,2,0,70,0,0
66398,-100,3,2,0,60,0,0
95064,-83.3333333333333,3,1,0,100,0,1
126064,-200,3,2,0,40,0,0

[HitObjects]
256,192,2064,12,0,3398,0:0:0:0:
160,292,3731,5,0,0:0:0:0:
160,292,3953,2,0,L|216:288,1,33.3333333333333
352,92,4731,5,0,0:0:0:0:
352,92,4953,2,0,L|304:92,1,33.3333333333333
92,100,5731,5,0,0:0:0:0:
176,148,5953,1,0,0:0:0:0:
96,216,6064,2,0,B|124:280|148:296|180:304,1,100
256,308,6731,2,0,L|256:236,1,66.6666666666667
256,212,7064,1,0,0:0:0:0:
344,280,7398,6,0,P|424:192|384:104,1,200
232,84,9064,1,0,0:0:0:0:
148,116,9398,1,0,0:0:0:0:
96,192,9731,1,0,0:0:0:0:
128,276,10064,2,0,B|208:344|316:344|424:320,1,300
288,72,11731,5,0,0:0:0:0:
288,72,11898,1,0,0:0:0:0:
284,76,12064,2,0,L|192:128,1,100
136,292,12731,5,0,0:0:0:0:
136,292,12898,1,0,0:0:0:0:
136,292,13064,2,0,L|248:324,1,100
256,192,13731,6,0,L|328:192,1,50
256,192,14064,2,0,L|256:132,1,50
256,192,14398,2,0,L|204:192,1,50
256,192,14731,2,0,L|256:260,1,50
104,192,15064,5,0,0:0:0:0:
128,100,15231,1,0,0:0:0:0:
204,36,15398,1,0,0:0:0:0:
304,36,15564,1,0,0:0:0:0:
384,96,15731,1,0,0:0:0:0:
356,264,16064,1,0,0:0:0:0:
228,132,16731,5,0,0:0:0:0:
236,116,16814,1,0,0:0:0:0:
248,100,16898,1,0,0:0:0:0:
256,88,16981,1,0,0:0:0:0:
272,76,17064,2,0,P|348:68|444:140,1,200
80,96,17897,5,0,0:0:0:0:
92,108,17981,1,0,0:0:0:0:
104,120,18064,2,0,L|308:264,1,239.999992675781
104,224,18564,2,0,L|220:312,1,119.999996337891
300,332,18897,1,0,0:0:0:0:
272,88,19064,2,0,B|176:160|172:204|184:300,1,239.999992675781
408,264,19564,2,0,L|272:164,1,119.999996337891
128,300,19898,5,0,0:0:0:0:
140,300,19981,1,0,0:0:0:0:
156,300,20064,2,0,L|400:300,1,239.999992675781
396,212,20564,2,0,L|256:212,1,119.999996337891
36,96,20898,1,0,0:0:0:0:
32,216,21064,2,0,L|272:216,1,239.999992675781
160,296,21564,2,0,L|288:296,1,119.999996337891
112,156,21898,5,0,0:0:0:0:
120,136,21981,1,0,0:0:0:0:
128,124,22064,2,0,P|248:48|348:120,1,239.999992675781
196,156,22564,1,0,0:0:0:0:
376,116,22731,1,0,0:0:0:0:
312,296,22898,1,0,0:0:0:0:
392,216,23064,6,0,P|228:228|164:176,1,239.999992675781
40,120,23564,1,0,0:0:0:0:
252,80,23731,1,0,0:0:0:0:
112,216,23898,1,0,0:0:0:0:
128,24,24064,1,0,0:0:0:0:
248,172,24231,1,0,0:0:0:0:
364,128,24398,6,0,B|412:228|384:244|456:320|400:320|324:336,1,239.999992675781
256,192,24898,1,0,0:0:0:0:
256,192,25064,1,0,0:0:0:0:
256,192,25231,1,0,0:0:0:0:
148,120,25398,2,0,B|144:192|180:348|200:276|96:352|92:280,1,239.999992675781
48,244,25898,5,0,0:0:0:0:
52,248,26064,2,0,P|116:264|160:212,1,100
184,164,26398,1,0,0:0:0:0:
268,200,26564,1,0,0:0:0:0:
84,144,26731,2,0,P|128:72|156:80,1,100
348,48,27064,6,0,P|392:108|360:120,1,100
160,176,27398,1,0,0:0:0:0:
296,192,27564,1,0,0:0:0:0:
128,248,27731,2,0,P|104:304|132:336,1,100
408,288,28064,6,0,P|340:280|324:212,1,100
444,80,28398,2,0,P|400:32|384:52,1,100
120,216,28731,1,0,0:0:0:0:
120,216,28814,1,0,0:0:0:0:
120,216,28898,1,0,0:0:0:0:
120,288,29064,2,0,P|192:336|224:328,2,100
116,240,29564,1,0,0:0:0:0:
116,216,29648,1,0,0:0:0:0:
116,192,29731,1,0,0:0:0:0:
256,264,30064,5,0,0:0:0:0:
256,120,30398,1,0,0:0:0:0:
205,141,30564,1,0,0:0:0:0:
306,141,30731,1,0,0:0:0:0:
184,192,30898,1,0,0:0:0:0:
328,192,31064,1,0,0:0:0:0:
92,284,31398,5,0,0:0:0:0:
92,284,31731,2,0,P|228:332|288:336,2,200
88,104,32731,1,0,0:0:0:0:
264,64,33064,1,0,0:0:0:0:
436,124,33398,6,0,L|436:328,1,200
296,316,33898,2,0,B|236:312|212:284|188:220|268:192|300:192,1,200
336,80,34398,1,0,0:0:0:0:
192,244,34564,1,0,0:0:0:0:
168,80,34731,1,0,0:0:0:0:
328,232,34898,1,0,0:0:0:0:
288,288,35064,2,0,L|140:136,1,200
92,192,35731,1,0,0:0:0:0:
152,252,36064,6,0,P|232:312|336:312,2,200
128,132,37064,2,0,B|152:56|200:24|232:60|196:56,1,100
292,44,37398,1,0,0:0:0:0:
376,76,37564,1,0,0:0:0:0:
440,140,37731,1,0,0:0:0:0:
472,224,37898,1,0,0:0:0:0:
448,308,38064,1,0,0:0:0:0:
268,296,38398,5,0,0:0:0:0:
268,296,38731,2,0,L|268:192,2,100
88,288,39398,2,0,P|24:200|84:112,1,200
236,92,40064,1,0,0:0:0:0:
256,192,40398,12,0,41731,0:0:0:0:
120,296,42064,6,0,L|248:320,1,100
320,312,42398,2,0,L|384:232,1,100
392,136,42731,1,0,0:0:0:0:
112,244,43064,6,0,L|124:144,1,100
184,92,43398,2,0,L|296:68,1,100
400,176,43731,1,0,0:0:0:0:
248,328,44064,6,0,P|140:332|120:312,1,100
72,236,44398,1,0,0:0:0:0:
152,116,44564,1,0,0:0:0:0:
280,72,44731,1,0,0:0:0:0:
448,120,45064,6,0,P|392:64|344:56,1,100
248,52,45398,1,0,0:0:0:0:
332,192,45564,1,0,0:0:0:0:
132,132,45731,1,0,0:0:0:0:
176,96,46064,6,0,P|184:160|216:124,1,100
380,52,46398,1,0,0:0:0:0:
472,228,46564,1,0,0:0:0:0:
240,184,46731,1,0,0:0:0:0:
252,308,47064,6,0,L|344:240,1,100
392,168,47398,1,0,0:0:0:0:
92,312,47564,1,0,0:0:0:0:
176,116,47731,1,0,0:0:0:0:
104,172,48064,5,0,0:0:0:0:
128,128,48148,1,0,0:0:0:0:
160,88,48231,1,0,0:0:0:0:
200,64,48314,1,0,0:0:0:0:
248,52,48398,1,0,0:0:0:0:
296,64,48481,1,0,0:0:0:0:
336,84,48564,1,0,0:0:0:0:
368,116,48648,1,0,0:0:0:0:
384,156,48731,2,0,P|280:256|204:232,2,200
368,124,49731,1,0,0:0:0:0:
164,312,50064,6,0,L|292:312,1,100
304,208,50398,2,0,L|188:208,1,100
104,212,50731,1,0,0:0:0:0:
160,340,50898,1,0,0:0:0:0:
356,304,51064,6,0,L|432:236,1,100
380,132,51398,2,0,L|284:80,1,100
468,152,51731,1,0,0:0:0:0:
360,264,51898,1,0,0:0:0:0:
208,316,52064,6,0,P|116:296|104:272,1,100
84,196,52398,1,0,0:0:0:0:
204,152,52564,2,0,P|140:92|100:104,1,100
72,148,52898,1,0,0:0:0:0:
364,60,53064,6,0,P|316:108|304:76,1,100
440,40,53398,1,0,0:0:0:0:
348,236,53564,2,0,P|364:184|412:184,1,100
80,192,54064,5,0,0:0:0:0:
340,116,54398,1,0,0:0:0:0:
224,300,54731,1,0,0:0:0:0:
184,212,55064,2,0,P|344:192|312:88,2,300
120,116,56398,2,0,P|184:40|352:104,1,300
356,112,57064,5,0,0:0:0:0:
344,120,57148,1,0,0:0:0:0:
336,128,57231,1,0,0:0:0:0:
328,136,57314,1,0,0:0:0:0:
320,144,57398,1,0,0:0:0:0:
312,152,57481,1,0,0:0:0:0:
304,164,57564,1,0,0:0:0:0:
296,176,57648,1,0,0:0:0:0:
288,184,57731,2,0,P|364:96|428:124,1,200
208,164,58231,1,0,0:0:0:0:
324,332,58398,6,0,B|308:268|252:216|220:268|192:348,1,200
88,320,58898,1,0,0:0:0:0:
192,168,59064,6,0,B|176:232|120:284|88:232|60:152,1,200
36,72,59564,1,0,0:0:0:0:
144,96,59731,1,0,0:0:0:0:
148,248,59898,1,0,0:0:0:0:
300,356,60064,1,0,0:0:0:0:
452,248,60231,1,0,0:0:0:0:
344,96,60398,1,0,0:0:0:0:
328,280,60564,1,0,0:0:0:0:
136,300,60731,2,0,L|40:360,2,100
256,296,61231,5,0,0:0:0:0:
256,280,61314,1,0,0:0:0:0:
256,264,61398,1,0,0:0:0:0:
256,248,61481,1,0,0:0:0:0:
256,232,61564,2,0,L|256:124,1,100
256,36,61898,1,0,0:0:0:0:
336,100,62064,2,0,L|416:208,1,100
280,268,62398,1,0,0:0:0:0:
80,228,62564,5,0,0:0:0:0:
80,228,62731,2,0,L|160:108,1,100
272,128,63064,1,0,0:0:0:0:
312,40,63231,5,0,0:0:0:0:
312,40,63398,2,0,P|220:100|212:116,1,100
96,260,63731,1,0,0:0:0:0:
364,240,63898,2,0,P|400:308|388:344,1,100
104,80,64231,1,0,0:0:0:0:
88,184,64398,2,0,P|120:280|140:296,1,100
232,160,64731,2,0,P|248:220|288:236,2,100
240,112,65231,5,0,0:0:0:0:
272,76,65314,1,0,0:0:0:0:
312,84,65398,1,0,0:0:0:0:
336,128,65481,1,0,0:0:0:0:
320,168,65564,1,0,0:0:0:0:
304,204,65648,1,0,0:0:0:0:
276,224,65731,2,0,L|340:304,2,100
196,320,66398,6,0,P|128:312|88:280,1,100
72,156,66731,1,0,0:0:0:0:
212,164,66898,2,0,P|272:152|288:112,1,100
136,48,67398,1,0,0:0:0:0:
376,300,67731,1,0,0:0:0:0:
472,124,68064,2,0,P|400:48|324:120,1,200
40,124,68731,2,0,P|112:48|188:120,1,200
256,100,69398,2,0,L|256:308,2,200
288,64,70231,5,0,0:0:0:0:
316,44,70314,1,0,0:0:0:0:
352,48,70398,1,0,0:0:0:0:
384,72,70481,1,0,0:0:0:0:
400,112,70564,1,0,0:0:0:0:
388,148,70648,1,0,0:0:0:0:
360,176,70731,1,0,0:0:0:0:
332,200,70814,1,0,0:0:0:0:
320,240,70898,2,0,L|424:256,1,100
248,236,71231,5,0,0:0:0:0:
144,328,71398,1,0,0:0:0:0:
144,224,71564,1,0,0:0:0:0:
248,324,71731,1,0,0:0:0:0:
104,88,72064,6,0,L|208:76,1,100
236,80,72315,1,0,0:0:0:0:
268,84,72398,1,0,0:0:0:0:
304,96,72481,1,0,0:0:0:0:
332,120,72565,1,0,0:0:0:0:
352,148,72648,1,0,0:0:0:0:
372,176,72731,1,0,0:0:0:0:
368,212,72815,1,0,0:0:0:0:
356,240,72898,1,0,0:0:0:0:
332,260,72981,1,0,0:0:0:0:
312,280,73065,1,0,0:0:0:0:
288,300,73231,6,0,L|248:336,2,50
140,288,73564,5,0,0:0:0:0:
160,152,73731,1,0,0:0:0:0:
280,76,73898,1,0,0:0:0:0:
416,108,74064,1,0,0:0:0:0:
80,236,74398,6,0,L|144:328,1,100
276,324,74731,2,0,L|364:260,1,100
384,140,75064,2,0,L|288:68,1,100
172,72,75398,2,0,L|84:152,1,100
328,64,75731,6,0,P|264:36|224:36,1,100
120,132,76064,2,0,P|92:196|112:252,1,100
192,312,76398,1,0,0:0:0:0:
304,336,76564,1,0,0:0:0:0:
400,280,76731,1,0,0:0:0:0:
372,180,76898,1,0,0:0:0:0:
316,112,77064,1,0,0:0:0:0:
300,100,77148,1,0,0:0:0:0:
280,92,77231,1,0,0:0:0:0:
260,88,77314,1,0,0:0:0:0:
240,88,77398,2,0,B|184:80|148:112|152:176,2,100
316,160,78064,1,0,0:0:0:0:
52,112,95064,6,0,L|172:324,1,239.999992675781
320,336,95564,1,0,0:0:0:0:
448,256,95731,1,0,0:0:0:0:
376,124,95898,1,0,0:0:0:0:
420,36,96064,6,0,P|360:152|264:136,1,239.999992675781
304,40,96564,1,0,0:0:0:0:
156,88,96731,1,0,0:0:0:0:
56,196,96898,1,0,0:0:0:0:
132,296,97064,6,0,P|240:352|348:296,1,239.999992675781
376,196,97564,1,0,0:0:0:0:
220,104,97731,2,0,B|160:72|168:32|224:16,2,119.999996337891
308,136,98231,1,0,0:0:0:0:
400,148,98398,2,0,B|456:196|456:212|420:280,2,119.999996337891
312,72,98898,1,0,0:0:0:0:
232,264,99064,1,0,0:0:0:0:
120,124,99231,1,0,0:0:0:0:
136,252,99398,1,0,0:0:0:0:
48,192,99564,5,0,0:0:0:0:
136,252,99731,1,0,0:0:0:0:
136,136,99898,1,0,0:0:0:0:
228,320,100064,1,0,0:0:0:0:
236,72,100231,1,0,0:0:0:0:
328,360,100398,1,0,0:0:0:0:
340,52,100564,1,0,0:0:0:0:
183,264,100731,6,0,L|47:363,1,119.999996337891
329,118,101064,6,0,L|465:19,1,119.999996337891
182,118,101398,6,0,L|46:19,1,119.999996337891
329,265,101731,6,0,L|465:364,1,119.999996337891
252,316,102064,6,0,P|228:316|204:344,1,59.9999981689454
260,264,102231,6,0,P|284:264|308:292,1,59.9999981689454
252,212,102398,6,0,P|228:212|204:240,1,59.9999981689454
256,160,102564,6,0,P|280:160|304:188,2,59.9999981689454
216,28,103064,6,0,L|216:184,1,119.999996337891
420,152,103398,6,0,L|264:152,1,119.999996337891
92,232,103731,6,0,L|248:232,1,119.999996337891
296,356,104064,6,0,L|296:200,1,119.999996337891
128,112,104398,5,0,0:0:0:0:
128,112,104564,1,0,0:0:0:0:
132,120,104731,2,0,P|52:216|88:320,1,239.999992675781
196,240,105231,1,0,0:0:0:0:
260,132,105398,2,0,P|384:216|408:308,1,239.999992675781
312,344,106064,2,0,L|191:344,1,119.999996337891
191,191,106564,2,0,L|335:191,1,119.999996337891
312,36,107064,2,0,L|192:36,1,119.999996337891
68,128,107398,5,0,0:0:0:0:
72,136,107481,1,0,0:0:0:0:
72,136,107564,1,0,0:0:0:0:
88,152,107648,1,0,0:0:0:0:
88,152,107731,1,0,0:0:0:0:
88,152,107814,1,0,0:0:0:0:
88,152,107898,2,0,P|168:184|212:188,3,119.999996337891
196,92,108731,6,0,P|112:128|80:184,1,119.999996337891
212,116,109064,6,0,P|152:168|128:256,1,119.999996337891
228,132,109397,6,0,P|192:196|180:256,1,119.999996337891
256,140,109731,6,0,P|236:212|236:280,1,119.999996337891
240,296,110064,6,0,B|208:316|188:328|136:312|128:292,1,119.999996337891
80,216,110398,6,0,L|220:120,1,119.999996337891
188,144,110731,1,0,0:0:0:0:
196,136,110814,1,0,0:0:0:0:
204,128,110898,1,0,0:0:0:0:
212,120,110981,1,0,0:0:0:0:
220,112,111064,1,0,0:0:0:0:
260,60,111231,5,0,0:0:0:0:
264,64,111398,1,0,0:0:0:0:
264,64,111564,2,0,P|392:96|432:188,1,239.999992675781
380,264,112064,5,0,0:0:0:0:
268,316,112231,1,0,0:0:0:0:
148,292,112398,2,0,P|248:204|196:88,1,239.999992675781
120,104,112898,1,0,0:0:0:0:
64,192,113064,2,0,P|92:288|128:324,1,119.999996337891
124,312,113398,5,0,0:0:0:0:
156,320,113481,1,0,0:0:0:0:
188,320,113564,1,0,0:0:0:0:
216,320,113648,1,0,0:0:0:0:
240,320,113731,2,0,L|364:320,2,119.999996337891
128,308,114231,6,0,P|56:272|52:224,1,119.999996337891
128,168,114731,1,0,0:0:0:0:
264,112,115064,1,0,0:0:0:0:
424,180,115398,1,0,0:0:0:0:
288,256,115731,1,0,0:0:0:0:
132,136,116064,1,0,0:0:0:0:
136,132,116231,6,0,B|248:76|264:76|368:148,1,239.999992675781
256,188,116731,5,0,0:0:0:0:
256,188,116814,1,0,0:0:0:0:
256,188,116898,1,0,0:0:0:0:
256,188,116981,1,0,0:0:0:0:
256,192,117064,2,0,L|256:316,2,119.999996337891
256,188,117731,1,0,0:0:0:0:
256,72,118064,2,0,P|392:124|436:216,1,239.999992675781
344,296,118564,1,0,0:0:0:0:
216,304,118731,1,0,0:0:0:0:
112,264,118898,1,0,0:0:0:0:
64,192,119064,6,0,P|96:72|200:40,1,239.999992675781
328,60,119731,1,0,0:0:0:0:
384,120,119898,1,0,0:0:0:0:
408,192,120064,6,0,P|376:252|316:224,1,119.999996337891
272,188,120398,2,0,P|220:144|152:180,1,119.999996337891
84,200,120731,2,0,P|80:268|144:284,1,119.999996337891
324,312,121064,2,0,P|280:264|240:304,1,119.999996337891
96,192,121398,2,0,P|120:256|164:224,1,119.999996337891
220,172,121731,1,0,0:0:0:0:
164,72,121898,2,0,P|80:80|80:120,1,119.999996337891
240,208,122231,5,0,0:0:0:0:
248,320,122398,1,0,0:0:0:0:
136,324,122564,1,0,0:0:0:0:
132,212,122731,1,0,0:0:0:0:
384,200,123064,6,0,P|348:72|256:32,2,239.999992675781
256,248,124064,1,0,0:0:0:0:
104,176,124397,5,0,0:0:0:0:
104,176,124480,1,0,0:0:0:0:
104,176,124564,1,0,0:0:0:0:
104,176,124648,1,0,0:0:0:0:
104,176,124731,1,0,0:0:0:0:
208,176,124898,2,0,L|328:172,2,119.999996337891
108,120,125398,1,0,0:0:0:0:
104,192,125731,1,0,0:0:0:0:
108,280,126064,5,0,0:0:0:0:
96,260,126231,1,0,0:0:0:0:
88,244,126398,2,0,P|84:188|112:144,1,100
120,136,126898,1,0,0:0:0:0:
148,128,127064,2,0,L|260:116,1,100
348,44,127898,6,0,L|323:44,2,25
368,92,128231,2,0,L|404:92,2,25
332,132,128564,2,0,L|284:132,2,25
360,176,128898,2,0,L|404:176,2,25
328,216,129231,2,0,L|292:216,2,25
304,100,130064,6,0,P|384:84|416:96,1,100
496,116,131064,1,0,0:0:0:0:
440,192,131398,2,0,P|396:248|348:252,2,100
440,92,132398,1,0,0:0:0:0:
340,192,132731,2,0,B|292:244|236:264|200:224|208:220,2,150
208,76,134064,6,0,L|96:92,1,100
96,128,134564,1,0,0:0:0:0:
96,176,134731,1,0,0:0:0:0:
80,312,135064,6,0,B|92:272|104:280|112:292|124:296|132:284|128:272|136:268|148:264|148:280|148:288|144:288|152:284|148:272|152:264|160:252|172:252|176:252|188:252|188:264|196:260|200:244|200:232|208:220|224:224|232:232|236:232|236:232|244:228|244:220,1,200
312,248,136064,1,0,0:0:0:0:
392,320,136398,1,0,0:0:0:0:
472,256,136731,1,0,0:0:0:0:
484,172,137064,2,0,P|508:112|480:72,1,100
384,72,137731,1,0,0:0:0:0:
280,80,138064,2,0,P|208:80|204:104,1,100
112,152,138731,1,0,0:0:0:0:
112,240,139064,2,0,P|144:292|188:300,1,100
268,248,139731,5,0,0:0:0:0:
360,232,140064,1,0,0:0:0:0:
332,332,140398,2,0,P|444:308|392:196,2,250
96,256,142731,6,0,L|160:256,1,50
136,148,143064,2,0,L|184:200,1,50
240,96,143398,2,0,L|240:164,1,50
340,144,143731,2,0,L|300:200,1,50
372,256,144064,2,0,L|312:260,1,50
216,252,144398,6,0,B|160:220|168:196|212:152|288:120|360:144|368:188|340:236|292:280,1,350
168,320,145731,6,0,L|144:272,1,50
172,156,146064,6,0,L|228:152,1,50
392,236,146398,6,0,L|364:184,1,50
236,104,146731,6,0,L|244:164,1,50
388,296,147064,6,0,L|344:264,1,50
132,208,147398,6,0,L|200:216,1,50
52,100,147731,6,0,L|16:60,1,50
360,76,148064,6,0,L|344:136,1,50
324,304,148398,6,0,L|312:252,1,50
84,268,148731,6,0,L|132:232,1,50
120,92,149064,6,0,L|140:116,2,25
388,288,149398,6,0,L|364:264,2,25
256,176,149731,6,0,L|256:220,4,25
