osu file format v14

[General]
AudioFilename: Altale.mp3
AudioLeadIn: 0
PreviewTime: 40008
Countdown: 0
SampleSet: Soft
StackLeniency: 0.3
Mode: 0
LetterboxInBreaks: 1
WidescreenStoryboard: 1

[Editor]
DistanceSpacing: 0.66
BeatDivisor: 8
GridSize: 4
TimelineZoom: 2.350001

[Metadata]
Title:Altale
TitleUnicode:Altale
Artist:sakuzyo
ArtistUnicode:削除
Creator:cheesiest
Version:Hyper
Source:BMS
Tags:BMS of Fighters 2014 Go Back 2 Your Roots BOF2004 RELOADED G2R
BeatmapID:558754
BeatmapSetID:241914

[Difficulty]
HPDrainRate:5
CircleSize:4
OverallDifficulty:6
ApproachRate:7.7
SliderMultiplier:2.16
SliderTickRate:2

[Events]
//Background and Video events
0,0,"title.png",0,0
//Break Periods
2,76208,83213
2,91208,92213
//Storyboard Layer 0 (Background)
//Storyboard Layer 1 (Fail)
//Storyboard Layer 2 (Pass)
//Storyboard Layer 3 (Foreground)
//Storyboard Sound Samples

[TimingPoints]
2008,666.666666666667,3,2,1,40,1,0
16008,-75,3,2,1,80,0,1
24008,-75,3,2,1,80,0,0
40008,-75,3,2,1,60,0,0
55341,-66.6666666666667,3,2,1,60,0,0
56008,-66.6666666666667,3,2,1,100,0,1
63966,-66.6666666666667,3,2,1,100,0,0
64008,-66.6666666666667,3,2,1,100,0,1
76008,-75,3,2,1,80,0,0
84008,-133.333333333333,3,2,1,30,0,0
93341,-66.6666666666667,3,2,1,50,0,0
93674,-66.6666666666667,3,2,1,65,0,0
94008,-66.6666666666667,3,2,1,80,0,1
103966,-66.6666666666667,3,2,1,80,0,0
104008,-66.6666666666667,3,2,1,80,0,1
106008,-66.6666666666667,3,2,1,80,0,1
107966,-66.6666666666667,3,2,1,80,0,0
108008,-66.6666666666667,3,2,1,80,0,1
117966,-66.6666666666667,3,2,1,80,0,0
118008,-66.6666666666667,3,2,1,80,0,1
120008,-66.6666666666667,3,2,1,80,0,1
124008,722.89156626506,3,2,1,40,1,0
125092,-107.142857146684,3,2,1,40,0,0
126176,-100,3,2,1,40,0,0
128345,-107.142857146684,3,2,1,40,0,0
129429,-100,3,2,1,40,0,0

[Colours]
Combo1 : 0,128,255
Combo2 : 240,240,0
Combo3 : 255,128,64
Combo4 : 255,128,128

[HitObjects]
263,71,1674,5,0,0:0:0:0:
263,71,2008,2,0,P|272:130|152:224,1,216,2|0,0:0|0:0,0:0:0:0:
165,116,3008,2,0,L|362:241,1,216,2|0,0:0|0:0,0:0:0:0:
249,276,4008,6,0,P|247:188|311:128,2,108,2|0|0,0:0|0:0|0:0,0:0:0:0:
337,339,5008,2,0,P|408:319|441:180,1,216,2|0,0:0|0:0,0:0:0:0:
347,231,6008,6,0,L|165:116,1,216,2|0,0:0|0:0,0:0:0:0:
173,9,7008,2,0,P|78:51|57:126,2,108,2|0|0,0:0|0:0|0:0,0:0:0:0:
263,71,8008,6,0,P|272:130|152:224,1,216,2|0,0:0|0:0,0:0:0:0:
165,116,9008,2,0,L|362:241,1,216,2|0,0:0|0:0,0:0:0:0:
337,339,10008,6,0,P|408:319|441:180,1,216,2|0,0:0|0:0,0:0:0:0:
359,125,11008,2,0,P|288:145|255:284,1,216,2|0,0:0|0:0,0:0:0:0:
347,231,12008,6,0,P|408:254|438:289,2,108,2|0|0,0:0|0:0|0:0,0:0:0:0:
249,270,13008,2,0,P|188:247|157:212,2,108,2|0|0,0:0|0:0|0:0,0:0:0:0:
317,300,13896,1,0,0:0:0:0:
317,300,14008,5,2,0:0:0:0:
263,78,14674,1,0,0:0:0:0:
194,47,14897,1,0,0:0:0:0:
194,47,15008,1,2,0:0:0:0:
232,146,15341,1,0,0:0:0:0:
331,108,15674,1,2,0:0:0:0:
293,9,16008,5,6,1:2:0:0:
232,146,16341,1,2,0:0:0:0:
361,39,16674,1,6,1:2:0:0:
300,176,17007,1,2,0:0:0:0:
429,69,17341,1,6,1:2:0:0:
368,206,17674,1,2,0:0:0:0:
231,145,18008,5,6,1:2:0:0:
368,206,18341,1,2,0:0:0:0:
261,77,18674,1,6,1:2:0:0:
398,138,19007,1,2,0:0:0:0:
291,9,19341,1,6,1:2:0:0:
428,70,19674,1,2,0:0:0:0:
367,205,20008,5,6,1:2:0:0:
428,69,20341,1,2,0:0:0:0:
299,176,20674,1,6,1:2:0:0:
360,39,21007,1,2,0:0:0:0:
231,146,21341,1,6,1:2:0:0:
292,9,21674,1,2,0:0:0:0:
429,70,22008,5,6,1:2:0:0:
292,9,22341,1,2,0:0:0:0:
399,138,22674,1,6,1:2:0:0:
262,77,23007,1,2,0:0:0:0:
369,206,23341,1,6,1:2:0:0:
232,145,23674,1,2,0:0:0:0:
369,206,24008,6,0,P|379:230|375:277,1,72,6|0,1:2|0:0,0:0:0:0:
317,316,24342,2,0,P|306:291|310:244,1,72,2|0,0:0|0:0,0:0:0:0:
300,176,24675,1,2,0:0:0:0:
382,347,25008,1,6,1:2:0:0:
450,322,25174,1,2,0:0:0:0:
446,314,25258,1,0,0:0:0:0:
441,306,25341,2,0,L|524:344,1,72,2|0,0:0|0:0,0:0:0:0:
434,236,25674,2,0,L|368:205,1,72,2|0,0:0|0:0,0:0:0:0:
493,195,26008,6,0,P|447:133|429:70,2,144,6|2|2,1:2|0:0|0:0,0:0:0:0:
382,347,27007,1,6,1:2:0:0:
395,276,27174,1,0,0:0:0:0:
385,275,27258,1,0,0:0:0:0:
375,275,27341,2,0,P|380:239|369:206,1,72,2|0,0:2|0:0,0:0:0:0:
308,247,27674,2,0,P|303:281|315:316,1,72,2|0,0:0|0:0,0:0:0:0:
300,176,28008,5,4,1:2:0:0:
437,302,28341,1,2,0:0:0:0:
379,256,28508,1,0,0:0:0:0:
308,247,28675,1,2,0:0:0:0:
239,273,28841,1,0,0:0:0:0:
193,329,29008,1,6,1:2:0:0:
326,384,29341,2,0,L|336:313,1,72,2|0,0:0|0:0,0:0:0:0:
379,256,29674,1,2,0:0:0:0:
219,137,30008,5,6,1:2:0:0:
362,118,30341,2,0,L|352:189,1,72,2|0,0:0|0:0,0:0:0:0:
379,256,30674,1,2,0:0:0:0:
404,60,31008,1,6,1:2:0:0:
219,137,31341,2,0,P|267:83|334:51,1,144,2|2,0:0|0:0,0:0:0:0:
207,210,32008,5,6,1:2:0:0:
133,25,32341,2,0,P|187:72|219:137,1,144,2|2,0:0|0:0,0:0:0:0:
60,16,33008,1,6,1:2:0:0:
133,200,33341,2,0,P|79:152|47:88,1,144,2|2,0:0|0:0,0:0:0:0:
207,210,34008,5,6,1:2:0:0:
392,133,34341,2,0,P|344:187|277:219,1,144,2|2,0:0|0:0,0:0:0:0:
404,60,35008,1,6,1:2:0:0:
219,137,35341,1,2,0:0:0:0:
265,81,35508,1,0,0:0:0:0:
332,53,35674,1,2,0:0:0:0:
404,60,35841,1,0,0:0:0:0:
465,99,36008,5,6,1:2:0:0:
265,81,36341,1,2,0:0:0:0:
414,202,36674,2,0,L|400:132,1,72,2|0,0:0|0:0,0:0:0:0:
404,60,37008,1,6,1:2:0:0:
204,42,37341,1,2,0:0:0:0:
296,220,37675,2,0,L|290:149,1,72,2|0,0:0|0:0,0:0:0:0:
265,81,38008,5,4,1:2:0:0:
465,99,38341,1,2,0:0:0:0:
219,137,38674,1,2,0:0:0:0:
404,60,39007,1,6,1:2:0:0:
290,149,39341,2,0,P|351:178|399:131,1,144,2|0,0:0|0:0,0:0:0:0:
265,81,40008,6,0,P|218:136|246:206,1,144,6|2,1:2|0:0,0:0:0:0:
287,251,40508,1,0,0:0:0:0:
217,268,40674,2,0,L|144:247,1,72,2|0,0:0|0:0,0:0:0:0:
26,279,41008,2,0,L|80:226,1,72,2|0,1:2|0:0,0:0:0:0:
129,178,41341,1,2,0:0:0:0:
148,109,41508,1,0,0:0:0:0:
131,40,41674,2,0,L|200:60,1,72,2|0,0:0|0:0,0:0:0:0:
323,34,42008,6,0,P|360:35|392:54,2,72,2|0|2,1:2|0:0|0:0,0:0:0:0:
269,81,42508,1,0,0:0:0:0:
200,60,42674,2,0,L|131:40,1,72,2|0,0:0|0:0,0:0:0:0:
79,91,43008,1,2,1:2:0:0:
26,279,43341,2,0,P|70:178|148:109,1,216,2|0,0:0|0:0,0:0:0:0:
217,130,44008,5,2,1:2:0:0:
409,93,44341,1,2,0:0:0:0:
355,140,44508,1,0,0:0:0:0:
285,153,44674,2,0,L|216:213,1,72,2|0,0:0|0:0,0:0:0:0:
148,106,45008,2,0,P|180:67|202:58,2,72,2|0|2,1:2|0:0|0:0,0:0:0:0:
162,177,45508,1,0,0:0:0:0:
106,222,45674,2,0,P|89:174|94:150,1,72,2|0,0:0|0:0,0:0:0:0:
172,247,46008,6,0,P|138:284|116:292,1,72,2|0,1:2|0:0,0:0:0:0:
51,269,46341,2,0,L|65:339,1,72,2|0,0:0|0:0,0:0:0:0:
106,222,46674,2,0,L|91:151,1,72,2|0,0:0|0:0,0:0:0:0:
22,130,47008,1,2,1:2:0:0:
217,130,47341,1,2,0:2:0:0:
148,106,47508,1,0,0:0:0:0:
91,152,47674,2,0,L|105:222,1,72,2|0,0:0|0:0,0:0:0:0:
184,315,48008,6,0,P|170:288|171:247,1,72,2|0,1:2|0:0,0:0:0:0:
217,130,48341,2,0,P|230:156|229:197,1,72,2|0,0:0|0:0,0:0:0:0:
312,293,48674,2,0,L|243:270,1,72,2|0,0:0|0:0,0:0:0:0:
367,243,49008,2,0,P|383:313|336:363,1,144,2|2,1:2|0:0,0:0:0:0:
267,349,49508,1,0,0:0:0:0:
196,336,49674,2,0,P|130:358|112:397,1,72,2|0,0:0|0:0,0:0:0:0:
151,221,50008,6,0,P|143:290|195:335,1,144,2|2,1:2|0:0,0:0:0:0:
267,349,50508,1,0,0:0:0:0:
312,293,50674,1,2,0:0:0:0:
489,185,51008,2,0,P|442:242|378:267,2,144,2|2|2,1:2|0:0|0:0,0:0:0:0:
503,114,51841,1,0,0:0:0:0:
446,29,52008,6,0,P|380:1|309:8,2,144,2|2|2,1:2|0:0|0:0,0:0:0:0:
432,99,52841,1,0,0:0:0:0:
385,154,53008,2,0,P|393:291|484:352,1,216,2|0,1:2|0:0,0:0:0:0:
502,294,53674,1,2,0:0:0:0:
434,268,53841,1,0,0:0:0:0:
379,315,54008,6,0,B|311:341|217:280|196:192|294:192|272:103|178:42|111:69,1,432,2|2,1:2|1:2,0:0:0:0:
52,123,55174,1,0,0:0:0:0:
52,123,55258,1,0,0:0:0:0:
52,123,55341,2,0,P|40:175|46:203,1,81.0000030899049,2|0,0:0|0:0,0:0:0:0:
176,252,55674,2,0,L|96:265,1,81.0000030899049,2|0,0:0|0:0,0:0:0:0:
206,177,56008,5,6,1:2:0:0:
256,240,56174,1,0,0:0:0:0:
256,240,56258,1,0,0:0:0:0:
256,240,56341,2,0,P|303:243|336:227,1,81.0000030899049,2|0,0:0|0:0,0:0:0:0:
443,142,56674,2,0,P|416:181|413:217,1,81.0000030899049,2|0,0:0|0:0,0:0:0:0:
362,343,57008,2,0,P|420:291|413:214,1,162.00000617981,6|0,1:2|0:0,0:0:0:0:
361,154,57508,1,0,0:0:0:0:
281,147,57674,2,0,L|206:177,1,81.0000030899049,2|0,0:0|0:0,0:0:0:0:
156,286,58008,5,6,1:2:0:0:
131,209,58174,1,0,0:0:0:0:
106,132,58341,2,0,P|93:95|101:49,1,81.0000030899049,2|0,0:0|0:0,0:0:0:0:
236,40,58675,2,0,P|210:71|173:86,1,81.0000030899049,2|0,0:0|0:0,0:0:0:0:
152,198,59008,2,0,P|204:139|282:121,1,162.00000617981,6|2,1:2|0:0,0:0:0:0:
357,153,59508,1,0,0:0:0:0:
422,105,59674,2,0,P|461:110|496:137,1,81.0000030899049,2|0,0:0|0:0,0:0:0:0:
436,267,60008,6,0,P|363:230|350:182,1,81.0000030899049,6|0,1:2|0:0,0:0:0:0:
357,153,60341,2,0,L|352:112,2,40.5000015449525,2|0|0,0:0|0:0|0:0,0:0:0:0:
431,186,60674,2,0,L|464:161,2,40.5000015449525,2|0|0,0:0|0:0|0:0,0:0:0:0:
290,198,61008,2,0,P|285:116|320:81,1,81.0000030899049,6|0,1:2|0:0,0:0:0:0:
349,72,61341,2,0,L|382:47,2,40.5000015449525,2|0|0,0:0|0:0|0:0,0:0:0:0:
357,153,61674,2,0,L|394:169,2,40.5000015449525,2|0|0,0:0|0:0|0:0,0:0:0:0:
276,36,62008,5,6,1:2:0:0:
255,36,62091,1,0,0:0:0:0:
235,37,62174,1,2,0:0:0:0:
215,38,62258,1,0,0:0:0:0:
195,38,62341,1,2,0:0:0:0:
126,82,62508,1,0,0:0:0:0:
87,153,62674,1,2,0:0:0:0:
89,234,62841,1,0,0:0:0:0:
131,303,63008,5,6,1:2:0:0:
199,259,63174,1,2,0:0:0:0:
186,244,63258,1,0,0:0:0:0:
169,231,63341,2,0,B|148:209|136:185|148:157|160:129|148:105|127:82,1,162.00000617981,2|2,0:0|0:0,0:0:0:0:
84,13,63841,1,0,0:0:0:0:
195,39,64008,6,0,L|362:33,1,162.00000617981,6|0,1:2|0:0,0:0:0:0:
433,59,64508,1,2,0:0:0:0:
421,84,64591,1,0,0:0:0:0:
399,101,64674,1,6,1:2:0:0:
361,173,64840,1,2,0:0:0:0:
323,244,65007,5,6,1:2:0:0:
157,110,65341,2,0,L|198:33,1,81.0000030899049,6|0,1:2|0:0,0:0:0:0:
199,178,65674,1,6,1:2:0:0:
399,101,66008,5,6,1:2:0:0:
242,247,66341,2,0,L|194:331,1,81.0000030899049,6|0,1:2|0:0,0:0:0:0:
199,178,66674,1,6,1:2:0:0:
356,33,67008,5,6,1:2:0:0:
336,33,67091,1,0,0:0:0:0:
316,34,67174,1,0,0:0:0:0:
296,35,67257,1,0,0:0:0:0:
275,36,67341,1,2,0:0:0:0:
236,108,67508,1,0,0:0:0:0:
195,39,67674,1,2,0:0:0:0:
361,173,68008,5,6,1:2:0:0:
361,173,68091,1,0,0:2:0:0:
361,173,68174,2,0,L|200:179,1,162.00000617981,2|0,0:0|0:0,0:0:0:0:
242,247,68675,1,6,1:2:0:0:
399,101,69008,5,6,1:2:0:0:
389,118,69091,1,0,0:0:0:0:
380,136,69174,1,2,0:0:0:0:
370,154,69257,1,0,0:0:0:0:
361,173,69341,1,2,0:2:0:0:
404,242,69508,1,2,0:0:0:0:
323,244,69674,1,6,1:2:0:0:
156,110,70008,5,6,1:2:0:0:
156,110,70091,1,0,0:2:0:0:
156,110,70174,2,0,L|241:246,1,162.00000617981,2|0,0:0|0:0,0:0:0:0:
279,176,70675,1,6,1:2:0:0:
74,113,71008,5,6,1:2:0:0:
94,112,71091,1,0,0:0:0:0:
115,111,71174,1,2,0:0:0:0:
135,110,71257,1,0,0:0:0:0:
156,110,71341,1,2,0:2:0:0:
194,38,71508,1,2,0:0:0:0:
236,107,71674,1,6,1:2:0:0:
237,187,71841,1,0,0:0:0:0:
316,104,72008,5,6,1:2:0:0:
256,192,72091,12,6,74008,1:2:0:0:
256,192,74091,12,6,76008,1:2:0:0:
388,81,84008,6,0,P|386:134|311:215,1,162.00000617981,2|0,0:0|0:0,0:0:0:0:
331,292,85008,2,0,P|314:214|252:164,1,162.00000617981,2|0,0:0|0:0,0:0:0:0:
312,109,86008,2,0,L|399:77,2,81.0000030899049,2|2|0,0:0|0:0|0:0,0:0:0:0:
234,86,87008,2,0,P|250:136|207:238,1,162.00000617981,2|0,0:0|0:0,0:0:0:0:
132,224,88008,6,0,B|168:224|224:240|192:256|248:272|284:272,1,162.00000617981,2|0,0:0|0:0,0:0:0:0:
362,296,89008,2,0,L|449:264,2,81.0000030899049,2|2|0,0:0|0:0|0:0,0:0:0:0:
305,354,90008,2,0,P|277:279|212:234,1,162.00000617981,2|0,0:0|0:0,0:0:0:0:
132,224,91008,1,2,0:0:0:0:
180,159,93008,5,2,0:0:0:0:
234,86,93341,1,2,0:0:0:0:
288,13,93674,1,2,0:0:0:0:
270,169,94008,6,0,P|282:230|331:274,1,108.000004119873,6|0,1:2|0:0,0:0:0:0:
383,257,94341,2,0,L|443:253,2,54.0000020599366,2|2|0,0:0|0:0|0:0,0:0:0:0:
353,322,94674,2,0,L|326:375,2,54.0000020599366,2|2|0,1:2|0:0|0:0,0:0:0:0:
312,263,95008,6,0,P|262:243|209:251,1,108.000004119873,6|0,1:2|0:0,0:0:0:0:
159,302,95341,1,2,0:0:0:0:
141,271,95452,1,2,0:0:0:0:
140,236,95563,1,0,0:0:0:0:
156,204,95674,2,0,P|168:153|152:102,1,108.000004119873,2|0,1:2|0:0,0:0:0:0:
94,59,96008,6,0,L|232:45,1,108.000004119873,6|0,1:2|0:0,0:0:0:0:
254,96,96341,2,0,L|392:82,1,108.000004119873,2|0,0:0|0:0,0:0:0:0:
403,27,96674,2,0,P|398:90|418:128,1,108.000004119873,2|0,1:2|0:0,0:0:0:0:
483,157,97008,6,0,P|506:206|499:259,2,108.000004119873,6|0|0,1:2|0:0|0:0,0:0:0:0:
365,174,97674,2,0,P|358:226|380:275,1,108.000004119873,2|2,0:0|1:2,0:0:0:0:
446,305,98008,5,6,1:2:0:0:
232,268,98341,1,2,0:0:0:0:
196,273,98452,1,2,0:0:0:0:
164,290,98563,1,0,0:0:0:0:
139,316,98674,2,0,L|92:368,2,54.0000020599366,2|2|0,1:2|0:0|0:0,0:0:0:0:
103,253,99008,5,6,1:2:0:0:
317,216,99341,1,2,0:0:0:0:
353,221,99452,1,2,0:0:0:0:
385,238,99563,1,0,0:0:0:0:
410,264,99674,2,0,L|457:316,2,54.0000020599366,2|2|0,1:2|0:0|0:0,0:0:0:0:
446,201,100008,5,6,1:2:0:0:
232,174,100341,1,2,0:0:0:0:
196,169,100452,1,2,0:0:0:0:
164,152,100563,1,0,0:0:0:0:
139,126,100674,2,0,L|92:74,2,54.0000020599366,2|2|0,1:2|0:0|0:0,0:0:0:0:
103,188,101008,2,0,P|64:144|-16:131,2,108.000004119873,6|2|0,1:2|0:0|0:0,0:0:0:0:
57,353,101674,2,0,P|48:301|67:251,1,108.000004119873,2|2,0:0|0:0,0:0:0:0:
139,251,102008,6,0,P|196:240|248:176,1,108.000004119873,6|0,1:2|0:0,0:0:0:0:
287,161,102341,1,2,0:0:0:0:
271,193,102452,1,2,0:0:0:0:
268,229,102563,1,0,0:0:0:0:
277,263,102674,2,0,L|300:320,2,54.0000020599366,2|2|0,1:2|0:0|0:0,0:0:0:0:
232,208,103008,6,0,P|195:165|147:148,1,108.000004119873,6|0,1:2|0:0,0:0:0:0:
80,124,103341,1,2,0:0:0:0:
115,121,103452,1,2,0:0:0:0:
148,106,103563,1,0,0:0:0:0:
173,81,103674,2,0,L|210:33,2,54.0000020599366,2|2|0,1:2|0:0|0:0,0:0:0:0:
148,148,104008,6,0,P|131:192|192:304,1,162.00000617981,6|0,1:2|0:0,0:0:0:0:
232,208,104507,2,0,L|405:179,1,162.00000617981,6|0,1:2|0:0,0:0:0:0:
453,97,105008,2,0,P|494:164|477:242,1,162.00000617981,6|0,1:2|0:0,0:0:0:0:
416,326,105508,2,0,L|243:355,1,162.00000617981,6|0,1:2|0:0,0:0:0:0:
172,292,106008,6,0,P|98:274|32:313,1,108.000004119873,6|0,1:2|0:0,0:0:0:0:
18,332,106341,1,2,0:0:0:0:
21,296,106452,1,2,0:0:0:0:
24,260,106563,1,0,0:0:0:0:
27,224,106674,1,2,1:2:0:0:
59,208,106785,1,2,0:0:0:0:
92,193,106896,1,0,0:0:0:0:
125,178,107008,6,0,L|264:189,1,108.000004119873,6|0,1:2|0:0,0:0:0:0:
288,141,107341,2,0,P|266:199|280:240,1,108.000004119873,2|0,0:0|0:0,0:0:0:0:
352,246,107674,2,0,P|373:188|359:146,1,108.000004119873,2|0,1:2|0:0,0:0:0:0:
328,81,108008,5,6,1:2:0:0:
312,306,108341,1,2,0:2:0:0:
125,178,108674,2,0,L|264:189,1,108.000004119873,2|0,1:2|0:0,0:0:0:0:
280,240,109008,6,0,P|266:189|288:141,1,108.000004119873,6|0,1:2|0:0,0:0:0:0:
328,81,109341,1,2,0:0:0:0:
334,294,109674,2,0,P|355:236|341:194,1,108.000004119873,2|0,1:2|0:0,0:0:0:0:
288,141,110008,6,0,L|180:132,1,108.000004119873,6|0,1:2|0:0,0:0:0:0:
125,178,110341,2,0,P|146:120|132:78,1,108.000004119873,2|0,1:2|0:0,0:0:0:0:
69,45,110674,2,0,P|18:61|-8:146,1,108.000004119873,2|0,1:2|0:0,0:0:0:0:
67,125,111007,5,6,1:2:0:0:
288,141,111341,1,2,0:0:0:0:
252,138,111452,1,2,0:0:0:0:
216,135,111563,1,0,0:0:0:0:
180,132,111674,1,2,1:2:0:0:
402,148,112008,5,6,1:2:0:0:
277,332,112341,2,0,P|303:282|348:246,1,108.000004119873,2|0,0:0|0:0,0:0:0:0:
415,252,112674,2,0,P|398:198|404:140,1,108.000004119873,2|0,1:2|0:0,0:0:0:0:
456,97,113008,5,6,1:2:0:0:
479,288,113341,1,2,0:0:0:0:
338,111,113674,1,2,1:2:0:0:
361,302,114008,6,0,P|334:351|289:372,1,108.000004119873,6|0,1:2|0:0,0:0:0:0:
228,333,114341,1,2,0:0:0:0:
192,324,114452,1,2,0:0:0:0:
157,316,114563,1,0,0:0:0:0:
123,308,114674,2,0,P|74:281|53:236,1,108.000004119873,2|0,1:2|0:0,0:0:0:0:
57,163,115008,6,0,P|84:114|129:93,1,108.000004119873,6|0,1:2|0:0,0:0:0:0:
190,132,115341,1,2,0:0:0:0:
225,140,115452,1,2,0:0:0:0:
260,148,115563,1,0,0:0:0:0:
295,157,115674,2,0,P|350:155|390:124,1,108.000004119873,2|0,1:2|0:0,0:0:0:0:
420,58,116008,6,0,B|458:76|463:121|463:121|468:167|508:185,1,162.00000617981,6|0,1:2|0:0,0:0:0:0:
295,157,116674,2,0,P|240:159|200:190,1,108.000004119873,2|0,1:2|0:0,0:0:0:0:
170,256,117008,6,0,B|131:237|126:192|126:192|121:146|81:128,1,162.00000617981,6|0,1:2|0:0,0:0:0:0:
295,157,117674,2,0,L|334:269,1,101.250003862381,2|2,1:2|0:0,0:0:0:0:
395,281,118008,6,0,B|376:320|331:325|331:325|285:330|267:370,1,162.00000617981,6|0,1:2|0:0,0:0:0:0:
266,233,118508,2,0,L|294:157,2,81.0000030899049,2|2|0,1:2|0:0|0:0,0:0:0:0:
179,335,119008,2,0,B|190:295|158:261|158:261|127:229|138:187,1,162.00000617981,6|0,1:2|0:0,0:0:0:0:
40,95,119508,2,0,B|80:83|113:115|113:115|146:146|188:136,1,162.00000617981,6|0,1:2|0:0,0:0:0:0:
294,157,120008,5,6,1:2:0:0:
329,159,120119,1,2,0:0:0:0:
364,154,120230,1,0,0:0:0:0:
396,139,120341,1,2,0:0:0:0:
428,124,120452,1,2,0:0:0:0:
463,119,120563,1,0,0:0:0:0:
498,121,120674,1,2,1:2:0:0:
427,316,121008,6,0,P|357:266|355:191,1,162.00000617981,6|0,1:2|0:0,0:0:0:0:
372,2,121674,1,2,0:0:0:0:
455,177,122008,6,0,P|474:253|427:316,1,162.00000617981,6|0,1:2|0:0,0:0:0:0:
353,195,122563,1,0,0:0:0:0:
387,236,122674,1,2,1:2:0:0:
280,141,123008,6,0,P|350:105|422:138,1,162.00000617981,6|0,1:2|0:0,0:0:0:0:
292,282,123674,1,2,0:0:0:0:
108,225,124008,6,0,P|187:167|286:211,1,216,2|0,0:0|0:0,0:0:0:0:
387,236,125092,2,0,B|350:221|282:213|310:293|238:285|201:270,1,201.599993847656,2|0,0:0|0:0,0:0:0:0:
114,327,126176,6,0,P|97:277|108:225,2,108,2|0|0,0:0|0:0|0:0,0:0:0:0:
201,270,127261,2,0,P|204:187|91:123,1,216,2|0,0:0|0:0,0:0:0:0:
0,95,128345,6,0,B|37:110|109:118|81:38|149:46|186:61,1,201.599993847656,2|0,0:0|0:0,0:0:0:0:
281,105,129429,2,0,P|332:94|372:59,2,108,2|0|0,0:0|0:0|0:0,0:0:0:0:
194,165,130514,5,2,0:0:0:0:
194,165,131598,1,2,0:0:0:0:
201,270,132321,1,0,0:0:0:0:
201,270,132682,6,0,P|204:187|91:123,1,216,2|0,0:0|0:0,0:0:0:0:
109,224,133767,2,0,P|106:307|219:371,1,216,2|0,0:0|0:0,0:0:0:0:
300,313,134851,6,0,L|407:306,1,108,2|0,0:0|0:0,0:0:0:0:
455,209,135574,2,0,L|348:216,1,108,2|0,0:0|0:0,0:0:0:0:
287,126,136297,1,2,0:0:0:0:
394,118,136658,1,0,0:0:0:0:
334,28,137020,6,0,P|228:35|180:122,1,216,2|0,0:0|0:0,0:0:0:0:
239,223,138104,2,0,P|345:216|393:129,1,216,2|0,0:0|0:0,0:0:0:0:
287,126,139188,5,2,0:0:0:0:
287,126,140273,1,2,0:0:0:0:
239,223,140634,1,0,0:0:0:0:
148,283,140995,1,2,0:0:0:0:
39,289,141357,5,6,0:0:0:0:
256,192,143526,12,2,147773,0:0:0:0:
