osu file format v14

[General]
AudioFilename: audio.mp3
AudioLeadIn: 0
PreviewTime: 95057
Countdown: 0
SampleSet: Soft
StackLeniency: 0.5
Mode: 0
LetterboxInBreaks: 0
WidescreenStoryboard: 0

[Editor]
Bookmarks: 2057,18057,26057,42057,58057,78057,86057,96057,110057,124057,126057,145575,149912
DistanceSpacing: 1.6
BeatDivisor: 6
GridSize: 32
TimelineZoom: 1.4

[Metadata]
Title:Altale
TitleUnicode:Altale
Artist:sakuzyo
ArtistUnicode:sakuzyo
Creator:DeviousPanda
Version:Adventure
Source:BMS
Tags:
BeatmapID:1543133
BeatmapSetID:731227

[Difficulty]
HPDrainRate:6
CircleSize:4
OverallDifficulty:8
ApproachRate:9
SliderMultiplier:2.8
SliderTickRate:1

[Events]
//Background and Video events
0,0,"bbbbgggggg.jpg",0,0
//Break Periods
2,78256,85457
2,124257,125457
//Storyboard Layer 0 (Background)
//Storyboard Layer 1 (Fail)
//Storyboard Layer 2 (Pass)
//Storyboard Layer 3 (Foreground)
//Storyboard Sound Samples

[TimingPoints]
2057,666.666666666667,3,2,0,10,1,0
2057,-200,3,2,0,10,0,0
18057,-66.6666666666667,3,2,0,50,0,1
26057,-80,3,2,0,40,0,0
27723,-200,3,2,0,40,0,0
28057,-80,3,2,0,40,0,0
29723,-200,3,2,0,40,0,0
30057,-80,3,2,0,40,0,0
31723,-200,3,2,0,40,0,0
32057,-80,3,2,0,40,0,0
33723,-200,3,2,0,40,0,0
34057,-80,3,2,0,40,0,0
41723,-200,3,2,0,40,0,0
42057,-133.333333333333,3,2,0,30,0,0
57723,-200,3,2,0,40,0,0
58057,-133.333333333333,3,2,0,40,0,0
61057,-200,3,2,0,40,0,0
61390,-133.333333333333,3,2,0,40,0,0
65057,-200,3,2,0,40,0,0
65390,-133.333333333333,3,2,0,40,0,0
66057,-100,3,2,0,40,0,0
76057,-200,3,2,0,40,0,0
76140,-200,3,2,0,5,0,0
86057,-200,3,2,0,20,0,0
95390,-100,3,2,0,40,0,0
95723,-66.6666666666667,3,2,0,60,0,0
96057,-100,3,2,0,60,0,0
106557,-133.333333333333,3,2,0,60,0,0
107057,-200,3,2,0,60,0,0
108057,-100,3,2,0,60,0,0
109057,-200,3,2,0,60,0,0
109390,-100,3,2,0,60,0,0
109723,-66.6666666666667,3,2,0,60,0,0
110057,-83.3333333333333,3,2,0,60,0,1
121057,-166.666666666667,3,2,0,60,0,1
124057,-133.333333333333,3,2,0,60,0,0
126057,722.89156626506,3,2,0,10,1,0
126057,-200,3,2,0,10,0,0
143406,-1000,3,2,0,5,0,0

[Colours]
Combo1 : 223,84,0
Combo2 : 192,192,192
Combo3 : 128,128,128
Combo4 : 254,200,37
Combo5 : 255,172,89
Combo6 : 221,0,0

[HitObjects]
75,146,3723,6,0,L|137:151,1,46.6666666666667
199,160,4057,1,0,0:0:0:0:
419,220,4723,6,0,L|357:225,1,46.6666666666667
267,231,5057,1,0,0:0:0:0:
295,60,5723,70,0,P|300:93|295:122,1,46.6666666666667
267,231,6057,1,0,0:0:0:0:
212,174,6390,1,0,0:0:0:0:
135,155,6723,6,0,P|106:156|73:167,1,46.6666666666667
25,205,7057,1,0,0:0:0:0:
1,346,7723,69,0,0:0:0:0:
153,378,8057,1,0,0:0:0:0:
127,174,8723,5,0,0:0:0:0:
95,326,9057,1,0,0:0:0:0:
153,378,9390,1,0,0:0:0:0:
230,380,9723,1,0,0:0:0:0:
290,332,10057,1,0,0:0:0:0:
290,332,11057,1,0,0:0:0:0:
379,180,11723,70,0,L|325:177,1,46.6666666666667
249,171,12057,1,2,0:0:0:0:
417,102,12723,6,0,L|363:99,1,46.6666666666667
238,93,13057,1,2,0:0:0:0:
319,6,13723,70,0,P|310:35|311:70,1,46.6666666666667
332,177,14057,1,2,0:0:0:0:
202,168,14391,1,0,0:0:0:0:
72,159,14723,1,0,0:0:0:0:
438,240,15057,5,2,0:0:0:0:
178,258,15390,1,0,0:0:0:0:
360,359,15723,70,0,P|366:325|363:304,1,46.6666666666667
332,177,16057,1,2,0:0:0:0:
280,331,16723,6,0,P|286:297|283:276,1,46.6666666666667
256,217,17057,1,2,0:0:0:0:
172,191,17390,1,2,0:0:0:0:
68,229,17723,1,2,0:0:0:0:
172,327,18057,38,0,B|186:282|186:282|168:172,1,140.000005340576,6|0,0:0|0:0,0:0:0:0:
67,92,18390,2,0,B|53:137|53:137|71:247,1,140.000005340576,6|0,0:0|0:0,0:0:0:0:
163,323,18723,6,0,B|177:278|177:278|159:168,1,140.000005340576,6|0,0:0|0:0,0:0:0:0:
58,88,19056,2,0,B|44:133|44:133|62:243,1,140.000005340576,6|0,0:0|0:0,0:0:0:0:
154,319,19390,70,0,B|168:274|168:274|150:164,1,140.000005340576,6|0,0:0|0:0,0:0:0:0:
49,84,19723,2,0,B|35:129|35:129|53:239,1,140.000005340576,6|0,0:0|0:0,0:0:0:0:
232,119,20057,6,0,P|297:99|360:126,1,140.000005340576,6|0,0:0|0:0,0:0:0:0:
354,262,20390,2,0,P|289:282|226:254,1,140.000005340576,6|0,0:0|0:0,0:0:0:0:
232,129,20723,70,0,P|297:109|360:136,1,140.000005340576,6|0,0:0|0:0,0:0:0:0:
354,272,21056,2,0,P|289:292|226:264,1,140.000005340576,6|0,0:0|0:0,0:0:0:0:
232,139,21390,6,0,P|297:119|360:146,1,140.000005340576,6|0,0:0|0:0,0:0:0:0:
354,282,21723,2,0,P|289:302|226:274,1,140.000005340576,6|0,0:0|0:0,0:0:0:0:
295,66,22057,70,0,L|294:243,1,140.000005340576,6|0,0:0|0:0,0:0:0:0:
144,174,22390,2,0,L|145:-3,1,140.000005340576,6|0,0:0|0:0,0:0:0:0:
304,61,22723,6,0,L|303:238,1,140.000005340576,6|0,0:0|0:0,0:0:0:0:
153,169,23056,2,0,L|154:-8,1,140.000005340576,6|0,0:0|0:0,0:0:0:0:
313,56,23390,70,0,L|312:233,1,140.000005340576,6|0,0:0|0:0,0:0:0:0:
162,164,23723,2,0,L|163:-13,1,140.000005340576,6|0,0:0|0:0,0:0:0:0:
288,284,24057,6,0,B|267:350|267:350|244:281,1,140.000005340576,6|0,0:0|0:0,0:0:0:0:
189,98,24390,2,0,B|171:31|171:31|227:77,1,140.000005340576,6|0,0:0|0:0,0:0:0:0:
400,203,24723,2,0,B|455:244|455:244|382:242,1,140.000005340576,6|0,0:0|0:0,0:0:0:0:
168,241,25057,2,0,B|98:239|98:239|158:198,1,140.000005340576,6|0,0:0|0:0,0:0:0:0:
334,73,25390,2,0,B|392:35|392:35|365:103,1,140.000005340576,6|0,0:0|0:0,0:0:0:0:
280,180,25723,69,6,0:0:0:0:
280,180,26057,54,0,P|302:216|296:301,1,87.5,14|0,0:0|0:0,0:0:0:0:
252,315,26390,2,0,P|209:316|139:268,1,87.5,2|0,0:0|0:0,0:0:0:0:
149,223,26723,2,0,P|169:185|245:148,1,87.5,2|0,0:0|0:0,0:0:0:0:
280,180,27057,5,6,0:0:0:0:
307,189,27140,1,2,0:0:0:0:
336,188,27223,1,2,0:0:0:0:
366,178,27306,1,2,0:0:0:0:
366,178,27390,1,6,0:0:0:0:
393,168,27473,1,2,0:0:0:0:
422,169,27556,1,2,0:0:0:0:
453,182,27639,1,2,0:0:0:0:
453,182,27723,6,0,L|454:239,1,52.5,6|0,0:0|0:0,0:0:0:0:
409,373,28057,54,0,P|395:330|405:287,1,87.5,14|0,0:0|0:0,0:0:0:0:
453,234,28390,2,0,P|467:191|457:148,1,87.5,2|0,0:0|0:0,0:0:0:0:
417,89,28723,2,0,P|403:46|413:3,1,87.5,2|0,0:0|0:0,0:0:0:0:
256,40,29057,5,6,0:0:0:0:
256,61,29140,1,2,0:0:0:0:
256,82,29223,1,2,0:0:0:0:
256,104,29307,1,2,0:0:0:0:
256,125,29390,1,6,0:0:0:0:
256,146,29473,1,2,0:0:0:0:
256,168,29557,1,2,0:0:0:0:
256,189,29640,1,2,0:0:0:0:
256,210,29723,6,0,L|197:206,1,52.5,6|0,0:0|0:0,0:0:0:0:
57,169,30057,54,0,P|108:156|172:174,1,87.5,14|0,0:0|0:0,0:0:0:0:
203,206,30390,1,2,0:0:0:0:
181,82,30557,1,2,0:0:0:0:
130,238,30723,1,6,0:0:0:0:
254,50,30890,1,2,0:0:0:0:
351,239,31057,5,6,0:0:0:0:
322,220,31140,1,2,0:0:0:0:
301,193,31223,1,2,0:0:0:0:
291,160,31306,1,2,0:0:0:0:
293,126,31390,1,6,0:0:0:0:
308,95,31473,1,2,0:0:0:0:
332,71,31556,1,2,0:0:0:0:
363,57,31640,1,2,0:0:0:0:
397,57,31723,6,0,P|405:86|403:111,1,52.5,6|0,0:0|0:0,0:0:0:0:
291,160,32057,54,0,P|244:164|205:152,1,87.5,14|0,0:0|0:0,0:0:0:0:
164,88,32390,2,0,P|184:45|213:17,1,87.5,2|0,0:0|0:0,0:0:0:0:
289,14,32723,2,0,P|315:52|325:92,1,87.5,2|0,0:0|0:0,0:0:0:0:
205,152,33057,5,6,0:0:0:0:
217,177,33140,1,2,0:0:0:0:
218,206,33223,1,2,0:0:0:0:
214,239,33307,1,2,0:0:0:0:
213,238,33390,1,6,0:0:0:0:
200,263,33473,1,2,0:0:0:0:
199,292,33556,1,2,0:0:0:0:
211,324,33640,1,2,0:0:0:0:
211,324,33723,5,6,0:0:0:0:
224,283,33806,1,2,0:0:0:0:
203,246,33890,1,2,0:0:0:0:
162,237,33973,1,2,0:0:0:0:
127,261,34057,54,0,P|109:296|118:348,1,87.5,14|0,0:0|0:0,0:0:0:0:
86,197,34390,2,0,P|49:212|23:257,1,87.5,2|0,0:0|0:0,0:0:0:0:
88,118,34723,2,0,P|50:106|0:124,1,87.5,2|0,0:0|0:0,0:0:0:0:
261,186,35057,6,0,P|279:151|270:99,1,87.5,14|0,0:0|0:0,0:0:0:0:
302,250,35390,2,0,P|338:234|364:189,1,87.5,2|0,0:0|0:0,0:0:0:0:
300,329,35723,2,0,P|337:340|387:322,1,87.5,2|0,0:0|0:0,0:0:0:0:
173,89,36057,70,0,L|178:203,1,87.5,14|0,0:0|0:0,0:0:0:0:
185,340,36390,2,0,L|181:252,1,87.5,2|0,0:0|0:0,0:0:0:0:
173,89,36723,1,2,0:0:0:0:
448,135,37057,5,14,0:0:0:0:
448,135,37390,69,2,0:0:0:0:
298,153,37557,1,2,0:0:0:0:
421,210,37723,5,2,0:0:0:0:
346,219,37890,1,2,0:0:0:0:
394,285,38057,70,0,P|345:300|291:281,1,87.5,6|0,0:0|0:0,0:0:0:0:
159,268,38390,2,0,P|207:252|262:272,1,87.5,2|0,0:0|0:0,0:0:0:0:
211,350,38723,1,2,0:0:0:0:
211,350,38890,1,2,0:0:0:0:
112,126,39057,6,0,P|128:90|116:38,1,87.5,14|0,0:0|0:0,0:0:0:0:
156,188,39390,2,0,P|191:170|214:123,1,87.5,2|0,0:0|0:0,0:0:0:0:
159,268,39723,2,0,P|196:277|245:256,1,87.5,2|0,0:0|0:0,0:0:0:0:
432,89,40057,70,0,L|440:177,1,87.5,14|0,0:0|0:0,0:0:0:0:
452,257,40390,1,2,0:0:0:0:
452,257,40557,1,2,0:0:0:0:
376,234,40723,1,2,0:0:0:0:
300,259,40890,1,2,0:0:0:0:
274,339,41057,5,6,0:0:0:0:
352,313,41223,1,2,0:0:0:0:
376,234,41390,1,2,0:0:0:0:
342,159,41557,1,2,0:0:0:0:
200,201,41723,6,0,L|263:197,1,52.5,6|0,0:0|0:0,0:0:0:0:
117,155,42057,22,0,P|106:210|122:257,2,105.000004005432,6|2|2,0:0|0:0|0:0,0:0:0:0:
182,111,43057,2,0,P|193:56|177:9,2,105.000004005432,6|2|2,0:0|0:0|0:0,0:0:0:0:
252,197,44057,5,6,0:0:0:0:
318,240,44390,2,0,L|426:232,2,105.000004005432,2|2|6,0:0|0:0|0:0,0:0:0:0:
243,122,45390,70,0,P|236:154|243:184,1,52.5000020027161,2|0,0:0|0:0,0:0:0:0:
252,197,45723,1,2,0:0:0:0:
105,264,46057,6,0,P|49:281|-3:260,2,105.000004005432,6|2|2,0:0|0:0|0:0,0:0:0:0:
153,200,47057,2,0,P|209:183|261:204,2,105.000004005432,6|2|2,0:0|0:0|0:0,0:0:0:0:
442,202,48057,70,0,L|454:86,2,105.000004005432,6|2|2,0:0|0:0|0:0,0:0:0:0:
485,267,49057,2,0,L|497:383,2,105.000004005432,6|2|2,0:0|0:0|0:0,0:0:0:0:
402,36,50057,5,6,0:0:0:0:
343,86,50390,2,0,P|332:139|349:204,1,105.000004005432,2|2,0:0|0:0,0:0:0:0:
191,365,51057,69,6,0:0:0:0:
250,315,51390,2,0,P|261:262|244:197,1,105.000004005432,2|2,0:0|0:0,0:0:0:0:
172,167,52057,5,6,0:0:0:0:
172,167,52390,70,0,L|179:238,1,52.5000020027161,2|0,0:0|0:0,0:0:0:0:
219,35,52723,2,0,L|201:104,1,52.5000020027161,2|0,0:0|0:0,0:0:0:0:
355,132,53057,6,0,L|348:203,1,52.5000020027161,6|0,0:0|0:0,0:0:0:0:
308,0,53390,2,0,L|325:69,1,52.5000020027161,2|0,0:0|0:0,0:0:0:0:
494,42,53723,69,2,0:0:0:0:
449,104,54057,2,0,P|439:169|468:248,1,105.000004005432,6|2,0:0|0:0,0:0:0:0:
214,336,54723,5,2,0:0:0:0:
259,274,55057,2,0,P|269:209|240:130,1,105.000004005432,6|2,0:0|0:0,0:0:0:0:
34,244,55723,69,2,0:0:0:0:
47,225,55890,1,2,0:0:0:0:
67,213,56057,2,0,P|115:197|189:216,2,105.000004005432,6|2|2,0:0|0:0|0:0,0:0:0:0:
261,171,57057,5,6,0:0:0:0:
268,160,57140,1,2,0:0:0:0:
271,147,57223,1,2,0:0:0:0:
270,133,57307,1,2,0:0:0:0:
264,121,57390,1,6,0:0:0:0:
261,108,57473,1,2,0:0:0:0:
262,94,57557,1,2,0:0:0:0:
266,81,57640,1,2,0:0:0:0:
274,70,57723,38,0,L|339:63,1,52.5,14|0,0:0|0:0,0:0:0:0:
439,298,58057,53,14,0:0:0:0:
405,279,58140,1,2,0:0:0:0:
394,242,58223,1,2,0:0:0:0:
411,208,58307,1,2,0:0:0:0:
447,195,58390,1,6,0:0:0:0:
418,220,58473,1,2,0:0:0:0:
379,217,58557,1,2,0:0:0:0:
354,189,58640,1,2,0:0:0:0:
355,178,58723,1,6,0:0:0:0:
356,167,58807,1,2,0:0:0:0:
358,156,58890,1,2,0:0:0:0:
360,145,58973,1,2,0:0:0:0:
343,128,59057,5,14,0:0:0:0:
320,121,59140,1,2,0:0:0:0:
297,126,59223,1,2,0:0:0:0:
278,140,59307,1,2,0:0:0:0:
253,159,59390,1,6,0:0:0:0:
223,168,59473,1,2,0:0:0:0:
192,163,59556,1,2,0:0:0:0:
165,145,59640,1,2,0:0:0:0:
135,119,59723,1,6,0:0:0:0:
98,105,59806,1,2,0:0:0:0:
59,112,59889,1,2,0:0:0:0:
25,133,59973,1,2,0:0:0:0:
3,175,60057,70,0,P|0:194|4:216,3,26.2500010013581,14|2|2|2,0:0|0:0|0:0|0:0,0:0:0:0:
53,252,60390,2,0,P|56:271|52:293,3,26.2500010013581,6|2|2|2,0:0|0:0|0:0|0:0,0:0:0:0:
5,356,60723,5,14,0:0:0:0:
20,357,60807,1,2,0:0:0:0:
35,358,60890,1,2,0:0:0:0:
50,359,60973,1,2,0:0:0:0:
65,361,61057,6,0,L|130:355,1,52.5,14|0,0:0|0:0,0:0:0:0:
257,337,61390,22,0,P|270:295|257:249,1,78.7500030040742,2|0,0:0|0:0,0:0:0:0:
228,190,61723,2,0,P|215:148|228:102,1,78.7500030040742,2|0,0:0|0:0,0:0:0:0:
166,46,62057,21,14,0:0:0:0:
144,23,62140,1,2,0:0:0:0:
112,19,62223,1,2,0:0:0:0:
84,34,62307,1,2,0:0:0:0:
69,61,62390,1,6,0:0:0:0:
68,92,62473,1,2,0:0:0:0:
81,120,62557,1,2,0:0:0:0:
95,147,62640,1,2,0:0:0:0:
103,177,62723,1,6,0:0:0:0:
107,208,62807,1,2,0:0:0:0:
105,239,62890,1,2,0:0:0:0:
93,268,62973,1,2,0:0:0:0:
60,290,63057,5,14,0:0:0:0:
82,257,63140,1,2,0:0:0:0:
119,244,63223,1,2,0:0:0:0:
158,241,63307,1,2,0:0:0:0:
200,253,63390,1,6,0:0:0:0:
236,277,63473,1,2,0:0:0:0:
279,289,63557,1,2,0:0:0:0:
322,279,63640,1,2,0:0:0:0:
351,245,63723,1,6,0:0:0:0:
356,200,63807,1,2,0:0:0:0:
339,158,63890,1,2,0:0:0:0:
299,138,63973,1,2,0:0:0:0:
253,151,64057,70,0,P|250:168|251:177,3,26.2500010013581,14|2|2|2,0:0|0:0|0:0|0:0,0:0:0:0:
212,88,64390,2,0,P|209:71|210:62,3,26.2500010013581,6|2|2|2,0:0|0:0|0:0|0:0,0:0:0:0:
159,150,64723,5,14,0:0:0:0:
143,149,64807,1,2,0:0:0:0:
127,148,64890,1,2,0:0:0:0:
111,147,64973,1,2,0:0:0:0:
95,147,65057,6,0,L|27:153,1,52.5,14|0,0:0|0:0,0:0:0:0:
150,298,65390,21,2,0:0:0:0:
162,271,65473,1,2,0:0:0:0:
158,241,65557,1,2,0:0:0:0:
83,54,65723,1,2,0:0:0:0:
31,246,65890,1,2,0:0:0:0:
352,92,66057,22,0,B|230:55|273:136|136:94,1,210,14|0,0:0|0:0,0:0:0:0:
87,58,66723,1,2,0:0:0:0:
87,58,66890,1,2,0:0:0:0:
295,297,67057,6,0,P|315:241|286:153,2,140,14|2|2,0:0|0:0|0:0,0:0:0:0:
87,189,67890,1,2,0:0:0:0:
87,189,68057,2,0,P|67:133|96:45,2,140,14|2|2,0:0|0:0|0:0,0:0:0:0:
352,92,69057,70,0,L|300:97,3,35,14|2|2|2,0:0|0:0|0:0|0:0,0:0:0:0:
260,161,69390,2,0,L|312:166,3,35,6|2|2|2,0:0|0:0|0:0|0:0,0:0:0:0:
359,213,69723,5,6,0:0:0:0:
358,231,69807,1,2,0:0:0:0:
357,248,69890,1,2,0:0:0:0:
356,264,69973,1,2,0:0:0:0:
354,283,70057,69,14,0:0:0:0:
322,310,70140,1,2,0:0:0:0:
281,319,70223,1,2,0:0:0:0:
239,310,70307,1,2,0:0:0:0:
205,284,70390,1,6,0:0:0:0:
178,251,70473,1,2,0:0:0:0:
166,210,70557,1,2,0:0:0:0:
174,169,70640,1,2,0:0:0:0:
195,133,70723,5,14,0:0:0:0:
143,164,70807,1,2,0:0:0:0:
84,172,70890,1,2,0:0:0:0:
29,148,70973,1,2,0:0:0:0:
31,74,71057,5,14,0:0:0:0:
37,48,71140,1,2,0:0:0:0:
23,67,71223,1,2,0:0:0:0:
45,53,71307,1,2,0:0:0:0:
20,57,71390,1,14,0:0:0:0:
46,63,71473,1,2,0:0:0:0:
27,49,71556,1,2,0:0:0:0:
41,71,71640,1,2,0:0:0:0:
34,59,71723,1,14,0:0:0:0:
195,133,72057,53,14,0:0:0:0:
233,150,72140,1,2,0:0:0:0:
274,153,72223,1,2,0:0:0:0:
315,142,72307,1,2,0:0:0:0:
350,119,72390,1,6,0:0:0:0:
389,105,72473,1,2,0:0:0:0:
431,109,72557,1,2,0:0:0:0:
468,126,72640,1,2,0:0:0:0:
499,153,72723,5,14,0:0:0:0:
462,200,72807,1,2,0:0:0:0:
451,258,72890,1,2,0:0:0:0:
476,311,72973,1,2,0:0:0:0:
410,357,73057,5,14,0:0:0:0:
383,355,73140,1,2,0:0:0:0:
397,342,73223,1,2,0:0:0:0:
395,369,73306,1,2,0:0:0:0:
397,356,73390,5,14,0:0:0:0:
389,105,73557,1,2,0:0:0:0:
261,311,73723,1,14,0:0:0:0:
512,229,73890,1,2,0:0:0:0:
267,173,74057,37,14,0:0:0:0:
248,162,74140,1,2,0:0:0:0:
227,157,74223,1,2,0:0:0:0:
205,156,74307,1,2,0:0:0:0:
184,158,74390,1,6,0:0:0:0:
163,163,74473,1,2,0:0:0:0:
141,165,74557,1,2,0:0:0:0:
120,163,74640,1,2,0:0:0:0:
100,155,74723,1,6,0:0:0:0:
82,143,74807,1,2,0:0:0:0:
71,124,74890,1,2,0:0:0:0:
66,103,74973,1,2,0:0:0:0:
69,82,75057,5,14,0:0:0:0:
99,110,75140,1,2,0:0:0:0:
121,145,75223,1,2,0:0:0:0:
126,186,75307,1,2,0:0:0:0:
115,233,75390,1,14,0:0:0:0:
93,276,75473,1,2,0:0:0:0:
93,325,75557,1,2,0:0:0:0:
125,361,75640,1,2,0:0:0:0:
179,372,75723,1,14,0:0:0:0:
223,336,75807,1,2,0:0:0:0:
231,280,75890,1,2,0:0:0:0:
198,234,75973,1,2,0:0:0:0:
162,299,76057,6,0,B|236:338|301:282|301:282|336:340|420:335|465:231|366:153|296:237|355:266,1,420,14|4,0:0|0:0,0:0:0:0:
256,243,86057,22,0,P|308:223|400:240,1,140
256,243,87057,2,0,P|204:263|112:246,1,140
268,105,87945,5,0,0:0:0:0:
268,105,88057,1,0,0:0:0:0:
256,243,88390,1,0,0:0:0:0:
244,381,88723,1,0,0:0:0:0:
268,105,89057,1,0,0:0:0:0:
268,105,89723,69,0,0:0:0:0:
244,381,90057,1,0,0:0:0:0:
388,293,90723,5,0,0:0:0:0:
339,241,91057,1,0,0:0:0:0:
265,218,91390,1,0,0:0:0:0:
144,232,91723,1,0,0:0:0:0:
34,360,92057,69,10,0:0:0:0:
29,346,93057,5,10,0:0:0:0:
24,332,94057,69,10,0:0:0:0:
19,318,95057,22,0,L|78:312,1,46.6666666666667,2|0,0:0|0:0,0:0:0:0:
297,257,95390,6,0,L|183:249,1,93.3333333333333,2|0,0:0|0:0,0:0:0:0:
0,171,95723,70,0,L|184:156,1,140.000005340576,2|0,0:0|0:0,0:0:0:0:
483,143,96057,22,0,P|429:119|381:149,1,93.3333333333333,14|0,0:0|0:0,0:0:0:0:
329,165,96390,2,0,P|275:189|227:159,1,93.3333333333333,2|0,0:0|0:0,0:0:0:0:
201,116,96723,1,2,0:0:0:0:
201,116,96945,1,2,0:0:0:0:
172,370,97057,6,0,B|158:319|158:319|165:266,1,93.3333333333333,14|0,0:0|0:0,0:0:0:0:
192,207,97390,2,0,B|205:160|205:160|199:103,1,93.3333333333333,2|0,0:0|0:0,0:0:0:0:
167,49,97723,1,2,0:0:0:0:
167,49,97945,1,2,0:0:0:0:
117,279,98057,70,0,P|142:282|171:276,2,46.6666666666667,14|2|2,0:0|0:0|0:0,0:0:0:0:
56,235,98390,2,0,P|32:231|9:234,2,46.6666666666667,6|2|2,0:0|0:0|0:0,0:0:0:0:
46,314,98723,1,14,0:0:0:0:
46,314,99057,6,0,B|32:243|32:243|52:167|52:167|34:80,1,233.333333333333,12|0,0:0|0:0,0:0:0:0:
87,29,99723,1,2,0:0:0:0:
87,29,99945,1,2,0:0:0:0:
123,242,100057,70,0,P|185:260|327:167,1,233.333333333333,14|0,0:0|0:0,0:0:0:0:
365,113,100723,2,0,P|406:89|455:88,1,93.3333333333333,2|0,0:0|0:0,0:0:0:0:
321,179,101057,2,0,P|280:155|231:154,1,93.3333333333333,2|0,0:0|0:0,0:0:0:0:
416,202,101390,2,0,P|463:201|506:225,1,93.3333333333333,2|0,0:0|0:0,0:0:0:0:
296,256,101724,2,0,P|248:255|205:279,1,93.3333333333333,2|0,0:0|0:0,0:0:0:0:
398,362,102057,5,14,0:0:0:0:
398,362,102390,1,2,0:0:0:0:
371,290,102501,1,2,0:0:0:0:
376,210,102612,1,2,0:0:0:0:
346,137,102723,1,14,0:0:0:0:
346,137,103057,70,0,B|299:148|299:148|247:141,1,93.3333333333333,14|0,0:0|0:0,0:0:0:0:
183,115,103390,2,0,B|136:104|136:104|84:111,1,93.3333333333333,2|0,0:0|0:0,0:0:0:0:
21,138,103723,1,2,0:0:0:0:
21,138,103945,1,2,0:0:0:0:
150,374,104057,6,0,L|140:265,1,93.3333333333333,14|0,0:0|0:0,0:0:0:0:
174,207,104390,2,0,L|184:98,1,93.3333333333333,2|0,0:0|0:0,0:0:0:0:
235,56,104723,2,0,L|289:51,2,46.6666666666667,2|2|2,0:0|0:0|0:0,0:0:0:0:
25,247,105057,70,0,P|97:260|131:244,1,93.3333333333333,14|0,0:0|0:0,0:0:0:0:
174,207,105390,2,0,P|246:194|280:210,1,93.3333333333333,2|0,0:0|0:0,0:0:0:0:
320,250,105723,1,2,0:0:0:0:
320,250,105945,1,2,0:0:0:0:
407,3,106057,22,0,L|246:0,1,140,14|0,0:0|0:0,0:0:0:0:
385,82,106557,6,0,L|240:78,1,105.000004005432,14|0,0:0|0:0,0:0:0:0:
360,159,107057,70,0,L|263:157,1,70,14|0,0:0|0:0,0:0:0:0:
320,250,107557,5,14,0:0:0:0:
320,250,108057,38,0,B|313:169|313:169|334:98|334:98|324:7,1,233.333333333333,14|0,0:0|0:0,0:0:0:0:
247,5,108723,2,0,L|193:10,2,46.6666666666667,2|2|2,0:0|0:0|0:0,0:0:0:0:
451,150,109057,54,0,P|421:154|395:148,1,46.6666666666667,2|0,0:0|0:0,0:0:0:0:
158,194,109390,6,0,P|213:180|256:199,1,93.3333333333333,2|0,0:0|0:0,0:0:0:0:
490,295,109723,70,0,P|420:317|352:291,1,140.000005340576,2|0,0:0|0:0,0:0:0:0:
334,17,110057,22,0,L|327:190,1,167.999994873047,14|0,0:0|0:0,0:0:0:0:
331,188,110723,1,2,0:0:0:0:
331,188,110945,1,2,0:0:0:0:
164,361,111057,6,0,L|157:188,1,167.999994873047,14|0,0:0|0:0,0:0:0:0:
161,198,111723,1,2,0:0:0:0:
161,198,111945,1,2,0:0:0:0:
432,180,112057,70,0,B|377:199|377:199|324:182,1,111.999996582031,14|0,0:0|0:0,0:0:0:0:
220,119,112390,2,0,B|166:101|166:101|112:117,1,111.999996582031,2|0,0:0|0:0,0:0:0:0:
75,295,112723,6,0,L|66:177,1,111.999996582031,2|0,0:0|0:0,0:0:0:0:
334,70,113057,2,0,L|325:187,1,111.999996582031,2|0,0:0|0:0,0:0:0:0:
150,67,113390,69,6,0:0:0:0:
66,30,113501,1,2,0:0:0:0:
0,94,113612,1,2,0:0:0:0:
35,173,113723,1,14,0:0:0:0:
35,173,114057,6,0,B|106:224|171:182|171:182|236:134|319:186,1,279.999991455078,14|0,0:0|0:0,0:0:0:0:
351,234,114723,70,0,L|341:363,1,111.999996582031,14|0,0:0|0:0,0:0:0:0:
477,179,115057,2,0,L|467:50,1,111.999996582031,2|0,0:0|0:0,0:0:0:0:
297,174,115390,6,0,B|353:154|353:154|418:186,1,111.999996582031,2|0,0:0|0:0,0:0:0:0:
445,348,115723,2,0,B|389:368|389:368|324:336,1,111.999996582031,2|0,0:0|0:0,0:0:0:0:
377,263,116057,69,12,0:0:0:0:
377,263,116390,1,2,0:0:0:0:
302,247,116501,1,2,0:0:0:0:
230,273,116612,1,2,0:0:0:0:
155,257,116723,1,14,0:0:0:0:
155,257,117057,5,14,0:0:0:0:
155,257,117390,1,2,0:0:0:0:
120,190,117501,1,2,0:0:0:0:
146,119,117612,1,2,0:0:0:0:
217,97,117723,1,2,0:0:0:0:
289,116,117834,1,2,0:0:0:0:
363,97,117945,1,2,0:0:0:0:
435,41,118057,70,0,B|447:97|447:97|434:163|434:163|449:243,1,167.999994873047,12|0,0:0|0:0,0:0:0:0:
445,209,118723,1,2,0:0:0:0:
445,209,118945,1,2,0:0:0:0:
203,349,119057,6,0,B|215:293|215:293|202:227|202:227|217:147,1,167.999994873047,14|0,0:0|0:0,0:0:0:0:
213,188,119723,1,2,0:0:0:0:
213,188,119945,1,2,0:0:0:0:
489,331,120057,6,0,L|314:328,1,167.999994873047,14|0,0:0|0:0,0:0:0:0:
459,245,120557,5,14,0:0:0:0:
349,244,120723,1,2,0:0:0:0:
403,170,120890,1,2,0:0:0:0:
449,91,121057,70,0,L|365:89,1,83.9999974365235,14|0,0:0|0:0,0:0:0:0:
242,273,121557,21,2,0:0:0:0:
229,233,121640,1,2,0:0:0:0:
234,191,121723,1,2,0:0:0:0:
259,157,121807,1,2,0:0:0:0:
272,117,121890,1,2,0:0:0:0:
267,75,121973,1,2,0:0:0:0:
210,21,122057,22,0,P|141:7|70:23,1,139.999995727539,14|0,0:0|0:0,0:0:0:0:
45,90,122723,2,0,L|50:122,2,27.9999991455078,2|2|2,0:0|0:0|0:0,0:0:0:0:
134,293,123057,6,0,B|147:226|147:226|137:182|137:182|149:118,1,167.999994873047,14|0,0:0|0:0,0:0:0:0:
256,191,124057,5,2,0:0:0:0:
256,191,126057,85,2,0:0:0:0:
396,200,126779,6,0,L|333:196,1,46.6666666666667
256,191,127141,1,2,0:0:0:0:
292,356,127864,70,0,P|296:333|288:297,1,46.6666666666667
256,191,128225,1,2,0:0:0:0:
185,229,128587,1,0,0:0:0:0:
107,231,128948,6,0,P|76:227|50:211,1,46.6666666666667
10,165,129310,1,2,0:0:0:0:
127,48,130032,69,0,0:0:0:0:
107,231,130394,1,2,0:0:0:0:
232,98,131117,5,0,0:0:0:0:
127,48,131478,1,0,0:0:0:0:
41,75,131840,1,0,0:0:0:0:
19,130,132201,1,0,0:0:0:0:
32,164,132563,1,2,0:0:0:0:
32,164,133647,69,2,0:0:0:0:
246,220,134370,6,0,L|239:158,1,46.6666666666667
232,98,134731,2,0,B|222:12,1,70,2|0,0:0|0:0,0:0:0:0:
362,0,135454,70,0,L|355:62,1,46.6666666666667
344,149,135815,2,0,B|332:301,1,140,2|0,0:0|0:0,0:0:0:0:
163,106,136900,6,0,P|204:95|240:100,2,70,2|0|0,0:0|0:0|0:0,0:0:0:0:
97,150,137984,2,0,P|56:161|20:156,1,70,2|0,0:0|0:0,0:0:0:0:
205,177,138707,70,0,L|202:237,1,46.6666666666667
200,318,139069,1,2,0:0:0:0:
311,254,139791,6,0,L|308:194,1,46.6666666666667
301,70,140153,1,2,0:0:0:0:
246,35,140514,1,0,0:0:0:0:
204,36,140876,1,0,0:0:0:0:
186,48,141237,1,2,0:0:0:0:
173,263,141960,69,2,0:0:0:0:
232,210,142322,2,0,L|237:109,2,87.5
284,263,143406,6,0,P|325:271|365:260,1,84
256,192,145620,12,0,149791,0:0:0:0:
256,191,149912,69,2,0:0:0:0:
