osu file format v14

[General]
AudioFilename: audio.mp3
AudioLeadIn: 0
PreviewTime: 117401
Countdown: 0
SampleSet: Soft
StackLeniency: 0.2
Mode: 0
LetterboxInBreaks: 0
WidescreenStoryboard: 0

[Editor]
Bookmarks: 42857,49714,56571,63428,70285,73702,77130,80559,84000,90845,97702,104559,111428,125130,131987,145702,159428,166273,173142,186857
DistanceSpacing: 0.5
BeatDivisor: 4
GridSize: 8
TimelineZoom: 2.6

[Metadata]
Title:Aldebaran
TitleUnicode:Aldebaran
Artist:sakuzyo
ArtistUnicode:sakuzyo
Creator:Ellyu
Version:Expert
Source:
Tags:削除 fairythm DVSP-0127 diverse system _MiaoFUuU_ handsome muscle
BeatmapID:1283985
BeatmapSetID:607948

[Difficulty]
HPDrainRate:8
CircleSize:3.7
OverallDifficulty:8
ApproachRate:9.2
SliderMultiplier:1.8
SliderTickRate:2

[Events]
//Background and Video events
0,0,"welluhhIjustwonderhowmanypeoplewillseethefilenamexd.jpg",0,0
//Break Periods
2,111616,116846
//Storyboard Layer 0 (Background)
//Storyboard Layer 1 (Fail)
//Storyboard Layer 2 (Pass)
//Storyboard Layer 3 (Foreground)
//Storyboard Layer 4 (Overlay)
//Storyboard Sound Samples
Sample,47130,0,"soft-hitfinish8.wav",60
Sample,53987,0,"soft-hitfinish2.wav",60
Sample,57416,0,"soft-hitfinish4.wav",60
Sample,60844,0,"soft-hitfinish8.wav",60
Sample,64273,0,"soft-hitfinish4.wav",60
Sample,67702,0,"soft-hitfinish2.wav",60
Sample,160273,0,"soft-hitfinish4.wav",60
Sample,165416,0,"soft-hitfinish5.wav",60
Sample,167130,0,"soft-hitfinish4.wav",60
Sample,170559,0,"soft-hitfinish5.wav",60

[TimingPoints]
1702,428.571428571429,4,3,0,50,1,0
15416,-125,4,2,1,50,0,0
15845,-100,4,2,1,50,0,0
16702,-83.3333333333333,4,2,1,50,0,0
17130,-125,4,2,1,50,0,0
17559,-100,4,2,1,50,0,0
18416,-83.3333333333333,4,2,1,50,0,0
18845,-125,4,2,1,50,0,0
19273,-100,4,2,1,50,0,0
20130,-83.3333333333333,4,2,1,50,0,0
20559,-125,4,2,1,50,0,0
20988,-100,4,2,1,50,0,0
21845,-83.3333333333333,4,2,1,50,0,0
22273,-100,4,2,1,50,0,0
22702,-83.3333333333333,4,2,1,50,0,0
23559,-66.6666666666667,4,2,1,50,0,0
23988,-100,4,2,1,50,0,0
24416,-83.3333333333333,4,2,1,50,0,0
25273,-66.6666666666667,4,2,1,50,0,0
25702,-100,4,2,1,50,0,0
26130,-83.3333333333333,4,2,1,50,0,0
26988,-66.6666666666667,4,2,1,50,0,0
27416,-100,4,2,1,50,0,0
27845,-83.3333333333333,4,2,1,50,0,0
28702,-66.6666666666667,4,2,1,50,0,0
29130,-83.3333333333333,4,2,1,50,0,0
29559,-66.6666666666667,4,2,1,50,0,0
30416,-58.8235294117647,4,2,1,50,0,0
30845,-83.3333333333333,4,2,1,50,0,0
31273,-66.6666666666667,4,2,1,50,0,0
32130,-58.8235294117647,4,2,1,50,0,0
32559,-83.3333333333333,4,2,1,50,0,0
32988,-66.6666666666667,4,2,1,50,0,0
33845,-58.8235294117647,4,2,1,50,0,0
34273,-83.3333333333333,4,2,1,50,0,0
34702,-66.6666666666667,4,2,1,50,0,0
35559,-58.8235294117647,4,2,1,50,0,0
35988,-83.3333333333333,4,2,1,50,0,0
36416,-66.6666666666667,4,2,1,50,0,0
37273,-58.8235294117647,4,2,1,50,0,0
37702,-83.3333333333333,4,2,1,50,0,0
38130,-66.6666666666667,4,2,1,50,0,0
38988,-58.8235294117647,4,2,1,50,0,0
39416,-83.3333333333333,4,2,1,50,0,0
39845,-66.6666666666667,4,2,1,50,0,0
40702,-55.5555555555556,4,2,1,50,0,0
42416,-66.6666666666667,4,2,1,50,0,0
42845,-76.9230769230769,4,2,2,60,0,0
43273,-66.6666666666667,4,2,3,60,0,0
43595,-62.5,4,2,1,60,0,0
43702,-62.5,4,2,4,60,0,0
44130,-58.8235294117647,4,2,2,60,0,0
44559,-76.9230769230769,4,2,5,60,0,0
44988,-66.6666666666667,4,2,5,60,0,0
45202,-66.6666666666667,4,2,2,60,0,0
45309,-62.5,4,1,98,60,0,0
45416,-62.5,4,1,99,60,0,0
45523,-62.5,4,1,98,60,0,0
45630,-62.5,4,2,2,60,0,0
45845,-58.8235294117647,4,2,13,60,0,0
46059,-58.8235294117647,4,2,14,60,0,0
46273,-76.9230769230769,4,2,6,60,0,0
46702,-66.6666666666667,4,2,7,60,0,0
47023,-58.8235294117647,4,2,8,60,0,0
47345,-55.5555555555556,4,2,1,60,0,0
47559,-52.6315789473684,4,2,5,60,0,0
47987,-52.6315789473684,4,2,2,60,0,0
48630,-52.6315789473684,4,2,11,60,0,0
48737,-52.6315789473684,4,2,12,60,0,0
48844,-52.6315789473684,4,2,5,60,0,0
49059,-50,4,2,1,60,0,0
49273,-200,4,2,1,60,0,0
49702,-76.9230769230769,4,2,2,60,0,0
50130,-66.6666666666667,4,2,3,60,0,0
50452,-62.5,4,2,1,60,0,0
50559,-62.5,4,2,4,60,0,0
50987,-58.8235294117647,4,2,2,60,0,0
51416,-76.9230769230769,4,2,5,60,0,0
51845,-66.6666666666667,4,2,5,60,0,0
52059,-66.6666666666667,4,2,2,60,0,0
52166,-66.6666666666667,4,1,98,60,0,0
52273,-66.6666666666667,4,1,99,60,0,0
52380,-66.6666666666667,4,1,98,60,0,0
52487,-66.6666666666667,4,2,2,60,0,0
52702,-58.8235294117647,4,2,15,60,0,0
53130,-76.9230769230769,4,2,10,60,0,0
53559,-66.6666666666667,4,2,4,60,0,0
54416,-58.8235294117647,4,2,5,60,0,0
54844,-58.8235294117647,4,2,2,60,0,0
55273,-55.5555555555556,4,2,2,60,0,0
55487,-55.5555555555556,4,2,11,60,0,0
55594,-55.5555555555556,4,2,12,60,0,0
55702,-50,4,2,5,60,0,0
56559,-76.9230769230769,4,2,2,60,0,0
56773,-76.9230769230769,4,2,16,60,0,0
56987,-66.6666666666667,4,2,3,60,0,0
57416,-50,4,2,4,60,0,0
57844,-58.8235294117647,4,2,2,60,0,0
58273,-76.9230769230769,4,2,5,60,0,0
58702,-66.6666666666667,4,2,5,60,0,0
58916,-66.6666666666667,4,2,2,60,0,0
59023,-62.5,4,1,98,60,0,0
59130,-62.5,4,1,99,60,0,0
59237,-62.5,4,1,98,60,0,0
59344,-62.5,4,2,2,60,0,0
59559,-58.8235294117647,4,2,13,60,0,0
59773,-58.8235294117647,4,2,14,60,0,0
59987,-76.9230769230769,4,2,6,60,0,0
60416,-66.6666666666667,4,2,7,60,0,0
60737,-62.5,4,2,1,60,0,0
61059,-58.8235294117647,4,2,1,60,0,0
61273,-55.5555555555556,4,2,5,60,0,0
61701,-58.8235294117647,4,2,2,60,0,0
62344,-52.6315789473684,4,2,11,60,0,0
62451,-52.6315789473684,4,2,12,60,0,0
62558,-58.8235294117647,4,2,5,60,0,0
62773,-58.8235294117647,4,2,1,60,0,0
62873,-58.8235294117647,4,1,98,60,0,0
62987,-200,4,2,1,60,0,0
63416,-76.9230769230769,4,2,2,60,0,0
63630,-76.9230769230769,4,2,16,60,0,0
63844,-66.6666666666667,4,2,3,60,0,0
64166,-62.5,4,2,1,60,0,0
64273,-62.5,4,2,4,60,0,0
64701,-58.8235294117647,4,2,2,60,0,0
65130,-76.9230769230769,4,2,5,60,0,0
65559,-66.6666666666667,4,2,5,60,0,0
65773,-66.6666666666667,4,2,2,60,0,0
65880,-66.6666666666667,4,1,98,60,0,0
65987,-66.6666666666667,4,1,99,60,0,0
66094,-66.6666666666667,4,1,98,60,0,0
66202,-66.6666666666667,4,2,2,60,0,0
66416,-58.8235294117647,4,2,15,60,0,0
66844,-76.9230769230769,4,2,10,60,0,0
67273,-66.6666666666667,4,2,4,60,0,0
68130,-58.8235294117647,4,2,5,60,0,0
68558,-58.8235294117647,4,2,2,60,0,0
68987,-55.5555555555556,4,2,2,60,0,0
69201,-55.5555555555556,4,2,11,60,0,0
69308,-55.5555555555556,4,2,12,60,0,0
69416,-50,4,2,5,60,0,0
70273,-66.6666666666667,4,3,1,50,0,0
70380,-66.6666666666667,4,3,2,50,0,0
70487,-66.6666666666667,4,3,3,50,0,0
70594,-66.6666666666667,4,3,2,50,0,0
70702,-66.6666666666667,4,3,1,50,0,0
70809,-66.6666666666667,4,3,2,50,0,0
70916,-66.6666666666667,4,3,3,50,0,0
71023,-66.6666666666667,4,3,2,50,0,0
71130,-66.6666666666667,4,3,1,50,0,0
71237,-66.6666666666667,4,3,2,50,0,0
71344,-66.6666666666667,4,3,3,50,0,0
71451,-66.6666666666667,4,3,2,50,0,0
71559,-66.6666666666667,4,3,1,50,0,0
71666,-66.6666666666667,4,3,2,50,0,0
71773,-66.6666666666667,4,3,3,50,0,0
71880,-66.6666666666667,4,3,2,50,0,0
71987,-66.6666666666667,4,3,1,55,0,0
72094,-66.6666666666667,4,3,2,55,0,0
72201,-66.6666666666667,4,3,3,55,0,0
72308,-66.6666666666667,4,3,2,55,0,0
72416,-66.6666666666667,4,3,1,55,0,0
72523,-66.6666666666667,4,3,2,55,0,0
72630,-66.6666666666667,4,3,3,55,0,0
72737,-66.6666666666667,4,3,2,55,0,0
72844,-66.6666666666667,4,3,1,55,0,0
72951,-66.6666666666667,4,3,2,55,0,0
73058,-66.6666666666667,4,3,3,55,0,0
73165,-66.6666666666667,4,3,2,55,0,0
73273,-66.6666666666667,4,3,1,55,0,0
73380,-66.6666666666667,4,3,2,55,0,0
73487,-66.6666666666667,4,3,3,55,0,0
73594,-66.6666666666667,4,3,2,55,0,0
73702,-66.6666666666667,4,3,4,55,0,0
73809,-66.6666666666667,4,3,5,60,0,0
73916,-66.6666666666667,4,3,6,60,0,0
74023,-66.6666666666667,4,3,7,60,0,0
74130,-66.6666666666667,4,3,4,60,0,0
74237,-66.6666666666667,4,3,5,60,0,0
74344,-66.6666666666667,4,3,6,60,0,0
74451,-66.6666666666667,4,3,7,60,0,0
74559,-66.6666666666667,4,3,4,60,0,0
74666,-66.6666666666667,4,3,5,60,0,0
74773,-66.6666666666667,4,3,6,60,0,0
74880,-66.6666666666667,4,3,7,60,0,0
74987,-66.6666666666667,4,3,4,60,0,0
75094,-66.6666666666667,4,3,5,60,0,0
75201,-66.6666666666667,4,3,6,60,0,0
75308,-66.6666666666667,4,3,7,60,0,0
75416,-66.6666666666667,4,3,4,65,0,0
75523,-66.6666666666667,4,3,5,65,0,0
75630,-66.6666666666667,4,3,6,65,0,0
75737,-66.6666666666667,4,3,7,65,0,0
75844,-66.6666666666667,4,3,4,65,0,0
75951,-66.6666666666667,4,3,5,65,0,0
76058,-66.6666666666667,4,3,6,65,0,0
76165,-66.6666666666667,4,3,7,65,0,0
76273,-66.6666666666667,4,3,4,65,0,0
76380,-66.6666666666667,4,3,5,65,0,0
76487,-66.6666666666667,4,3,6,65,0,0
76594,-66.6666666666667,4,3,7,65,0,0
76702,-66.6666666666667,4,3,4,65,0,0
76809,-66.6666666666667,4,3,5,65,0,0
76916,-66.6666666666667,4,3,6,65,0,0
77023,-66.6666666666667,4,3,7,65,0,0
77130,-66.6666666666667,4,3,8,60,0,0
77237,-66.6666666666667,4,3,9,60,0,0
77344,-66.6666666666667,4,3,10,60,0,0
77452,-66.6666666666667,4,3,9,60,0,0
77559,-66.6666666666667,4,3,8,60,0,0
77666,-66.6666666666667,4,3,9,60,0,0
77773,-66.6666666666667,4,3,10,60,0,0
77881,-66.6666666666667,4,3,9,60,0,0
77987,-66.6666666666667,4,3,8,60,0,0
78094,-66.6666666666667,4,3,9,60,0,0
78201,-66.6666666666667,4,3,10,60,0,0
78309,-66.6666666666667,4,3,9,60,0,0
78416,-66.6666666666667,4,3,8,60,0,0
78523,-66.6666666666667,4,3,9,60,0,0
78630,-66.6666666666667,4,3,10,60,0,0
78738,-66.6666666666667,4,3,9,60,0,0
78844,-66.6666666666667,4,3,8,65,0,0
78951,-66.6666666666667,4,3,9,65,0,0
79058,-66.6666666666667,4,3,10,65,0,0
79166,-66.6666666666667,4,3,9,65,0,0
79273,-66.6666666666667,4,3,8,65,0,0
79380,-66.6666666666667,4,3,9,65,0,0
79487,-66.6666666666667,4,3,10,65,0,0
79595,-66.6666666666667,4,3,9,65,0,0
79702,-66.6666666666667,4,3,8,65,0,0
79809,-66.6666666666667,4,3,9,65,0,0
79916,-66.6666666666667,4,3,10,65,0,0
80024,-66.6666666666667,4,3,9,65,0,0
80130,-66.6666666666667,4,3,8,65,0,0
80237,-66.6666666666667,4,3,9,65,0,0
80344,-66.6666666666667,4,3,10,65,0,0
80452,-66.6666666666667,4,3,9,65,0,0
80559,-66.6666666666667,4,3,11,70,0,0
80666,-66.6666666666667,4,3,12,70,0,0
80773,-66.6666666666667,4,3,13,70,0,0
80880,-66.6666666666667,4,3,14,70,0,0
80987,-66.6666666666667,4,3,11,70,0,0
81094,-66.6666666666667,4,3,12,70,0,0
81201,-66.6666666666667,4,3,13,70,0,0
81308,-66.6666666666667,4,3,14,70,0,0
81416,-66.6666666666667,4,3,11,70,0,0
81523,-66.6666666666667,4,3,12,70,0,0
81630,-66.6666666666667,4,3,13,70,0,0
81737,-66.6666666666667,4,3,14,70,0,0
81844,-66.6666666666667,4,3,11,70,0,0
81951,-66.6666666666667,4,3,12,70,0,0
82058,-66.6666666666667,4,3,13,70,0,0
82165,-66.6666666666667,4,3,14,70,0,0
82273,-66.6666666666667,4,3,11,75,0,0
82380,-66.6666666666667,4,3,12,75,0,0
82487,-66.6666666666667,4,3,13,75,0,0
82594,-66.6666666666667,4,3,14,75,0,0
82702,-66.6666666666667,4,3,11,75,0,0
82809,-66.6666666666667,4,3,12,75,0,0
82916,-66.6666666666667,4,3,13,75,0,0
83023,-66.6666666666667,4,3,14,75,0,0
83130,-66.6666666666667,4,3,11,75,0,0
83237,-66.6666666666667,4,3,12,75,0,0
83344,-66.6666666666667,4,3,13,75,0,0
83451,-66.6666666666667,4,3,14,75,0,0
83559,-66.6666666666667,4,3,11,75,0,0
83666,-66.6666666666667,4,3,12,75,0,0
83773,-66.6666666666667,4,3,13,75,0,0
83880,-66.6666666666667,4,3,14,75,0,0
83987,-66.6666666666667,4,3,0,35,0,0
83988,-76.9230769230769,4,2,17,50,0,0
84094,-76.9230769230769,4,2,19,50,0,0
84416,-66.6666666666667,4,2,19,50,0,0
84738,-62.5,4,2,19,50,0,0
85059,-58.8235294117647,4,2,19,50,0,0
85273,-55.5555555555556,4,2,19,50,0,0
85702,-76.9230769230769,4,2,19,50,0,0
86130,-66.6666666666667,4,2,19,50,0,0
86452,-62.5,4,2,19,50,0,0
86773,-58.8235294117647,4,2,19,50,0,0
86987,-55.5555555555556,4,2,19,50,0,0
87416,-76.9230769230769,4,2,17,50,0,0
87523,-76.9230769230769,4,2,19,50,0,0
87844,-66.6666666666667,4,2,19,50,0,0
88166,-62.5,4,2,19,50,0,0
88487,-58.8235294117647,4,2,19,50,0,0
88701,-55.5555555555556,4,2,19,50,0,0
89130,-76.9230769230769,4,2,19,50,0,0
89558,-66.6666666666667,4,2,19,50,0,0
89880,-55.5555555555556,4,2,19,50,0,0
90201,-58.8235294117647,4,2,19,50,0,0
90415,-55.5555555555556,4,2,19,50,0,0
90845,-100,4,2,18,50,0,0
90952,-76.9230769230769,4,2,19,50,0,0
91273,-90.9090909090909,4,2,19,50,0,0
91595,-83.3333333333333,4,2,19,50,0,0
91916,-76.9230769230769,4,2,19,50,0,0
92130,-76.9230769230769,4,2,19,50,0,0
92559,-100,4,2,19,50,0,0
92987,-90.9090909090909,4,2,19,50,0,0
93309,-83.3333333333333,4,2,19,50,0,0
93630,-76.9230769230769,4,2,19,50,0,0
93844,-71.4285714285714,4,2,19,50,0,0
94273,-100,4,2,18,50,0,0
94380,-76.9230769230769,4,2,19,50,0,0
94701,-90.9090909090909,4,2,19,50,0,0
95023,-83.3333333333333,4,2,19,50,0,0
95344,-76.9230769230769,4,2,19,50,0,0
95558,-71.4285714285714,4,2,19,50,0,0
95988,-100,4,2,19,50,0,0
96416,-90.9090909090909,4,2,19,50,0,0
96738,-83.3333333333333,4,2,19,50,0,0
97059,-76.9230769230769,4,2,19,50,0,0
97273,-71.4285714285714,4,2,19,50,0,0
97380,-200,4,2,19,50,0,0
97702,-76.9230769230769,4,2,17,50,0,0
97809,-76.9230769230769,4,2,19,50,0,0
98130,-66.6666666666667,4,2,19,50,0,0
98452,-62.5,4,2,19,50,0,0
98773,-58.8235294117647,4,2,19,50,0,0
98987,-55.5555555555556,4,2,19,50,0,0
99416,-76.9230769230769,4,2,19,50,0,0
99844,-66.6666666666667,4,2,19,50,0,0
100166,-62.5,4,2,19,50,0,0
100487,-58.8235294117647,4,2,19,50,0,0
100701,-55.5555555555556,4,2,19,50,0,0
101130,-76.9230769230769,4,2,17,50,0,0
101237,-76.9230769230769,4,2,19,50,0,0
101558,-66.6666666666667,4,2,19,50,0,0
101880,-62.5,4,2,19,50,0,0
102202,-50,4,2,19,50,0,0
102415,-55.5555555555556,4,2,19,50,0,0
102844,-76.9230769230769,4,2,19,50,0,0
102845,-76.9230769230769,4,2,19,50,0,0
103272,-66.6666666666667,4,2,19,50,0,0
103273,-66.6666666666667,4,2,19,50,0,0
103594,-55.5555555555556,4,2,19,50,0,0
103595,-62.5,4,2,19,50,0,0
103915,-58.8235294117647,4,2,19,50,0,0
103916,-58.8235294117647,4,2,19,50,0,0
104130,-55.5555555555556,4,2,19,50,0,0
104559,-100,4,2,18,50,0,0
104666,-76.9230769230769,4,2,19,50,0,0
104987,-90.9090909090909,4,2,19,50,0,0
105309,-83.3333333333333,4,2,19,50,0,0
105630,-76.9230769230769,4,2,19,50,0,0
105844,-71.4285714285714,4,2,19,50,0,0
106273,-100,4,2,19,50,0,0
106701,-90.9090909090909,4,2,19,50,0,0
107023,-83.3333333333333,4,2,19,50,0,0
107344,-76.9230769230769,4,2,19,50,0,0
107558,-71.4285714285714,4,2,19,50,0,0
107988,-100,4,2,18,50,0,0
108094,-76.9230769230769,4,2,19,50,0,0
108416,-90.9090909090909,4,2,19,50,0,0
108738,-83.3333333333333,4,2,19,50,0,0
109059,-76.9230769230769,4,2,19,50,0,0
109273,-71.4285714285714,4,2,19,50,0,0
109702,-66.6666666666667,4,2,19,50,0,0
110130,-62.5,4,2,19,50,0,0
110452,-58.8235294117647,4,2,19,50,0,0
110987,-55.5555555555556,4,2,19,50,0,0
117416,-200,4,3,0,35,0,0
118273,-58.8235294117647,4,1,2,75,0,1
118300,-58.8235294117647,4,1,2,35,0,1
119130,-50,4,1,15,55,0,1
119773,-50,4,1,16,55,0,1
119988,-200,4,1,1,65,0,1
120844,-200,4,1,3,75,0,1
120871,-200,4,1,3,75,0,1
121702,-58.8235294117647,4,1,4,75,0,1
121728,-58.8235294117647,4,1,4,35,0,1
122559,-58.8235294117647,4,1,4,65,0,1
123416,-200,4,1,1,65,0,1
124273,-33.3333333333333,4,1,6,65,0,1
124702,-40,4,1,6,65,0,1
125130,-58.8235294117647,4,1,5,75,0,1
125157,-58.8235294117647,4,1,5,35,0,1
125987,-50,4,1,12,55,0,1
126309,-50,4,1,13,55,0,1
126630,-50,4,1,14,55,0,1
126845,-200,4,1,1,65,0,1
127702,-33.3333333333333,4,1,7,65,0,1
127728,-50,4,1,7,65,0,1
128130,-40,4,1,7,65,0,1
128559,-50,4,1,8,75,0,1
128585,-50,4,1,8,35,0,1
129416,-50,4,1,8,65,0,1
130059,-50,4,1,30,35,0,1
130130,-50,4,1,30,45,0,1
130202,-50,4,1,30,55,0,1
130273,-200,4,1,1,65,0,1
131130,-200,4,2,1,35,0,0
131987,-58.8235294117647,4,1,2,75,0,1
132014,-58.8235294117647,4,1,2,35,0,1
132845,-50,4,1,15,65,0,1
133487,-50,4,1,16,65,0,1
133702,-200,4,1,1,65,0,1
134559,-33.3333333333333,4,1,9,65,0,1
134585,-50,4,1,9,65,0,1
134987,-40,4,1,9,65,0,1
135416,-50,4,1,4,75,0,1
135443,-50,4,1,4,35,0,1
136273,-50,4,1,4,65,0,1
137130,-200,4,1,1,65,0,1
138845,-58.8235294117647,4,1,10,75,0,1
138871,-58.8235294117647,4,1,10,35,0,1
139702,-58.8235294117647,4,1,12,50,0,1
140023,-58.8235294117647,4,1,13,50,0,1
140344,-58.8235294117647,4,1,14,50,0,1
140559,-200,4,1,1,65,0,1
141416,-200,4,1,21,65,0,1
141523,-200,4,1,22,65,0,1
141630,-200,4,1,23,65,0,1
141737,-200,4,1,24,65,0,1
141844,-200,4,1,25,65,0,1
141952,-200,4,1,26,65,0,1
142059,-200,4,1,27,65,0,1
142166,-200,4,1,28,65,0,1
142273,-58.8235294117647,4,1,11,75,0,1
142300,-58.8235294117647,4,1,11,35,0,1
143130,-40,4,1,6,65,0,1
143157,-58.8235294117647,4,1,6,65,0,1
143988,-200,4,1,1,65,0,1
145702,-200,4,3,0,30,0,0
158130,-133.333333333333,4,3,0,30,0,0
158559,-100,4,3,0,35,0,0
158987,-100,4,3,0,35,0,0
159094,-100,4,3,0,45,0,0
159202,-100,4,3,0,55,0,0
159309,-100,4,3,0,65,0,0
159416,-76.9230769230769,4,2,2,60,0,0
159630,-76.9230769230769,4,2,16,60,0,0
159844,-66.6666666666667,4,2,3,60,0,0
160166,-62.5,4,2,3,60,0,0
160273,-55.5555555555556,4,2,4,60,0,0
160487,-52.6315789473684,4,2,4,60,0,0
160701,-58.8235294117647,4,2,2,60,0,0
161130,-76.9230769230769,4,2,5,60,0,0
161559,-66.6666666666667,4,2,5,60,0,0
161773,-66.6666666666667,4,2,2,60,0,0
161880,-62.5,4,2,2,60,0,0
161987,-62.5,4,2,2,60,0,0
162094,-62.5,4,2,2,60,0,0
162201,-62.5,4,2,2,60,0,0
162416,-58.8235294117647,4,2,13,60,0,0
162630,-58.8235294117647,4,2,14,60,0,0
162844,-76.9230769230769,4,2,6,60,0,0
163273,-52.6315789473684,4,2,7,60,0,0
163594,-55.5555555555556,4,2,1,60,0,0
163916,-55.5555555555556,4,2,1,60,0,0
164130,-55.5555555555556,4,2,5,60,0,0
164558,-76.9230769230769,4,2,2,60,0,0
164987,-66.6666666666667,4,2,2,60,0,0
165201,-52.6315789473684,4,2,11,60,0,0
165308,-58.8235294117647,4,2,12,60,0,0
165415,-58.8235294117647,4,2,5,60,0,0
165630,-58.8235294117647,4,2,1,60,0,0
165730,-58.8235294117647,4,1,98,60,0,0
165844,-66.6666666666667,4,2,1,60,0,0
166273,-76.9230769230769,4,2,2,60,0,0
166487,-76.9230769230769,4,2,16,60,0,0
166701,-66.6666666666667,4,2,3,60,0,0
167023,-62.5,4,2,1,60,0,0
167130,-62.5,4,2,4,60,0,0
167558,-58.8235294117647,4,2,2,60,0,0
167987,-76.9230769230769,4,2,5,60,0,0
168416,-66.6666666666667,4,2,5,60,0,0
168630,-66.6666666666667,4,2,2,60,0,0
168737,-58.8235294117647,4,2,2,60,0,0
168844,-66.6666666666667,4,2,2,60,0,0
168951,-66.6666666666667,4,2,2,60,0,0
169059,-66.6666666666667,4,2,2,60,0,0
169273,-58.8235294117647,4,2,15,60,0,0
169701,-76.9230769230769,4,2,10,60,0,0
170130,-66.6666666666667,4,2,4,60,0,0
170987,-58.8235294117647,4,2,2,60,0,0
171415,-58.8235294117647,4,2,21,60,0,0
171844,-55.5555555555556,4,2,21,60,0,0
172058,-55.5555555555556,4,2,20,60,0,0
172165,-55.5555555555556,4,2,12,60,0,0
172273,-50,4,2,5,60,0,0
172702,-200,4,2,5,60,0,0
173130,-200,4,3,0,30,0,0
185773,-1000,4,3,0,30,0,0

[Colours]
Combo1 : 209,5,62
Combo2 : 169,223,239
Combo3 : 204,189,253
Combo4 : 205,61,24
Combo5 : 190,126,228
Combo6 : 106,173,213
Combo7 : 192,192,192
Combo8 : 128,128,128

[HitObjects]
256,192,11988,12,0,15202,0:0:0:0:
124,221,15416,86,0,B|106:202|83:191|42:199|42:199|50:223,1,108,2|0,0:0|0:0,0:0:0:0:
189,273,15845,2,0,P|244:242|299:263,1,90,8|0,0:0|0:0,0:0:0:0:
353,205,16166,2,0,L|362:295,1,90,2|0,0:0|0:0,0:0:0:0:
506,84,16488,2,0,L|499:148,1,45,2|0,0:0|0:0,0:0:0:0:
437,210,16702,6,0,P|412:144|318:130,1,161.999995056153,8|0,0:0|0:0,0:0:0:0:
184,213,17130,102,0,B|168:298|168:298|206:277,1,108,2|0,0:0|0:0,0:0:0:0:
238,139,17559,2,0,L|227:33,1,90,8|0,0:0|0:0,0:0:0:0:
111,17,17880,2,0,P|101:69|126:114,1,90,2|0,0:0|0:0,0:0:0:0:
332,65,18202,2,0,P|329:27|322:13,1,45,2|0,0:0|0:0,0:0:0:0:
238,139,18416,6,0,B|242:190|242:190|225:236|225:236|234:330,1,161.999995056153,8|0,0:0|0:0,0:0:0:0:
329,254,18845,102,0,P|376:228|446:266,1,108,2|0,0:0|0:0,0:0:0:0:
503,353,19273,2,0,L|415:333,1,90,8|0,0:0|0:0,0:0:0:0:
376,147,19595,2,0,L|473:169,1,90,2|0,0:0|0:0,0:0:0:0:
488,334,19916,2,0,L|402:313,1,45,2|0,0:0|0:0,0:0:0:0:
273,328,20130,6,0,P|204:312|132:368,1,161.999995056153,8|0,0:0|0:0,0:0:0:0:
25,292,20559,102,0,B|47:260|47:260|40:166,1,108,2|0,0:0|0:0,0:0:0:0:
27,82,20988,2,0,B|72:90|72:90|127:71,1,90,8|0,0:0|0:0,0:0:0:0:
189,0,21309,2,0,B|234:-8|234:-8|289:11,1,90,2|0,0:0|0:0,0:0:0:0:
325,92,21630,2,0,B|346:97|346:97|378:90,1,45,2|0,0:0|0:0,0:0:0:0:
497,51,21845,21,8,0:0:0:0:
497,51,22273,86,0,L|480:224,1,135,2|0,0:0|0:0,0:0:0:0:
387,199,22702,2,0,B|365:214|335:212|335:212|312:193|313:165,1,107.999996704102,8|0,0:0|0:0,0:0:0:0:
439,281,23023,2,0,P|489:336|484:383,1,107.999996704102,2|0,0:0|0:0,0:0:0:0:
332,328,23345,2,0,P|303:348|275:349,1,53.9999983520508,2|0,0:0|0:0,0:0:0:0:
198,227,23559,6,0,P|148:203|65:312,1,202.500007724762,8|0,0:0|0:0,0:0:0:0:
241,285,23988,102,0,L|226:130,1,135,2|0,0:0|0:0,0:0:0:0:
331,264,24416,2,0,L|318:141,1,107.999996704102,8|0,0:0|0:0,0:0:0:0:
407,27,24738,2,0,P|472:-5|539:28,1,107.999996704102,2|0,0:0|0:0,0:0:0:0:
489,153,25059,2,0,L|421:132,1,53.9999983520508,2|0,0:0|0:0,0:0:0:0:
295,54,25273,6,0,P|221:26|130:112,1,202.500007724762,8|0,0:0|0:0,0:0:0:0:
135,199,25702,102,0,B|83:170|39:193|39:193|38:220|62:243,1,135,2|0,0:0|0:0,0:0:0:0:
217,317,26130,2,0,B|209:289|215:268|215:268|240:241|233:189,1,107.999996704102,8|0,0:0|0:0,0:0:0:0:
153,15,26452,2,0,B|133:63|133:63|151:116,1,107.999996704102,2|0,0:0|0:0,0:0:0:0:
234,214,26773,2,0,L|229:158,1,53.9999983520508,2|0,0:0|0:0,0:0:0:0:
377,37,26988,6,0,P|465:38|501:156,1,202.500007724762,8|0,0:0|0:0,0:0:0:0:
428,204,27416,102,0,B|414:308|414:308|437:265,1,135,2|0,0:0|0:0,0:0:0:0:
384,116,27845,2,0,B|378:36|378:36|364:63,1,107.999996704102,8|0,0:0|0:0,0:0:0:0:
228,174,28166,2,0,P|166:170|109:224,1,107.999996704102,2|0,0:0|0:0,0:0:0:0:
83,322,28488,2,0,L|87:244,1,53.9999983520508,2|0,0:0|0:0,0:0:0:0:
17,109,28702,1,8,0:0:0:0:
65,43,28809,2,0,L|50:201,1,135.000005149842,2|0,0:0|0:0,0:0:0:0:
192,248,29130,6,0,P|255:260|284:189,1,107.999996704102,2|0,0:0|0:0,0:0:0:0:
304,212,29452,1,4,0:0:0:0:
387,180,29559,2,0,L|350:341,1,135.000005149842,8|0,0:0|0:0,0:0:0:0:
512,343,29880,2,0,P|452:310|448:251,1,135.000005149842,2|0,0:0|0:0,0:0:0:0:
387,180,30202,2,0,L|368:99,1,67.5000025749208,6|0,0:0|0:0,0:0:0:0:
222,119,30416,102,0,P|165:180|71:151,1,153.000002918243,8|0,0:0|0:0,0:0:0:0:
49,111,30738,1,4,0:0:0:0:
21,232,30845,6,0,L|52:378,1,107.999996704102,2|0,0:0|0:0,0:0:0:0:
77,355,31166,1,4,0:0:0:0:
149,278,31273,2,0,P|215:247|301:290,1,135.000005149842,8|0,0:0|0:0,0:0:0:0:
500,319,31595,2,0,B|407:352|407:352|371:344,1,135.000005149842,2|0,0:0|0:0,0:0:0:0:
430,237,31916,2,0,L|504:211,1,67.5000025749208,6|0,0:0|0:0,0:0:0:0:
452,119,32130,102,0,L|226:199,1,229.500004377365,12|0,0:0|0:0,0:0:0:0:
78,160,32559,6,0,P|40:100|74:35,1,107.999996704102,2|0,0:0|0:0,0:0:0:0:
68,36,32880,1,4,0:0:0:0:
179,6,32988,2,0,P|222:41|224:134,1,135.000005149842,8|0,0:0|0:0,0:0:0:0:
178,276,33309,2,0,B|165:384|165:384|193:351,1,135.000005149842,2|0,0:0|0:0,0:0:0:0:
328,294,33630,2,0,B|296:285|296:285|254:295,1,67.5000025749208,6|0,0:0|0:0,0:0:0:0:
97,312,33845,2,0,B|29:277|29:277|8:194,1,153.000002918243,8|0,0:0|0:0,0:0:0:0:
27,122,34166,1,4,0:0:0:0:
131,166,34273,102,0,P|200:144|219:85,1,107.999996704102,2|0,0:0|0:0,0:0:0:0:
207,79,34595,1,4,0:0:0:0:
292,113,34702,2,0,L|431:167,1,135.000005149842,8|0,0:0|0:0,0:0:0:0:
266,227,35023,2,0,P|200:265|206:342,1,135.000005149842,2|0,0:0|0:0,0:0:0:0:
314,366,35345,2,0,B|346:348|346:348|357:296,1,67.5000025749208,6|0,0:0|0:0,0:0:0:0:
288,193,35559,6,0,P|202:210|167:346,1,229.500004377365,12|0,0:0|0:0,0:0:0:0:
47,234,35988,102,0,L|21:106,1,107.999996704102,2|0,0:0|0:0,0:0:0:0:
36,92,36309,1,4,0:0:0:0:
74,187,36416,2,0,L|61:331,1,135.000005149842,8|0,0:0|0:0,0:0:0:0:
245,289,36738,2,0,B|277:325|320:325|347:303|347:303|333:255,1,135.000005149842,2|0,0:0|0:0,0:0:0:0:
458,366,37059,2,0,L|433:304,1,67.5000025749208,6|0,0:0|0:0,0:0:0:0:
392,137,37273,6,0,B|414:105|460:108|460:108|488:143|477:183,1,153.000002918243,8|0,0:0|0:0,0:0:0:0:
407,221,37595,1,4,0:0:0:0:
308,174,37702,102,0,P|239:167|159:198,1,107.999996704102,2|0,0:0|0:0,0:0:0:0:
169,193,38023,1,4,0:0:0:0:
85,128,38130,2,0,B|70:110|70:110|84:-18,1,135.000005149842,8|0,0:0|0:0,0:0:0:0:
265,127,38452,2,0,P|342:151|417:117,1,135.000005149842,2|0,0:0|0:0,0:0:0:0:
454,8,38773,2,0,B|443:40|443:40|457:88,1,67.5000025749208,6|0,0:0|0:0,0:0:0:0:
489,187,38988,6,0,B|479:352|479:352|456:285,1,229.500004377365,12|0,0:0|0:0,0:0:0:0:
318,222,39416,102,0,P|242:231|208:261,1,107.999996704102,2|0,0:0|0:0,0:0:0:0:
209,285,39738,1,4,0:0:0:0:
139,350,39845,2,0,B|97:313|45:313|45:313|83:364,1,135.000005149842,8|0,0:0|0:0,0:0:0:0:
226,383,40166,2,0,L|216:214,1,135.000005149842,2|0,0:0|0:0,0:0:0:0:
128,173,40488,2,0,P|117:140|123:96,1,67.5000025749208,6|0,0:0|0:0,0:0:0:0:
241,125,40702,6,0,P|285:40|356:33,1,161.999995056153,8|0,0:0|0:0,0:0:0:0:
412,64,41023,1,4,0:0:0:0:
432,172,41130,6,0,L|540:159,1,80.9999975280763,2|0,0:0|0:0,0:0:0:0:
508,338,41345,2,0,B|467:346|467:346|419:327,1,80.9999975280763,2|4,0:0|0:0,0:0:0:0:
322,147,41559,1,8,0:0:0:0:
355,221,41666,2,0,B|314:229|314:229|266:210,1,80.9999975280763,2|0,0:0|0:0,0:0:0:0:
110,293,41880,2,0,B|120:227|177:215|177:215|178:261|214:287,1,161.999995056153,6|0,0:0|0:0,0:0:0:0:
140,375,42202,2,0,B|99:383|99:383|51:364,1,80.9999975280763,6|0,0:0|0:0,0:0:0:0:
59,150,42416,86,0,B|124:167|185:124|185:124|205:124|221:127|235:140|235:140|189:148,1,202.500007724762,12|0,0:0|0:0,0:0:0:0:
64,71,42845,38,0,P|118:70|169:17,1,116.999994644165,6|0,0:0|0:0,0:0:0:0:
182,0,43166,1,0,0:0:0:0:
261,44,43273,2,0,B|320:23|320:23|406:48,1,135.000005149842,12|0,0:0|0:0,0:0:0:0:
439,156,43595,2,0,L|357:136,1,72,2|4,0:0|0:0,0:0:0:0:
281,187,43809,1,0,0:0:0:0:
315,225,43916,2,0,L|403:249,1,72,2|0,0:0|0:0,0:0:0:0:
512,308,44130,6,0,B|492:256|427:243|427:243|371:281|386:354,1,229.500004377365,12|0,0:0|0:0,0:0:0:0:
273,378,44559,22,0,B|234:341|193:344|193:344|153:374|84:366,1,175.499991966248,6|0,0:0|0:0,0:0:0:0:
45,274,44988,2,0,P|128:288|181:257,1,135.000005149842,12|4,0:0|0:0,0:0:0:0:
236,212,45309,2,0,B|247:206|257:195|257:195|280:193|301:198,2,72,10|8|8,0:0|0:0|0:0,0:0:0:0:
157,171,45630,2,0,P|133:197|100:210,1,72,6|0,0:0|0:0,0:0:0:0:
101,54,45845,53,8,0:0:0:0:
119,20,45952,1,0,0:0:0:0:
152,2,46059,1,0,0:0:0:0:
185,19,46166,1,0,0:0:0:0:
226,92,46273,6,0,B|295:102|295:102|354:63,1,116.999994644165,6|0,0:0|0:0,0:0:0:0:
377,52,46595,1,0,0:0:0:0:
451,162,46702,2,0,B|393:136|357:179|357:179|353:208|393:217,1,135.000005149842,12|0,0:0|0:0,0:0:0:70:soft-hitfinish8.wav
275,320,47023,2,0,L|263:166,1,153.000002918243,2|0,0:0|0:0,0:0:0:0:
367,206,47345,2,0,L|375:310,1,80.9999975280763,2|0,0:0|0:0,0:0:0:0:
177,354,47559,38,0,L|162:167,1,170.999995433807,12|0,0:0|0:0,0:0:0:0:
157,105,47880,1,0,0:0:0:0:
51,81,47988,70,0,L|69:362,1,256.499993150711,6|0,0:0|0:0,0:0:0:0:
177,354,48416,2,0,B|207:323|241:312|292:338|292:338|277:358|255:358|242:344,1,170.999995433807,8|4,0:0|0:0,0:0:0:0:
148,278,48738,1,6,0:0:0:0:
206,252,48845,2,0,P|267:248|304:263,1,85.4999977169037,4|0,0:0|0:0,0:0:0:0:
464,323,49059,2,0,B|422:334|398:310|398:310|394:296|399:274,1,90,2|0,0:0|0:0,0:0:0:0:
433,194,49273,70,0,L|425:127,1,67.5,8|0,0:0|0:0,0:0:0:0:
373,34,49702,54,0,B|338:66|304:65|304:65|284:44|250:36,1,116.999994644165,6|0,0:0|0:0,0:0:0:0:
220,28,50023,1,0,0:0:0:0:
143,121,50130,2,0,B|208:88|244:127|244:127|235:148|188:142,1,135.000005149842,12|0,0:0|0:0,0:0:0:0:
71,80,50452,2,0,P|63:93|60:148,1,72,2|4,0:0|0:0,0:0:0:0:
103,229,50666,1,0,0:0:0:0:
150,224,50773,2,0,L|232:214,1,72,2|0,0:0|0:0,0:0:0:0:
420,279,50987,102,0,B|396:226|356:215|308:231|308:231|297:290|231:301,1,229.500004377365,12|0,0:0|0:0,0:0:0:0:
162,304,51416,38,0,B|288:324|288:324|232:283,1,175.499991966248,6|0,0:0|0:0,0:0:0:0:
126,209,51845,2,0,B|93:224|93:224|62:221|62:221|37:237|37:237|-28:233,1,135.000005149842,12|4,0:0|0:0,0:0:0:0:
83,309,52166,2,0,L|89:377,2,67.5000025749208,10|8|8,0:0|0:0|0:0,0:0:0:0:
207,228,52488,2,0,L|214:151,1,67.5000025749208,6|0,0:0|0:0,0:0:0:0:
353,0,52702,53,12,0:0:0:0:
347,44,52809,1,0,0:0:0:0:
341,88,52916,1,0,0:0:0:0:
336,133,53023,1,0,0:0:0:0:
352,213,53130,6,0,B|374:224|403:223|403:223|422:192|407:149,1,116.999994644165,6|0,0:0|0:0,0:0:0:0:
336,133,53452,1,0,0:0:0:0:
252,179,53559,2,0,L|282:343,1,135.000005149842,12|0,0:0|0:0,0:0:0:0:
108,353,53880,2,0,B|93:325|103:288|103:288|139:281|168:300,1,135.000005149842,2|0,0:0|0:0,0:0:0:70:
255,376,54202,2,0,L|286:279,1,67.5000025749208,2|0,0:0|0:0,0:0:0:0:
409,210,54416,6,0,B|460:169|517:212|517:212|519:233|509:266,1,153.000002918243,12|0,0:0|0:0,0:0:0:0:
489,324,54738,1,0,0:0:0:0:
388,283,54844,38,0,B|375:217|375:217|387:134|387:134|378:83|378:83|361:118,1,229.500004377365,6|0,0:0|0:0,0:0:0:0:
259,130,55273,2,0,B|220:85|163:108|163:108|144:146|192:176,1,161.999995056153,12|4,0:0|0:0,0:0:0:0:
119,216,55595,1,6,0:0:0:0:
88,166,55702,2,0,P|80:129|98:66,1,90,4|0,0:0|0:0,0:0:0:0:
40,246,55916,2,0,P|32:281|48:343,1,90,2|0,0:0|0:0,0:0:0:0:
154,362,56130,53,8,0:0:0:0:
201,302,56238,2,0,P|144:240|117:308,1,180,2|0,0:0|0:0,0:0:0:0:
273,339,56559,6,0,P|282:265|242:193,1,116.999994644165,6|4,0:0|0:0,0:0:0:0:
191,146,56880,1,0,0:0:0:0:
188,116,56988,1,12,0:0:0:0:
211,68,57095,1,0,0:0:0:0:
277,46,57202,1,0,0:0:0:0:
358,87,57309,2,0,B|437:102|437:102|513:34,1,135.000005149842,2|0,0:0|0:0,0:0:0:70:soft-hitfinish2.wav
474,168,57630,2,0,B|504:145|504:145|480:192,1,90,2|0,0:0|0:0,0:0:0:0:
510,282,57845,38,0,B|352:250|352:250|280:306,1,229.500004377365,12|0,0:0|0:0,0:0:0:0:
158,290,58273,70,0,B|21:310|21:310|66:265,1,175.499991966248,6|0,0:0|0:0,0:0:0:0:
175,205,58702,2,0,P|250:189|302:136,1,135.000005149842,12|4,0:0|0:0,0:0:0:0:
256,21,59023,2,0,P|191:25|168:51,2,72,10|8|8,0:0|0:0|0:0,0:0:0:0:
161,119,59345,2,0,P|196:114|226:95,1,72,6|0,0:0|0:0,0:0:0:0:
369,74,59559,5,12,0:0:0:0:
409,88,59666,1,0,0:0:0:0:
426,127,59773,1,4,0:0:0:0:
409,166,59880,1,0,0:0:0:0:
335,218,59988,6,0,P|306:262|320:335,1,116.999994644165,6|0,0:0|0:0,0:0:0:0:
339,361,60309,1,0,0:0:0:0:
236,340,60416,2,0,P|226:276|245:207,1,135.000005149842,12|0,0:0|0:0,0:0:0:0:
239,71,60738,2,0,P|258:158|240:215,1,144,2|0,0:0|0:0,0:0:0:0:
133,224,61059,2,0,P|160:197|168:155,1,76.5000014591217,2|0,0:0|0:0,0:0:0:0:
95,13,61273,6,0,P|60:89|109:169,1,161.999995056153,12|0,0:0|0:0,0:0:0:0:
169,161,61595,1,0,0:0:0:0:
258,140,61702,54,0,B|423:151|423:151|362:184,1,229.500004377365,6|0,0:0|0:0,0:0:0:0:
90,155,62130,2,0,B|-17:171|-17:171|50:121,1,153.000002918243,12|4,0:0|0:0,0:0:0:0:
169,161,62452,1,6,0:0:0:0:
226,217,62559,2,0,B|240:253|240:253|231:301,1,76.5000014591217,4|0,0:0|0:0,0:0:0:0:
120,384,62773,2,0,B|113:346|113:346|127:310,1,76.5000014591217,2|0,0:0|0:0,0:0:0:0:
288,356,62988,70,0,L|362:360,1,67.5,8|0,0:0|0:0,0:0:0:0:
288,356,63416,102,0,P|328:302|309:234,1,116.999994644165,6|4,0:0|0:0,0:0:0:0:
218,213,63738,1,0,0:0:0:0:
205,175,63845,1,12,0:0:0:0:
221,118,63952,1,0,0:0:0:0:
285,70,64059,1,0,0:0:0:0:
368,90,64166,2,0,B|415:109|415:109|509:80,1,144,2|0,0:0|0:0,0:0:0:0:
493,0,64488,2,0,L|400:29,1,72,2|0,0:0|0:0,0:0:0:0:
380,205,64702,54,0,P|245:235|203:145,1,229.500004377365,12|0,0:0|0:0,0:0:0:0:
2,221,65130,6,0,B|34:185|72:180|109:201|109:201|115:231|157:276,1,175.499991966248,6|0,0:0|0:0,0:0:0:0:
262,265,65559,2,0,P|192:276|107:216,1,135.000005149842,12|4,0:0|0:0,0:0:0:0:
154,86,65880,2,0,L|148:3,2,67.5000025749208,10|8|8,0:0|0:0|0:0,0:0:0:0:
179,188,66202,2,0,P|208:200|253:181,1,67.5000025749208,6|0,0:0|0:0,0:0:0:0:
305,98,66416,5,12,0:0:0:0:
323,47,66523,1,0,0:0:0:0:
366,16,66630,1,0,0:0:0:0:
421,17,66738,1,0,0:0:0:0:
489,71,66844,6,0,L|459:200,1,116.999994644165,6|0,0:0|0:0,0:0:0:0:
382,179,67166,1,0,0:0:0:0:
305,98,67273,2,0,P|238:60|178:76,1,135.000005149842,12|0,0:0|0:0,0:0:0:0:
92,151,67595,2,0,B|47:166|13:159|-6:130|-6:130|10:114|54:104,1,135.000005149842,2|0,0:0|0:0,0:0:0:70:
231,149,67916,2,0,L|228:229,1,67.5000025749208,2|0,0:0|0:0,0:0:0:0:
290,303,68130,6,0,B|312:267|349:259|349:259|385:273|394:318,1,153.000002918243,12|0,0:0|0:0,0:0:0:35:soft-hitfinish2.wav
444,376,68452,1,0,0:0:0:0:
484,283,68559,54,0,B|470:178|524:203|492:106|492:106|474:139|493:170,1,229.500004377365,6|0,0:0|0:0,0:0:0:0:
395,192,68988,2,0,B|515:180|515:180|475:142,1,161.999995056153,12|4,0:0|0:0,0:0:0:0:
460,26,69309,1,6,0:0:0:0:
385,16,69416,2,0,L|284:11,1,90,4|0,0:0|0:0,0:0:0:0:
291,204,69630,2,0,L|190:209,1,90,2|0,0:0|0:0,0:0:0:0:
111,17,69844,101,8,0:0:0:0:
111,17,70273,86,0,L|103:113,1,67.5000025749208,12|0,0:0|0:0,0:0:0:0:
59,204,70488,1,0,0:0:0:0:
92,226,70595,1,0,0:0:0:0:
130,237,70702,2,0,P|183:235|205:220,2,67.5000025749208,2|0|0,0:0|0:0|0:0,0:0:0:0:
254,152,71023,1,8,0:0:0:0:
284,178,71130,2,0,L|305:268,1,67.5000025749208
420,366,71345,5,8,0:0:0:0:
460,367,71452,1,0,0:0:0:0:
495,348,71559,1,2,0:0:0:0:
512,311,71666,1,0,0:0:0:0:
507,270,71773,1,0,0:0:0:0:
484,236,71880,1,0,0:0:0:0:
410,202,71987,102,0,L|401:125,1,67.5000025749208,8|0,0:0|0:0,0:0:0:0:
383,17,72202,1,0,0:0:0:0:
364,45,72309,1,0,0:0:0:0:
332,57,72416,2,0,B|298:67|298:67|241:53,2,67.5000025749208,2|0|0,0:0|0:0|0:0,0:0:0:0:
165,52,72738,1,8,0:0:0:0:
130,33,72845,2,0,B|96:23|96:23|39:37,1,67.5000025749208
182,151,73059,2,0,L|168:232,1,67.5000025749208,8|0,0:0|0:0,0:0:0:0:
14,213,73273,21,2,0:0:0:0:
0,265,73380,1,2,0:0:0:0:
35,306,73488,1,2,0:0:0:0:
48,358,73595,1,2,0:0:0:0:
116,313,73702,86,0,P|141:298|195:300,1,67.5000025749208,12|0,0:0|0:0,0:0:0:0:
272,337,73916,1,0,0:0:0:0:
311,346,74023,1,0,0:0:0:0:
349,334,74130,2,0,P|391:338|429:360,2,67.5000025749208,2|0|0,0:0|0:0|0:0,0:0:0:0:
242,252,74452,1,8,0:0:0:0:
232,219,74559,2,0,P|231:170|262:126,1,67.5000025749208
373,77,74773,5,8,0:0:0:0:
333,84,74880,1,0,0:0:0:0:
293,93,74987,1,2,0:0:0:0:
331,104,75094,1,0,0:0:0:0:
368,119,75201,1,0,0:0:0:0:
405,133,75308,1,0,0:0:0:0:
371,206,75416,102,0,P|348:224|337:288,1,67.5000025749208,8|0,0:0|0:0,0:0:0:0:
232,367,75630,1,0,0:0:0:0:
223,327,75738,1,0,0:0:0:0:
215,287,75845,2,0,L|194:188,2,67.5000025749208,2|0|0,0:0|0:0|0:0,0:0:0:0:
119,328,76166,1,8,0:0:0:0:
98,293,76273,2,0,P|47:268|6:264,1,67.5000025749208
55,101,76488,2,0,P|87:91|116:73,1,67.5000025749208,8|0,0:0|0:0,0:0:0:0:
269,27,76702,21,2,0:0:0:0:
323,54,76809,1,2,0:0:0:0:
377,26,76916,1,2,0:0:0:0:
432,0,77023,1,2,0:0:0:0:
496,60,77130,86,0,L|516:154,1,67.5000025749208,12|0,0:0|0:0,0:0:0:0:
448,243,77345,1,0,0:0:0:0:
404,225,77452,1,0,0:0:0:0:
356,225,77559,2,0,P|316:234|289:254,2,67.5000025749208,2|0|0,0:0|0:0|0:0,0:0:0:0:
448,243,77880,1,8,0:0:0:0:
421,298,77988,2,0,L|380:385,1,67.5000025749208
303,331,78202,5,8,0:0:0:0:
256,321,78309,1,0,0:0:0:0:
209,331,78416,1,2,0:0:0:0:
175,370,78523,1,0,0:0:0:0:
127,373,78630,1,0,0:0:0:0:
85,350,78737,1,0,0:0:0:0:
60,309,78845,102,0,P|54:277|79:216,1,67.5000025749208,8|0,0:0|0:0,0:0:0:0:
161,121,79059,1,0,0:0:0:0:
200,146,79166,1,0,0:0:0:0:
247,150,79273,2,0,P|287:140|307:107,2,67.5000025749208,2|0|0,0:0|0:0|0:0,0:0:0:0:
145,80,79595,1,8,0:0:0:0:
119,40,79702,2,0,P|65:36|32:56,1,67.5000025749208
29,182,79916,2,0,P|61:189|94:182,1,67.5000025749208,8|0,0:0|0:0,0:0:0:0:
247,53,80130,21,2,0:0:0:0:
308,24,80238,1,2,0:0:0:0:
375,28,80345,1,2,0:0:0:0:
435,58,80452,1,2,0:0:0:0:
475,135,80559,86,0,P|424:150|381:146,1,67.5000025749208,12|0,0:0|0:0,0:0:0:0:
254,203,80773,1,0,0:0:0:0:
298,233,80880,1,0,0:0:0:0:
349,249,80988,2,0,P|394:249|428:239,2,67.5000025749208,2|0|0,0:0|0:0|0:0,0:0:0:0:
512,365,81309,1,8,0:0:0:0:
459,353,81416,2,0,P|405:351|366:359,1,67.5000025749208
229,311,81630,5,8,0:0:0:0:
178,331,81737,1,0,0:0:0:0:
125,320,81844,1,2,0:0:0:0:
91,277,81951,1,0,0:0:0:0:
91,223,82058,1,0,0:0:0:0:
126,182,82165,1,0,0:0:0:0:
205,156,82273,102,0,P|207:189|185:240,1,67.5000025749208,8|0,0:0|0:0,0:0:0:0:
11,186,82488,1,0,0:0:0:0:
11,132,82595,1,0,0:0:0:0:
11,78,82702,2,0,L|12:3,2,67.5000025749208,2|0|0,0:0|0:0|0:0,0:0:0:0:
116,124,83023,1,8,0:0:0:0:
67,148,83130,2,0,L|-3:194,1,67.5000025749208
135,33,83345,2,0,L|191:70,1,67.5000025749208,8|0,0:0|0:0,0:0:0:0:
328,204,83559,21,2,0:0:0:0:
407,213,83666,1,2,0:0:0:0:
420,133,83773,1,2,0:0:0:0:
340,121,83880,1,2,0:0:0:0:
328,204,83988,6,0,B|313:297|313:297|305:347|349:383,1,175.499991966248,6|4,0:0|0:0,0:0:0:0:
497,343,84416,2,0,B|489:304|459:286|459:286|417:286|380:324,1,135.000005149842,8|0,0:0|0:0,0:0:0:0:
236,363,84738,2,0,P|147:379|90:334,1,144,2|0,0:0|0:0,0:0:0:0:
186,112,85059,2,0,L|175:198,1,76.5000014591217,2|0,0:0|0:0,0:0:0:0:
174,277,85273,2,0,B|164:76|164:76|194:123,1,242.999992584229,8|0,0:0|0:0,0:0:0:0:
269,295,85702,6,0,B|295:282|326:289|326:289|354:316|387:332|460:319,1,175.499991966248,2|4,0:0|0:0,0:0:0:0:
511,215,86130,2,0,P|453:238|353:219,1,135.000005149842,8|0,0:0|0:0,0:0:0:0:
247,223,86452,2,0,P|340:211|410:264,1,144,2|0,0:0|0:0,0:0:0:0:
483,126,86773,2,0,P|442:149|391:148,1,76.5000014591217,2|0,0:0|0:0,0:0:0:0:
250,64,86988,2,0,P|299:64|354:86,1,80.9999975280763,8|0,0:0|0:0,0:0:0:0:
374,0,87202,2,0,P|399:21|418:76,1,80.9999975280763,8|0,0:0|0:0,0:0:0:0:
512,216,87416,102,0,P|454:239|330:203,1,175.499991966248,6|4,0:0|0:0,0:0:0:0:
243,244,87845,2,0,B|233:280|233:280|253:333|253:333|245:373,1,135.000005149842,8|0,0:0|0:0,0:0:0:0:
154,384,88166,2,0,B|162:344|162:344|142:291|142:291|154:246,1,144,2|0,0:0|0:0,0:0:0:0:
70,217,88488,2,0,P|29:213|-7:184,1,76.5000014591217,2|0,0:0|0:0,0:0:0:0:
19,105,88702,2,0,P|60:133|172:124,1,161.999995056153,8|0,0:0|0:0,0:0:0:0:
198,94,89023,1,0,0:0:0:0:
281,86,89130,6,0,B|343:71|389:98|389:98|406:70|406:34,1,175.499991966248,2|4,0:0|0:0,0:0:0:0:
475,0,89559,2,0,B|487:44|487:44|487:85|460:139,1,135.000005149842,8|0,0:0|0:0,0:0:0:0:
358,180,89880,2,0,P|291:178|320:240,1,161.999995056153,2|0,0:0|0:0,0:0:0:0:
332,316,90202,2,0,P|371:304|392:272,1,76.5000014591217,8|0,0:0|0:0,0:0:0:0:
398,117,90416,2,0,L|406:30,1,80.9999975280763,8|0,0:0|0:0,0:0:0:0:
512,212,90630,2,0,P|487:221|431:201,1,80.9999975280763,10|0,0:0|0:0,0:0:0:0:
251,286,90845,22,0,B|191:299|151:280|151:280|121:279|98:295,1,135,6|4,0:0|0:0,0:0:0:0:
148,190,91273,2,0,P|191:211|264:195,1,99.0000030212403,8|0,0:0|0:0,0:0:0:0:
391,128,91595,2,0,B|315:120|315:120|282:155,1,107.999996704102,2|0,0:0|0:0,0:0:0:0:
207,104,91916,2,0,L|249:59,1,58.4999973220826,2|0,0:0|0:0,0:0:0:0:
165,16,92130,2,0,B|111:74|111:74|91:81|91:81|26:151,1,175.499991966248,8|0,0:0|0:0,0:0:0:0:
87,286,92559,6,0,P|145:293|201:234,1,135,2|4,0:0|0:0,0:0:0:0:
274,261,92988,2,0,P|254:313|205:352,1,99.0000030212403,8|0,0:0|0:0,0:0:0:0:
27,348,93309,2,0,P|89:376|141:374,1,107.999996704102,2|0,0:0|0:0,0:0:0:0:
145,195,93630,2,0,P|168:174|210:169,1,58.4999973220826,2|0,0:0|0:0,0:0:0:0:
119,295,93845,2,0,P|82:286|53:262,1,62.9999980773926,8|0,0:0|0:0,0:0:0:0:
183,89,94059,2,0,P|215:89|248:110,1,62.9999980773926,8|0,0:0|0:0,0:0:0:0:
373,127,94273,54,0,B|398:80|369:21|369:21|388:40|414:49,1,135,6|4,0:0|0:0,0:0:0:0:
512,201,94702,2,0,P|476:214|391:183,1,99.0000030212403,8|0,0:0|0:0,0:0:0:0:
294,78,95023,2,0,P|228:64|181:90,1,121.499996292114,2|0,0:0|0:0,0:0:0:0:
102,32,95345,2,0,P|90:69|92:104,1,58.4999973220826,2|0,0:0|0:0,0:0:0:0:
0,74,95559,2,0,P|41:164|147:160,1,188.999994232178,8|0,0:0|0:0,0:0:0:0:
266,184,95988,6,0,B|308:170|339:173|372:200|372:200|352:208|341:216,1,135,2|4,0:0|0:0,0:0:0:0:
161,256,96416,2,0,B|180:302|180:302|169:367,1,99.0000030212403,8|0,0:0|0:0,0:0:0:0:
44,336,96738,2,0,B|40:328|21:326|21:326|56:300|98:314,1,107.999996704102,2|0,0:0|0:0,0:0:0:0:
227,355,97059,2,0,B|201:361|201:361|171:350,1,58.4999973220826,2|0,0:0|0:0,0:0:0:0:
237,210,97273,1,8,0:0:0:0:
237,210,97380,70,0,P|277:202|300:206,1,45,2|0,0:0|0:0,0:0:0:0:
408,206,97702,86,0,B|386:216|340:220|280:201|280:201|263:200|245:204|224:219,1,175.499991966248,6|4,0:0|0:0,0:0:0:0:
304,119,98130,2,0,B|356:147|411:120|411:120|385:84,1,135.000005149842,8|0,0:0|0:0,0:0:0:0:
427,4,98452,2,0,L|517:129,1,144,2|0,0:0|0:0,0:0:0:0:
397,100,98773,2,0,L|351:38,1,76.5000014591217,2|0,0:0|0:0,0:0:0:0:
248,68,98988,2,0,B|223:102|159:108|121:76|121:76|129:26|162:10|217:10,1,242.999992584229,8|0,0:0|0:0,0:0:0:0:
250,159,99416,54,0,B|220:173|197:178|156:172|156:172|166:194|172:226|158:249,1,175.499991966248,2|4,0:0|0:0,0:0:0:0:
1,226,99845,2,0,B|44:201|89:211|89:211|92:240|68:254|43:239,1,135.000005149842,8|0,0:0|0:0,0:0:0:0:
117,332,100166,2,0,B|227:346|227:346|267:299,1,144,2|0,0:0|0:0,0:0:0:0:
291,245,100488,2,0,B|284:204|284:204|315:235,1,76.5000014591217,2|0,0:0|0:0,0:0:0:0:
352,364,100701,2,0,B|314:381|314:381|333:345,1,80.9999975280763,8|0,0:0|0:0,0:0:0:0:
400,275,100916,2,0,L|490:258,1,80.9999975280763,8|0,0:0|0:0,0:0:0:0:
509,157,101130,6,0,B|386:182|386:182|345:134,1,175.499991966248,6|4,0:0|0:0,0:0:0:0:
282,119,101559,2,0,B|322:105|352:104|380:128|380:128|356:137|341:158,1,135.000005149842,8|0,0:0|0:0,0:0:0:0:
183,172,101880,2,0,B|159:146|112:141|80:158|80:158|106:172|120:205,1,144,2|0,0:0|0:0,0:0:0:0:
259,265,102202,2,0,B|286:242|327:261|327:261|300:279,1,90,2|0,0:0|0:0,0:0:0:0:
81,339,102416,2,0,L|105:172,1,161.999995056153,8|0,0:0|0:0,0:0:0:0:
120,95,102738,1,0,0:0:0:0:
209,148,102845,38,0,L|398:178,1,175.499991966248,2|4,0:0|0:0,0:0:0:0:
470,261,103273,2,0,P|386:300|333:288,1,135.000005149842,8|0,0:0|0:0,0:0:0:0:
356,95,103595,2,0,P|415:98|465:163,1,144,2|0,0:0|0:0,0:0:0:0:
385,224,103916,2,0,P|359:220|330:169,1,76.5000014591217,2|0,0:0|0:0,0:0:0:0:
388,23,104130,2,0,P|380:63|349:99,1,80.9999975280763,8|0,0:0|0:0,0:0:0:0:
219,5,104345,2,0,B|261:0|261:0|315:31,1,80.9999975280763,8|0,0:0|0:0,0:0:0:0:
189,157,104559,54,0,P|107:166|66:197,1,135,6|4,0:0|0:0,0:0:0:0:
90,200,104988,2,0,P|121:180|187:175,1,99.0000030212403,8|0,0:0|0:0,0:0:0:0:
226,296,105309,2,0,P|269:312|333:310,1,107.999996704102,2|0,0:0|0:0,0:0:0:0:
310,292,105630,2,0,P|266:287|246:280,1,58.4999973220826,2|0,0:0|0:0,0:0:0:0:
384,184,105845,2,0,B|520:170|520:170|468:206,1,188.999994232178,8|0,0:0|0:0,0:0:0:0:
300,149,106273,6,0,P|230:157|159:109,1,135,2|4,0:0|0:0,0:0:0:0:
95,79,106702,2,0,L|-7:52,1,99.0000030212403,8|0,0:0|0:0,0:0:0:0:
23,252,107023,2,0,L|101:177,1,107.999996704102,2|0,0:0|0:0,0:0:0:0:
200,219,107345,2,0,L|227:320,1,58.4999973220826,2|0,0:0|0:0,0:0:0:0:
23,252,107559,2,0,L|73:206,1,62.9999980773926,8|0,0:0|0:0,0:0:0:0:
0,53,107773,2,0,L|61:70,1,62.9999980773926,8|0,0:0|0:0,0:0:0:0:
252,46,107988,38,0,P|319:72|380:37,1,135,6|4,0:0|0:0,0:0:0:0:
478,15,108416,2,0,B|492:68|492:68|473:125,1,99.0000030212403,8|0,0:0|0:0,0:0:0:0:
355,174,108738,2,0,B|334:224|334:224|354:289,1,107.999996704102,2|0,0:0|0:0,0:0:0:0:
444,340,109059,2,0,P|473:344|498:360,1,58.4999973220826,2|0,0:0|0:0,0:0:0:0:
283,355,109273,2,0,B|211:328|211:328|173:375|97:361,1,188.999994232178,8|4,0:0|0:0,0:0:0:0:
130,253,109702,38,0,P|76:256|52:271,1,67.5000025749208,2|0,0:0|0:0,0:0:0:0:
198,216,109916,2,0,P|175:190|145:176,1,67.5000025749208,2|0,0:0|0:0,0:0:0:0:
271,240,110130,2,0,P|267:186|251:162,1,72,8|0,0:0|0:0,0:0:0:0:
188,32,110345,37,8,0:0:0:0:
219,75,110452,2,0,P|257:78|293:64,1,76.5000014591217,2|0,0:0|0:0,0:0:0:0:
344,148,110666,2,0,P|373:123|388:89,1,76.5000014591217,2|0,0:0|0:0,0:0:0:0:
418,0,110880,1,8,0:0:0:0:
475,49,110987,2,0,P|490:100|476:153,1,80.9999975280763,2|0,0:0|0:0,0:0:0:0:
385,310,111202,2,0,P|379:285|390:223,1,80.9999975280763,8|0,0:0|0:0,0:0:0:0:
504,278,111416,53,2,0:0:0:0:
80,246,117416,102,0,P|73:182|58:130,1,112.5
165,63,118059,2,0,L|171:28,1,22.5
290,259,118273,22,0,L|297:290,28,19.1250003647804,6|0|0|0|0|0|0|0|0|0|0|0|0|0|0|0|0|0|0|0|0|0|0|0|0|0|0|0|0,0:0|0:0|0:0|0:0|0:0|0:0|0:0|0:0|0:0|0:0|0:0|0:0|0:0|0:0|0:0|0:0|0:0|0:0|0:0|0:0|0:0|0:0|0:0|0:0|0:0|0:0|0:0|0:0|0:0,0:0:0:0:
328,170,119130,38,0,P|335:142|290:188,1,180,12|4,0:0|0:0,0:0:0:0:
376,245,119452,2,0,P|414:168|391:67,1,180,4|0,0:0|0:0,0:0:0:0:
175,138,119773,2,0,P|180:188|211:234,1,90,4|0,0:0|0:0,0:0:0:0:
487,78,119988,54,0,P|477:41|465:19,1,45,2|0,0:0|0:0,0:0:0:0:
285,220,120309,2,0,P|287:198|295:177,1,45,2|0,0:0|0:0,0:0:0:0:
431,323,120630,2,0,P|421:329|410:333,1,22.5,2|0,0:0|0:0,0:0:0:0:
381,166,120845,102,0,B|393:48|393:48|372:85,1,157.5,12|0,0:0|0:0,0:0:0:0:
297,219,121702,22,0,L|303:236,28,19.1250003647804,6|0|0|0|0|0|0|0|0|0|0|0|0|0|0|0|0|0|0|0|0|0|0|0|0|0|0|0|0,0:0|0:0|0:0|0:0|0:0|0:0|0:0|0:0|0:0|0:0|0:0|0:0|0:0|0:0|0:0|0:0|0:0|0:0|0:0|0:0|0:0|0:0|0:0|0:0|0:0|0:0|0:0|0:0|0:0,0:0:0:0:
331,128,122559,6,0,B|291:138|263:139|224:113|224:113|243:129|245:146,1,153.000002918243
398,234,122880,2,0,B|431:207|452:203|510:208|510:208|490:219|486:231,1,153.000002918243,8|0,0:0|0:0,0:0:0:0:
348,350,123202,2,0,B|321:344|321:344|296:354|296:354|274:351,1,76.5000014591217,8|0,0:0|0:0,0:0:0:0:
85,362,123416,70,0,L|130:369,1,45,2|0,0:0|0:0,0:0:0:0:
282,275,123738,2,0,L|298:233,1,45,2|0,0:0|0:0,0:0:0:0:
153,143,124059,2,0,L|141:125,1,22.5,2|0,0:0|0:0,0:0:0:0:
51,187,124273,22,0,P|178:277|142:125,1,405.000015449525,12|0,0:0|0:0,0:0:0:0:
66,182,124702,38,4,P|157:260|121:125,1,337.5,4|0,0:0|0:0,0:0:0:0:
295,137,125130,70,0,L|302:108,28,19.1250003647804,6|0|0|0|0|0|0|0|0|0|0|0|0|0|0|0|0|0|0|0|0|0|0|0|0|0|0|0|0,0:0|0:0|0:0|0:0|0:0|0:0|0:0|0:0|0:0|0:0|0:0|0:0|0:0|0:0|0:0|0:0|0:0|0:0|0:0|0:0|0:0|0:0|0:0|0:0|0:0|0:0|0:0|0:0|0:0,0:0:0:0:
235,257,125987,38,0,B|211:300|163:309|127:300|127:300|99:235,1,180,4|0,0:0|0:0,0:0:0:0:
9,151,126309,2,0,B|68:154|68:154|94:140|94:140|120:157|120:157|188:166,1,180,4|0,0:0|0:0,0:0:0:0:
122,335,126630,2,0,P|103:292|121:220,1,90,4|0,0:0|0:0,0:0:0:0:
120,56,126845,54,0,L|114:12,1,45,2|0,0:0|0:0,0:0:0:0:
277,208,127166,2,0,L|271:252,1,45,2|0,0:0|0:0,0:0:0:0:
392,28,127488,2,0,L|389:6,1,22.5,2|0,0:0|0:0,0:0:0:0:
459,182,127702,6,0,B|515:237|515:237|499:318|499:318|415:346|415:346|351:281|351:281|378:184,1,405.000015449525,12|0,0:0|0:0,0:0:0:0:
444,191,128130,38,0,B|490:236|490:236|477:303|477:303|407:326|407:326|354:273|354:273|376:188,1,337.5,4|0,0:0|0:0,0:0:0:0:
214,184,128559,70,0,L|207:146,28,22.5,6|0|0|0|0|0|0|0|0|0|0|0|0|0|0|0|0|0|0|0|0|0|0|0|0|0|0|0|0,0:0|0:0|0:0|0:0|0:0|0:0|0:0|0:0|0:0|0:0|0:0|0:0|0:0|0:0|0:0|0:0|0:0|0:0|0:0|0:0|0:0|0:0|0:0|0:0|0:0|0:0|0:0|0:0|0:0,0:0:0:0:
292,212,129416,38,0,B|267:258|267:258|190:274|190:274|152:242,1,180,8|0,0:0|0:0,0:0:0:0:
35,103,129737,2,0,B|59:56|59:56|136:40|136:40|173:70,1,180,8|0,0:0|0:0,0:0:0:0:
283,117,130059,69,0,0:0:0:0:
278,105,130130,1,0,0:0:0:0:
274,89,130202,1,0,0:0:0:0:
271,79,130273,86,0,B|297:84|297:84|328:74,1,45,2|0,0:0|0:0,0:0:0:0:
498,219,130595,2,0,B|480:213|480:213|454:218,1,45,2|0,0:0|0:0,0:0:0:0:
255,375,130916,2,0,L|213:371,1,22.5,2|0,0:0|0:0,0:0:0:0:
37,276,131130,5,8,0:0:0:0:
41,236,131345,1,0,0:0:0:0:
22,204,131559,1,0,0:0:0:0:
0,197,131774,1,0,0:0:0:0:
145,34,131987,6,0,L|147:15,28,19.1250003647804,6|0|0|0|0|0|0|0|0|0|0|0|0|0|0|0|0|0|0|0|0|0|0|0|0|0|0|0|0,0:0|0:0|0:0|0:0|0:0|0:0|0:0|0:0|0:0|0:0|0:0|0:0|0:0|0:0|0:0|0:0|0:0|0:0|0:0|0:0|0:0|0:0|0:0|0:0|0:0|0:0|0:0|0:0|0:0,0:0:0:0:
199,142,132845,38,0,B|180:160|165:191|170:219|170:219|161:227|161:227|176:230|176:230|187:252|207:280|258:293,1,180,12|0,0:0|0:0,0:0:0:0:
373,343,133166,2,0,B|325:329|283:356|283:356|249:382|183:362,1,180,4|0,0:0|0:0,0:0:0:0:
199,142,133487,2,0,L|288:153,1,90,4|0,0:0|0:0,0:0:0:0:
453,258,133702,38,0,P|472:245|494:241,1,45,2|0,0:0|0:0,0:0:0:0:
437,123,134023,2,0,P|449:105|466:90,1,45,2|0,0:0|0:0,0:0:0:0:
303,55,134345,2,0,P|306:44|310:34,1,22.5,2|0,0:0|0:0,0:0:0:0:
184,96,134559,22,4,B|160:69|171:41|171:41|125:39|103:4|103:4|80:35|42:30|42:30|45:68|15:88|15:88|42:115|32:148|32:148|72:149|93:187,1,405.000015449525,12|4,0:0|0:0,0:0:0:0:
183,139,134987,38,4,B|171:111|188:92|188:92|153:77|145:44|145:44|119:61|91:47|91:47|82:77|53:84|53:84|66:113|49:136|49:136|80:148|87:186,1,337.5,12|4,0:0|0:0,0:0:0:0:
166,228,135416,70,0,L|172:249,12,22.5,6|0|0|0|0|0|0|0|0|0|0|0|0,0:0|0:0|0:0|0:0|0:0|0:0|0:0|0:0|0:0|0:0|0:0|0:0|0:0,0:0:0:0:
166,335,135844,38,0,L|146:358,12,22.5,2|0|0|0|0|0|0|0|0|0|0|0|0,0:0|0:0|0:0|0:0|0:0|0:0|0:0|0:0|0:0|0:0|0:0|0:0|0:0,0:0:0:0:
265,367,136273,70,0,P|280:309|396:259,1,180,8|0,0:0|0:0,0:0:0:0:
474,114,136595,2,0,B|481:67|450:22|399:15|399:15|440:40|448:101,1,180
325,140,136916,2,0,B|224:154,1,90,8|0,0:0|0:0,0:0:0:0:
32,197,137130,102,0,L|76:190,1,45,2|0,0:0|0:0,0:0:0:0:
53,377,137452,2,0,L|9:384,1,45,2|0,0:0|0:0,0:0:0:0:
48,88,137773,2,0,L|87:83,1,22.5,2|0,0:0|0:0,0:0:0:0:
392,16,137987,101,8,0:0:0:0:
394,31,138416,5,0,0:0:0:0:
272,145,138630,1,0,0:0:0:0:
274,174,138738,1,0,0:0:0:0:
284,266,138845,6,0,L|287:298,28,19.1250003647804,6|0|0|0|0|0|0|0|0|0|0|0|0|0|0|0|0|0|0|0|0|0|0|0|0|0|0|0|0,0:0|0:0|0:0|0:0|0:0|0:0|0:0|0:0|0:0|0:0|0:0|0:0|0:0|0:0|0:0|0:0|0:0|0:0|0:0|0:0|0:0|0:0|0:0|0:0|0:0|0:0|0:0|0:0|0:0,0:0:0:0:
394,311,139702,38,0,P|423:242|394:174,1,153.000002918243,12|0,0:0|0:0,0:0:0:0:
261,129,140023,2,0,P|195:164|176:236,1,153.000002918243,4|0,0:0|0:0,0:0:0:0:
221,359,140345,2,0,P|253:379|291:379,1,76.5000014591217,4|0,0:0|0:0,0:0:0:0:
397,164,140559,54,0,L|429:215,1,45,2|0,0:0|0:0,0:0:0:0:
166,239,140880,2,0,L|174:181,1,45,2|0,0:0|0:0,0:0:0:0:
328,382,141202,2,0,L|292:378,1,22.5,2|0,0:0|0:0,0:0:0:0:
92,302,141416,5,0,0:0:0:0:
86,281,141523,1,0,0:0:0:0:
91,248,141630,1,0,0:0:0:0:
123,217,141738,1,0,0:0:0:0:
177,203,141845,1,0,0:0:0:0:
228,135,141952,1,0,0:0:0:0:
215,50,142059,1,0,0:0:0:0:
134,20,142166,1,0,0:0:0:0:
36,41,142273,38,0,L|41:63,28,19.1250003647804,6|0|0|0|0|0|0|0|0|0|0|0|0|0|0|0|0|0|0|0|0|0|0|0|0|0|0|0|0,0:0|0:0|0:0|0:0|0:0|0:0|0:0|0:0|0:0|0:0|0:0|0:0|0:0|0:0|0:0|0:0|0:0|0:0|0:0|0:0|0:0|0:0|0:0|0:0|0:0|0:0|0:0|0:0|0:0,0:0:0:0:
102,162,143130,70,0,B|114:174|145:180|173:171|190:158|190:158|226:123|280:136|280:136|272:45|376:-28|508:-21|556:127|528:181|470:251|441:269|380:260|350:238|350:238|377:224|384:185,1,787.5,12|0,0:0|0:0,0:0:0:0:
419,137,143988,86,0,B|410:119|410:119|387:109,1,45,2|0,0:0|0:0,0:0:0:0:
272,297,144309,2,0,B|263:315|263:315|240:325,1,45,2|0,0:0|0:0,0:0:0:0:
151,140,144630,2,0,L|134:108,1,22.5,2|0,0:0|0:0,0:0:0:0:
121,278,144845,6,0,B|88:294|79:341|79:341|50:310|6:322,1,157.5,8|0,0:0|0:0,0:0:0:0:
160,349,145702,101,2,0:0:0:0:
292,316,146559,1,2,0:0:0:0:
322,289,146880,1,2,0:0:0:0:
362,285,147202,1,2,0:0:0:0:
464,327,147416,6,0,L|456:269,1,45
407,223,147845,2,0,L|415:165,1,45
488,86,148273,101,2,0:0:0:0:
448,93,148595,1,2,0:0:0:0:
408,100,148916,1,2,0:0:0:0:
299,90,149130,6,0,P|288:64|288:43,1,45
356,162,149559,2,0,P|367:188|367:209,1,45
255,193,149988,101,2,0:0:0:0:
216,182,150309,1,2,0:0:0:0:
176,190,150630,1,2,0:0:0:0:
108,245,150845,6,0,L|91:184,1,45
52,315,151273,2,0,L|-3:310,1,45
7,310,152130,5,8,0:0:0:0:
100,360,152345,1,8,0:0:0:0:
111,359,152452,1,0,0:0:0:0:
122,357,152559,102,0,L|172:350,1,45
224,271,152988,2,0,L|274:278,1,45
370,336,153416,101,2,0:0:0:0:
389,308,153738,1,2,0:0:0:0:
391,274,154059,1,2,0:0:0:0:
421,160,154273,6,0,P|433:141|450:127,1,45
329,187,154702,2,0,P|326:165|327:143,1,45
225,254,155130,101,2,0:0:0:0:
228,220,155452,1,2,0:0:0:0:
233,186,155773,1,2,0:0:0:0:
326,143,155988,6,0,P|326:165|329:187,1,45
449,127,156417,2,0,P|433:141|421:160,1,45
452,260,156845,101,2,0:0:0:0:
422,275,157166,1,2,0:0:0:0:
388,279,157488,1,2,0:0:0:0:
286,320,157702,6,0,L|224:310,1,45
165,366,158130,2,0,L|117:303,1,67.5000025749208
19,320,158559,102,0,L|27:260,3,45
88,202,158988,1,2,0:0:0:0:
111,181,159095,1,2,0:0:0:0:
115,149,159202,1,2,0:0:0:0:
93,125,159309,1,2,0:0:0:0:
6,110,159416,38,0,L|149:101,1,116.999994644165,6|4,0:0|0:0,0:0:0:0:
199,97,159738,1,0,0:0:0:0:
266,36,159844,2,0,P|288:80|288:110,2,67.5000025749208,14|0|0,0:0|0:0|0:0,0:0:0:35:soft-hitfinish4.wav
364,118,160166,2,0,B|400:78|400:78|505:92,1,144,2|0,0:0|0:0,0:0:0:0:
512,176,160488,2,0,L|424:164,1,85.4999977169037,2|0,0:0|0:0,0:0:0:0:
298,221,160702,2,0,B|229:232|214:328|272:368|272:368|339:390,1,229.500004377365,12|0,0:0|0:0,0:0:0:0:
485,252,161130,6,4,L|312:298,1,175.499991966248,6|0,0:0|0:0,0:0:0:0:
309,380,161559,2,0,L|463:343,1,135.000005149842,12|4,0:0|0:0,0:0:0:0:
298,221,161880,2,0,B|260:191|200:207|200:207|174:256,1,144,2|0,0:0|0:0,0:0:0:0:
198,312,162202,2,0,L|172:212,1,72,6|0,0:0|0:0,0:0:0:0:
116,148,162416,85,12,0:0:0:0:
161,145,162523,1,0,0:0:0:0:
199,119,162630,1,4,0:0:0:0:
216,76,162738,1,0,0:0:0:0:
257,6,162845,6,0,L|275:220,1,175.499991966248,6|0,0:0|0:0,0:0:0:0:
426,284,163273,2,0,B|372:292|320:265|320:265|355:246|362:191,1,170.999995433807,12|0,0:0|0:0,0:0:0:45:soft-hitfinish8.wav
442,47,163595,2,0,B|396:70|363:50|363:50|399:70|412:139,1,161.999995056153,2|0,0:0|0:0,0:0:0:0:
319,120,163916,2,0,P|287:144|271:205,1,80.9999975280763,2|0,0:0|0:0,0:0:0:0:
196,150,164130,2,0,P|190:189|219:247,1,80.9999975280763,12|0,0:0|0:0,0:0:0:0:
123,266,164345,2,0,P|147:298|217:312,1,80.9999975280763,8|0,0:0|0:0,0:0:0:0:
339,322,164559,6,0,B|312:291|271:285|271:285|251:308|221:327|136:305,1,175.499991966248,6|0,0:0|0:0,0:0:0:0:
70,277,164988,2,0,B|96:261|120:264|120:264|139:299|166:312|204:317,1,135.000005149842,8|4,0:0|0:0,0:0:0:0:
202,227,165309,2,0,B|187:48,1,153.000002918243,6|0,0:0|0:0,0:0:0:40:soft-hitfinish5.wav
111,20,165630,2,0,P|92:66|100:105,1,76.5000014591217,2|0,0:0|0:0,0:0:0:0:
272,131,165845,2,0,P|288:51|248:-10,1,135.000005149842,8|0,0:0|0:0,0:0:0:0:
188,0,166166,1,8,0:0:0:0:
189,74,166273,38,0,B|165:112|180:152|180:152|217:182,1,116.999994644165,6|4,0:0|0:0,0:0:0:0:
233,256,166594,1,0,0:0:0:0:
180,314,166702,2,0,P|152:333|109:338,2,67.5000025749208,12|0|0,0:0|0:0|0:0,0:0:0:40:soft-hitfinish4.wav
314,268,167023,2,0,B|351:239|407:263|407:263|434:321,1,144,2|0,0:0|0:0,0:0:0:0:
512,326,167345,2,0,L|483:235,1,72,2|0,0:0|0:0,0:0:0:0:
417,119,167559,2,0,B|404:73|404:73|529:98|529:98|484:148,1,229.500004377365,12|0,0:0|0:0,0:0:0:0:
417,119,167988,102,0,B|289:134|289:134|312:111|315:78,1,175.499991966248,6|0,0:0|0:0,0:0:0:0:
235,71,168416,2,0,B|160:64|160:64|118:67|104:98,1,135.000005149842,12|4,0:0|0:0,0:0:0:0:
105,275,168738,2,0,B|170:181|170:181|161:127,1,153.000002918243,2|0,0:0|0:0,0:0:0:0:
19,67,169059,2,0,L|48:150,1,67.5000025749208,6|0,0:0|0:0,0:0:0:0:
105,275,169273,53,12,0:0:0:0:
139,264,169380,1,0,0:0:0:0:
176,271,169488,1,0,0:0:0:0:
208,291,169595,1,0,0:0:0:0:
243,373,169702,6,0,P|285:334|248:212,1,175.499991966248,6|0,0:0|0:0,0:0:0:0:
253,101,170130,2,0,P|249:196|275:235,1,135.000005149842,12|0,0:0|0:0,0:0:0:0:soft-hitfinish2.wav
346,154,170452,2,0,B|454:146|454:146|412:173,1,135.000005149842,2|0,0:0|0:0,0:0:0:0:
177,222,170773,2,0,L|91:213,1,67.5000025749208,2|0,0:0|0:0,0:0:0:0:
67,122,170987,2,0,L|147:131,1,76.5000014591217,12|0,0:0|0:0,0:0:0:40:soft-hitfinish2.wav
109,37,171202,2,0,L|32:29,1,76.5000014591217,8|0,0:0|0:0,0:0:0:0:
222,128,171416,6,0,B|357:88|357:88|302:105|299:156,1,229.500004377365,6|0,0:0|0:0,0:0:0:0:
503,218,171845,2,0,P|404:214|377:137,1,161.999995056153,12|4,0:0|0:0,0:0:0:0:
457,0,172166,2,0,P|486:63|449:157,1,161.999995056153,2|0,0:0|0:0,0:0:0:0:
410,244,172487,2,0,P|388:226|384:153,1,90,2|0,0:0|0:0,0:0:0:0:
373,80,172702,54,0,L|306:71,1,67.5,8|0,0:0|0:0,0:0:0:0:
188,60,173130,5,2,0:0:0:0:
136,83,173559,1,0,0:0:0:0:
104,80,173988,1,0,0:0:0:0:
90,62,174416,1,0,0:0:0:0:
65,183,174845,101,2,0:0:0:0:
136,236,175273,1,0,0:0:0:0:
195,224,175488,1,0,0:0:0:0:
264,295,175916,1,0,0:0:0:0:
252,296,176131,1,0,0:0:0:0:
160,321,176559,5,2,0:0:0:0:
132,308,176988,1,0,0:0:0:0:
87,269,177416,1,0,0:0:0:0:
94,189,177845,1,0,0:0:0:0:
221,170,178273,101,0,0:0:0:0:
292,106,178702,1,0,0:0:0:0:
350,203,178916,5,0,0:0:0:0:
371,197,179023,1,0,0:0:0:0:
420,209,179130,1,2,0:0:0:0:
440,211,179988,101,2,0:0:0:0:
486,182,180416,1,0,0:0:0:0:
472,140,180845,1,0,0:0:0:0:
450,124,181273,1,0,0:0:0:0:
395,56,181702,5,2,0:0:0:0:
282,29,182130,1,0,0:0:0:0:
296,59,182345,1,0,0:0:0:0:
198,61,182773,1,0,0:0:0:0:
191,143,182988,1,0,0:0:0:0:
83,109,183416,101,2,0:0:0:0:
91,153,183845,1,0,0:0:0:0:
85,183,184273,1,0,0:0:0:0:
35,204,184702,1,0,0:0:0:0:
197,337,185130,5,0,0:0:0:0:
277,216,185559,1,0,0:0:0:0:
430,366,185773,2,0,P|449:365|475:358,1,45
