osu file format v14

[General]
AudioFilename: audio.mp3
AudioLeadIn: 0
PreviewTime: 68485
Countdown: 0
SampleSet: Soft
StackLeniency: 0.3
Mode: 0
LetterboxInBreaks: 0
EpilepsyWarning: 1
WidescreenStoryboard: 1

[Editor]
Bookmarks: 51257,111428,116057
DistanceSpacing: 1
BeatDivisor: 8
GridSize: 32
TimelineZoom: 2.5

[Metadata]
Title:AXION (Star*'s 2016 Remix Short Ver.)
TitleUnicode:AXION (Star*'s 2016 Remix Short Ver.)
Artist:sakuzyo
ArtistUnicode:削除
Creator:Suzuki_1112
Version:MiaoFUuU's Another
Source:BMS
Tags:Cytus C82 Wire Puller 2 wp2 MagicMashMan Magic Mash Man New Genuine Magicial Girl deadblue238 Chaos fantasia SoundCloud Deleted room Hardcore liaoxingyao 1112deng Regou Dynamix _MiaoFUuU_ Ryuusei Aika Yugu gary00737 Binguo Misaki-Mei
BeatmapID:1456278
BeatmapSetID:677186

[Difficulty]
HPDrainRate:6
CircleSize:4
OverallDifficulty:8
ApproachRate:9.3
SliderMultiplier:2
SliderTickRate:1

[Events]
//Background and Video events
0,0,"40701794_p0.jpg",0,0
//Break Periods
//Storyboard Layer 0 (Background)
//Storyboard Layer 1 (Fail)
//Storyboard Layer 2 (Pass)
//Storyboard Layer 3 (Foreground)
//Storyboard Sound Samples

[TimingPoints]
0,342.857142857143,4,2,1,70,1,0
1371,-125,4,2,1,70,0,0
12342,-200,4,1,1,30,0,0
15085,-200,4,1,1,40,0,0
15428,-133.333333333333,4,1,1,40,0,0
15771,-200,4,1,1,40,0,0
16114,-133.333333333333,4,1,1,40,0,0
16457,-200,4,1,1,40,0,0
16800,-133.333333333333,4,1,1,40,0,0
17142,-200,4,1,1,40,0,0
17485,-133.333333333333,4,1,1,40,0,0
17828,-133.333333333333,4,1,1,50,0,0
18171,-66.6666666666667,4,1,1,50,0,0
18514,-117.647058823529,4,1,1,50,0,0
18857,-62.5,4,1,1,50,0,0
19200,-105.263157894737,4,1,1,50,0,0
19542,-58.8235294117647,4,1,1,50,0,0
19885,-95.2380952380952,4,1,1,50,0,0
20227,-55.5555555555556,4,1,1,50,0,0
20571,-86.9565217391304,4,1,1,50,0,0
20913,-52.6315789473684,4,1,1,50,0,0
21257,-80,4,1,1,50,0,0
21599,-50,4,1,1,50,0,0
21942,-80,4,1,1,50,0,0
24685,-74.0740740740741,4,1,2,70,0,1
34800,-66.6666666666667,4,1,2,70,0,1
35314,-76.9230769230769,4,1,2,70,0,1
35485,-90.9090909090909,4,1,2,70,0,1
35657,-66.6666666666667,4,1,2,70,0,1
35914,-66.6666666666667,4,1,2,70,0,1
37200,-83.3333333333333,4,1,2,70,0,1
45942,-66.6666666666667,4,1,2,70,0,1
46285,-55.5555555555556,4,1,2,70,0,1
46628,-66.6666666666667,4,1,2,70,0,1
50142,-100,4,1,2,70,0,1
50400,-80,4,1,2,70,0,1
50742,-66.6666666666667,4,1,2,70,0,1
52114,-100,4,1,2,70,0,1
52542,-66.6666666666667,4,1,2,70,0,1
53485,-100,4,1,2,70,0,1
53914,-66.6666666666667,4,1,2,70,0,1
54857,-76.9230769230769,4,1,2,70,0,1
56571,-100,4,1,2,70,0,1
57428,-76.9230769230769,4,1,2,70,0,1
57600,-133.333333333333,4,1,2,70,0,0
57942,-133.333333333333,4,3,1,70,0,0
58885,-133.333333333333,4,3,1,5,0,0
58971,-133.333333333333,4,3,1,70,0,0
59228,-133.333333333333,4,3,1,5,0,0
59314,-133.333333333333,4,3,1,70,0,0
60257,-133.333333333333,4,3,1,5,0,0
60342,-133.333333333333,4,3,1,70,0,0
60600,-133.333333333333,4,3,1,5,0,0
60685,-133.333333333333,4,3,1,70,0,0
61971,-133.333333333333,4,3,1,5,0,0
62057,-133.333333333333,4,3,1,70,0,0
63085,-57.1428571428571,4,3,1,70,0,0
63257,-57.1428571428571,4,1,1,70,0,0
63428,-133.333333333333,4,3,1,70,0,0
64114,-57.1428571428571,4,3,1,70,0,0
64285,-57.1428571428571,4,1,1,70,0,0
64457,-100,4,3,1,70,0,0
64500,-100,4,1,1,70,0,0
64971,-83.3333333333333,4,3,1,70,0,0
65014,-83.3333333333333,4,1,1,70,0,0
65485,-71.4285714285714,4,3,1,70,0,0
65528,-71.4285714285714,4,1,1,70,0,0
65828,-62.5,4,3,1,70,0,0
65871,-62.5,4,1,1,70,0,0
66342,-55.5555555555556,4,3,1,70,0,0
66385,-55.5555555555556,4,1,1,70,0,0
66857,-50,4,3,1,70,0,0
66900,-50,4,1,1,70,0,0
67200,-50,4,3,1,70,0,0
67885,-133.333333333333,4,1,1,70,0,0
68571,-60.6060606060606,4,1,2,70,0,1
79457,-66.6666666666667,4,1,2,70,0,0
79542,-66.6666666666667,4,1,2,70,0,1
90514,-66.6666666666667,4,1,2,70,0,1
93257,-66.6666666666667,4,1,2,70,0,0
93600,-100,4,1,2,70,0,0
93942,-100,4,3,1,50,0,0
94457,-66.6666666666667,4,3,1,50,0,0
94971,-50,4,3,1,70,0,1
95657,-100,4,1,2,70,0,1
96000,-71.4285714285714,4,1,2,70,0,1
96685,-62.5,4,1,2,70,0,1
97371,-55.5555555555556,4,1,2,70,0,1
98057,-50,4,1,2,70,0,1
100114,-62.5,4,1,2,70,0,1
103371,-133.333333333333,4,1,2,30,0,0
106971,-133.333333333333,4,1,2,70,0,0
112457,-100,4,1,2,50,0,0
113314,-200,4,1,2,50,0,0
113828,-100,4,1,2,50,0,0
114685,-200,4,1,2,50,0,0
115200,-100,4,1,2,40,0,0
116571,-62.5,4,1,2,70,0,0

[Colours]
Combo1 : 128,128,192
Combo2 : 128,255,255
Combo3 : 255,255,128
Combo4 : 0,128,192

[HitObjects]
108,322,1371,5,4,0:0:0:0:
192,304,1542,1,2,0:0:0:0:
176,225,1714,1,0,0:0:0:0:
92,243,1885,1,2,0:0:0:0:
76,165,2228,5,0,0:0:0:0:
76,165,2400,1,0,0:0:0:0:
160,147,2571,1,2,0:0:0:0:
76,165,2742,5,0,0:0:0:0:
160,147,2914,1,2,0:0:0:0:
243,127,3085,1,0,0:0:0:0:
327,109,3257,1,2,0:0:0:0:
371,373,3600,5,2,0:0:0:0:
373,358,3771,1,2,0:0:0:0:
376,344,3942,1,2,0:0:0:0:
411,91,4114,5,0,0:0:0:0:
327,109,4285,1,2,0:0:0:0:
343,188,4457,1,0,0:0:0:0:
427,170,4628,1,2,0:0:0:0:
444,249,4971,5,0,0:0:0:0:
444,249,5143,1,0,0:0:0:0:
360,267,5314,1,2,0:0:0:0:
444,249,5485,5,0,0:0:0:0:
360,267,5657,1,2,0:0:0:0:
277,287,5828,1,0,0:0:0:0:
193,305,6000,1,0,0:0:0:0:
190,316,6342,1,0,0:0:0:0:
91,243,6857,6,0,P|85:281|103:317,1,80,0|2,0:0|0:0,0:0:0:0:
193,305,7200,2,0,L|176:221,1,80,0|2,0:0|0:0,0:0:0:0:
269,103,7714,5,0,0:0:0:0:
298,106,7885,1,0,0:0:0:0:
327,109,8057,1,2,0:0:0:0:
419,121,8228,6,0,P|435:83|430:42,1,80,0|2,0:0|0:0,0:0:0:0:
339,29,8571,2,0,L|327:108,1,80,0|2,0:0|0:0,0:0:0:0:
252,27,9085,5,2,0:0:0:0:
252,27,9257,2,0,P|234:62|239:101,1,80,2|2,0:0|0:0,0:0:0:0:
232,206,9600,6,0,P|279:204|310:181,1,80,0|2,0:0|0:0,0:0:0:0:
124,155,9942,2,0,P|88:136|49:141,1,80,0|2,0:0|0:0,0:0:0:0:
50,140,10457,6,0,P|51:100|73:67,1,80
73,67,10800,1,2,0:0:0:0:
71,224,10971,2,0,P|104:244|121:280,1,80,0|2,0:0|0:0,0:0:0:0:
122,281,11314,1,0,0:0:0:0:
141,158,11485,1,0,0:0:0:0:
141,158,11828,6,0,P|174:136|213:137,1,80
411,163,12342,6,0,L|312:180,1,100,6|2,1:0|0:0,0:0:0:0:
424,152,13028,2,0,L|326:169,1,100,2|2,0:0|0:0,0:0:0:0:
169,238,13714,6,0,L|268:255,1,100,2|2,1:0|0:0,0:0:0:0:
156,227,14400,2,0,L|254:244,1,100,2|2,0:0|0:0,0:0:0:0:
66,221,15085,6,0,L|62:162,1,50,2|0,0:0|0:0,0:0:0:0:
171,100,15428,2,0,P|207:90|243:98,1,75.0000028610231,8|0,0:0|0:0,0:0:0:0:
61,229,15771,6,0,L|58:171,1,50,2|0,0:0|0:0,0:0:0:0:
211,91,16114,2,0,P|248:100|275:125,1,75.0000028610231,8|0,0:0|0:0,0:0:0:0:
56,237,16457,6,0,L|53:179,1,50,2|0,0:0|0:0,0:0:0:0:
245,97,16800,2,0,P|273:123|284:158,1,75.0000028610231,8|0,0:0|0:0,0:0:0:0:
51,245,17142,6,0,L|48:187,1,50,2|0,0:0|0:0,0:0:0:0:
273,125,17485,2,0,P|284:161|276:197,1,75.0000028610231,8|0,0:0|0:0,0:0:0:0:
260,318,17828,6,0,L|305:321,1,37.5000014305115,2|0,0:0|0:0,0:0:0:0:
260,318,18000,2,0,L|305:321,1,37.5000014305115,2|0,0:0|0:0,0:0:0:0:
196,166,18171,2,0,B|154:201|154:201|175:310,1,150.000005722046,8|0,0:0|0:0,0:0:0:0:
273,125,18514,6,0,L|278:77,1,42.5000008106232,2|0,0:0|0:0,0:0:0:0:
273,125,18685,2,0,L|278:77,1,42.5000008106232,2|0,0:0|0:0,0:0:0:0:
463,4,18857,2,0,B|405:57|405:57|329:27,1,160,8|0,0:0|0:0,0:0:0:0:
495,90,19200,6,0,L|504:142,1,47.4999987316132,2|0,0:0|0:0,0:0:0:0:
495,90,19371,2,0,L|504:142,1,47.4999987316132,2|0,0:0|0:0,0:0:0:0:
387,324,19542,2,0,L|408:136,1,170.000003242493,8|0,0:0|0:0,0:0:0:0:
195,81,19885,6,0,L|115:90,1,52.4999983978272,2|0,0:0|0:0,0:0:0:0:
195,81,20057,2,0,L|115:90,1,52.4999983978272,2|0,0:0|0:0,0:0:0:0:
51,181,20228,2,0,P|142:173|178:258,1,179.999994506836,8|0,0:0|0:0,0:0:0:0:
374,202,20571,6,0,P|394:181|405:155,1,57.5000010967255,2|0,0:0|0:0,0:0:0:0:
374,202,20742,2,0,P|394:181|405:155,1,57.5000010967255,2|0,0:0|0:0,0:0:0:0:
299,115,20914,2,0,P|262:201|288:291,1,189.999994926453,8|0,0:0|0:0,0:0:0:0:
107,218,21257,6,0,P|100:187|107:157,1,62.5,2|0,0:0|0:0,0:0:0:0:
107,218,21428,2,0,P|100:187|107:157,1,62.5,2|0,0:0|0:0,0:0:0:0:
180,241,21600,2,0,B|127:231|94:277|94:277|61:319|3:309,1,200,8|0,0:0|0:0,0:0:0:0:
182,70,21942,6,0,L|151:29,1,31.25,2|0,0:0|0:0,0:0:0:0:
182,70,22028,2,0,L|151:29,1,31.25,2|0,0:0|0:0,0:0:0:0:
182,70,22114,2,0,L|151:29,1,31.25,2|0,0:0|0:0,0:0:0:0:
182,70,22200,2,0,L|151:29,1,31.25,2|0,0:0|0:0,0:0:0:0:
182,70,22285,2,0,L|151:29,1,31.25,2|0,0:0|0:0,0:0:0:0:
182,70,22371,2,0,L|151:29,1,31.25,2|0,0:0|0:0,0:0:0:0:
182,70,22457,2,0,L|151:29,1,31.25,2|0,0:0|0:0,0:0:0:0:
182,70,22543,2,0,L|151:29,1,31.25,2|0,0:0|0:0,0:0:0:0:
182,70,22628,2,0,L|151:29,1,31.25,2|0,0:0|0:0,0:0:0:0:
182,70,22714,2,0,L|151:29,1,31.25,2|0,0:0|0:0,0:0:0:0:
182,70,22800,2,0,L|151:29,1,31.25,2|0,0:0|0:0,0:0:0:0:
182,70,22886,2,0,L|151:29,1,31.25,2|0,0:0|0:0,0:0:0:0:
182,70,22971,2,0,L|151:29,1,31.25,2|0,0:0|0:0,0:0:0:0:
182,70,23057,2,0,L|151:29,1,31.25,2|0,0:0|0:0,0:0:0:0:
182,70,23143,2,0,L|151:29,1,31.25,2|0,0:0|0:0,0:0:0:0:
182,70,23229,2,0,L|151:29,1,31.25,2|0,0:0|0:0,0:0:0:0:
49,83,23314,5,2,0:0:0:0:
256,192,23400,12,0,24600,0:0:0:0:
265,115,24685,5,2,0:0:0:0:
265,115,24857,2,0,P|303:103|345:111,1,67.5000002574921,4|0,0:0|0:0,0:0:0:0:
297,316,25028,1,8,0:0:0:0:
297,316,25114,2,0,B|330:255|330:255|293:139,1,135.000000514984,4|0,0:0|0:0,0:0:0:0:
184,86,25371,6,0,P|199:55|228:39,2,67.5000002574921,6|0|0,0:0|0:0|0:0,0:0:0:0:
104,87,25628,2,0,P|98:54|106:22,2,67.5000002574921,4|8|0,0:0|0:0|0:0,0:0:0:0:
46,141,25885,2,0,P|18:122|0:95,1,67.5000002574921,4|0,0:0|0:0,0:0:0:0:
222,293,26057,6,0,L|288:304,1,67.5000002574921,2|0,0:0|0:0,0:0:0:0:
222,293,26228,2,0,L|214:360,1,67.5000002574921,4|0,0:0|0:0,0:0:0:0:
98,281,26400,1,8,0:0:0:0:
98,281,26485,2,0,B|133:277|151:245|151:245|169:214|207:211,1,135.000000514984,4|0,0:0|0:0,0:0:0:0:
330,126,26742,6,0,L|264:115,2,67.5000002574921,6|0|0,0:0|0:0|0:0,0:0:0:0:
416,97,27000,2,0,L|460:46,2,67.5000002574921,4|8|0,0:0|0:0|0:0,0:0:0:0:
402,185,27257,2,0,L|423:249,1,67.5000002574921,4|0,0:0|0:0,0:0:0:0:
343,31,27428,5,2,0:0:0:0:
130,93,27600,6,0,L|233:111,1,67.5000002574921,4|0,0:0|0:0,0:0:0:0:
330,126,27771,1,8,0:0:0:0:
330,126,27857,2,0,L|196:105,1,135.000000514984,4|0,0:0|0:0,0:0:0:0:
19,298,28114,6,0,B|8:267|29:233,2,67.5000002574921,6|0|0,0:0|0:0|0:0,0:0:0:0:
84,186,28371,2,0,B|119:173|149:189,2,67.5000002574921,4|8|0,0:0|0:0|0:0,0:0:0:0:
201,275,28628,2,0,P|194:242|176:215,1,67.5000002574921,4|0,0:0|0:0,0:0:0:0:
111,277,28800,5,2,0:0:0:0:
265,161,28971,1,4,0:0:0:0:
277,147,29057,2,0,L|343:157,1,67.5000002574921,0|8,0:0|0:0,0:0:0:0:
379,327,29228,1,4,0:0:0:0:
372,309,29314,2,0,L|460:298,1,67.5000002574921
424,111,29485,6,0,P|436:142|436:175,3,67.5000002574921,6|0|0|0,0:0|0:0|0:0|0:0,0:0:0:0:
497,105,29828,2,0,B|454:63|454:63|431:203,1,202.500000772476,12|0,0:0|0:0,0:0:0:0:
246,61,30171,5,2,0:0:0:0:
246,61,30342,2,0,L|157:75,1,67.5000002574921,4|0,0:0|0:0,0:0:0:0:
58,154,30514,1,8,0:0:0:0:
58,154,30600,2,0,B|94:134|94:134|149:147|149:147|175:202,1,135.000000514984,4|0,0:0|0:0,0:0:0:0:
265,210,30857,6,0,P|253:241|253:275,2,67.5000002574921,6|0|0,0:0|0:0|0:0,0:0:0:0:
167,298,31114,2,0,P|178:329|201:354,2,67.5000002574921,4|8|0,0:0|0:0|0:0,0:0:0:0:
386,211,31371,2,0,P|358:229|338:257,1,67.5000002574921,4|0,0:0|0:0,0:0:0:0:
420,290,31542,5,2,0:0:0:0:
420,290,31714,2,0,L|396:99,1,135.000000514984,4|8,0:0|0:0,0:0:0:0:
326,1,31971,2,0,L|315:166,1,135.000000514984,4|0,0:0|0:0,0:0:0:0:
188,199,32228,5,6,0:0:0:0:
425,41,32485,2,0,P|467:64|498:67,1,67.5000002574921,4|8,0:0|0:0,0:0:0:0:
215,9,32742,1,4,0:0:0:0:
187,198,32914,5,2,0:0:0:0:
130,132,33085,2,0,P|159:115|193:113,1,67.5000002574921,4|0,0:0|0:0,0:0:0:0:
310,195,33257,1,8,0:0:0:0:
310,195,33342,2,0,B|245:224|245:224|186:197,1,135.000000514984,4|0,0:0|0:0,0:0:0:0:
130,132,33600,6,0,L|152:56,2,67.5000002574921,6|0|0,0:0|0:0|0:0,0:0:0:0:
38,227,33857,2,0,L|54:324,2,67.5000002574921,4|8|0,0:0|0:0|0:0,0:0:0:0:
150,353,34114,1,4,0:0:0:0:
186,197,34285,6,0,B|241:199|267:158|267:158|275:218|332:236,1,202.500000772476,6|0,0:0|0:0,0:0:0:0:
352,153,34628,1,8,0:0:0:0:
422,313,34800,5,4,0:0:0:0:
368,321,34885,1,4,0:0:0:0:
316,327,34971,2,0,L|214:342,1,75.0000028610231,4|4,0:0|0:0,0:0:0:0:
30,247,35142,5,4,0:0:0:0:
71,253,35227,1,4,0:0:0:0:
114,259,35314,2,4,L|190:271,1,64.9999970245363,12|4,0:0|0:0,0:0:0:0:
316,64,35485,6,0,L|257:75,1,55.0000016784668,4|4,0:0|0:0,0:0:0:0:
162,175,35657,6,0,L|385:139,2,225.000008583069,6|4|4,0:0|0:0|0:0,0:0:0:0:
316,327,36342,5,2,0:0:0:0:
331,235,36514,1,0,0:0:0:0:
407,294,36685,5,8,0:0:0:0:
240,265,36857,1,0,0:0:0:0:
312,355,37028,5,2,0:0:0:0:
336,207,37200,1,0,0:0:0:0:
433,299,37371,5,8,0:0:0:0:
214,259,37542,1,4,0:0:0:0:
214,259,37628,1,4,0:0:0:0:
214,259,37714,6,0,B|176:213|176:213|186:152,1,119.999996337891,6|0,0:0|0:0,0:0:0:0:
185,153,37971,2,0,L|67:175,1,119.999996337891,4|0,0:0|0:0,0:0:0:0:
29,352,38228,1,4,0:0:0:0:
185,153,38400,6,0,B|223:199|223:199|213:260,1,119.999996337891,6|0,0:0|0:0,0:0:0:0:
214,259,38657,2,0,L|332:237,1,119.999996337891,4|0,0:0|0:0,0:0:0:0:
441,224,38914,1,4,0:0:0:0:
441,224,39085,2,0,L|508:212,1,59.9999981689454,2|0,0:0|0:0,0:0:0:0:
499,225,39257,6,0,L|435:235,1,59.9999981689454,4|0,0:0|0:0,0:0:0:0:
377,153,39428,2,0,P|401:135|434:130,1,59.9999981689454,12|0,0:0|0:0,0:0:0:0:
394,318,39600,2,0,P|424:321|448:337,1,59.9999981689454,4|0,0:0|0:0,0:0:0:0:
272,83,39771,5,6,0:0:0:0:
146,301,39942,1,4,0:0:0:0:
157,123,40114,6,0,B|197:130|197:130|221:158|221:158|263:166,1,119.999996337891,12|0,0:0|0:0,0:0:0:0:
373,135,40371,5,4,0:0:0:0:
377,153,40457,2,0,P|387:124|385:94,1,59.9999981689454,2|0,0:0|0:0,0:0:0:0:
263,166,40628,2,0,P|276:192|280:222,1,59.9999981689454,4|0,0:0|0:0,0:0:0:0:
394,252,40800,5,12,0:0:0:0:
152,211,40971,1,4,0:0:0:0:
263,166,41142,6,0,B|276:101|276:101|239:63,1,119.999996337891,6|4,0:0|0:0,0:0:0:0:
8,187,41485,2,0,L|82:168,1,59.9999981689454,8|0,0:0|0:0,0:0:0:0:
165,135,41657,5,0,0:0:0:0:
165,135,41742,1,4,0:0:0:0:
165,135,41828,2,0,L|139:279,1,119.999996337891,2|0,0:0|0:0,0:0:0:0:
80,88,42171,5,8,0:0:0:0:
280,249,42342,1,0,0:0:0:0:
172,102,42514,5,2,0:0:0:0:
163,287,42685,1,0,0:0:0:0:
263,76,42857,5,8,0:0:0:0:
77,282,43028,1,4,0:0:0:0:
77,282,43114,1,4,0:0:0:0:
77,282,43200,6,0,B|85:242|85:242|113:219|113:219|121:176,1,119.999996337891,6|0,0:0|0:0,0:0:0:0:
121,177,43457,2,0,L|-1:207,1,119.999996337891,4|0,0:0|0:0,0:0:0:0:
163,287,43714,1,4,0:0:0:0:
37,63,43885,6,0,L|23:121,1,59.9999981689454,6|0,0:0|0:0,0:0:0:0:
4,205,44057,2,0,L|18:143,1,59.9999981689454,4|0,0:0|0:0,0:0:0:0:
125,77,44228,6,0,B|126:108|153:128|153:128|126:145|120:179,1,119.999996337891,12|0,0:0|0:0,0:0:0:0:
208,195,44485,1,4,0:0:0:0:
198,193,44571,2,0,L|272:201,1,59.9999981689454,2|0,0:0|0:0,0:0:0:0:
239,60,44742,5,4,0:0:0:0:
249,59,44828,1,4,0:0:0:0:
262,58,44914,2,0,L|189:68,1,59.9999981689454,12|0,0:0|0:0,0:0:0:0:
120,176,45085,1,4,0:0:0:0:
343,132,45257,5,6,0:0:0:0:
367,157,45342,1,0,0:0:0:0:
400,172,45428,1,4,0:0:0:0:
436,174,45514,1,0,0:0:0:0:
471,160,45600,5,12,0:0:0:0:
395,161,45685,1,0,0:0:0:0:
347,217,45771,1,4,0:0:0:0:
299,273,45857,1,4,0:0:0:0:
227,284,45942,6,0,P|225:246|207:213,1,75.0000028610231,6|0,0:0|0:0,0:0:0:0:
207,141,46114,2,0,P|216:176|207:214,1,75.0000028610231,2|0,0:0|0:0,0:0:0:0:
127,349,46285,6,0,L|119:290,1,44.999998626709,6|0,0:0|0:0,0:0:0:0:
117,275,46371,2,0,L|111:230,1,44.999998626709,2|0,0:0|0:0,0:0:0:0:
108,202,46457,2,0,L|100:143,1,44.999998626709,6|0,0:0|0:0,0:0:0:0:
98,128,46543,2,0,L|92:83,1,44.999998626709,2|0,0:0|0:0,0:0:0:0:
86,37,46628,6,0,B|138:91|138:91|99:161,1,150.000005722046,6|0,0:0|0:0,0:0:0:0:
3,231,46885,2,0,P|19:198|24:159,1,75.0000028610231,4|8,0:0|0:0,0:0:0:0:
181,19,47142,6,0,B|266:36,1,75.0000028610231,4|0,0:0|0:0,0:0:0:0:
419,207,47314,6,0,L|270:185,1,150.000005722046,6|4,0:0|0:0,0:0:0:0:
300,107,47571,1,4,0:0:0:0:
300,107,47657,2,0,P|330:125|349:168,1,75.0000028610231,12|4,0:0|0:0,0:0:0:0:
419,207,47828,2,0,P|433:172|429:131,1,75.0000028610231,0|4,0:0|0:0,0:0:0:0:
270,185,48000,6,0,P|196:200|152:271,1,150.000005722046,2|4,0:0|0:0,0:0:0:0:
164,275,48257,1,4,0:0:0:0:
164,275,48342,2,0,P|168:238|159:202,1,75.0000028610231,12|4,0:0|0:0,0:0:0:0:
364,308,48514,1,4,0:0:0:0:
364,308,48600,1,4,0:0:0:0:
364,308,48685,6,0,P|374:273|399:242,1,75.0000028610231,6|0,0:0|0:0,0:0:0:0:
255,366,48857,1,0,0:0:0:0:
240,75,49028,6,0,B|288:28|288:28|268:196,1,225.000008583069,12|0,0:0|0:0,0:0:0:0:
94,198,49371,6,0,B|164:186|194:233|194:233|228:282|292:272,1,225.000008583069,6|0,0:0|0:0,0:0:0:0:
378,64,49714,5,12,0:0:0:0:
343,66,49799,1,4,0:0:0:0:
309,69,49885,1,4,0:0:0:0:
274,72,49971,1,4,0:0:0:0:
240,75,50057,5,6,0:0:0:0:
240,75,50142,2,0,L|263:13,1,50,4|0,0:0|0:0,0:0:0:0:
147,130,50400,1,12,0:0:0:0:
147,130,50485,2,0,L|155:191,1,62.5,4|0,0:0|0:0,0:0:0:0:
7,108,50742,5,6,0:0:0:0:
7,108,50828,2,0,B|55:114|55:114|78:103|78:103|99:121|99:121|146:129,1,150.000005722046,4|4,0:0|0:0,0:0:0:0:
301,152,51085,1,8,0:0:0:0:
446,252,51429,5,6,0:0:0:0:
446,252,51514,2,0,B|397:258|397:258|374:247|374:247|353:265|353:265|306:273,1,150.000005722046,4|4,0:0|0:0,0:0:0:0:
152,296,51771,1,8,0:0:0:0:
349,226,52114,6,0,L|445:251,1,100,6|4,0:0|0:0,0:0:0:0:
269,208,52457,5,12,0:0:0:0:
269,208,52542,2,0,L|235:380,1,150.000005722046,4|4,0:0|0:0,0:0:0:0:
239,355,52800,1,2,0:0:0:0:
43,162,52971,5,4,0:0:0:0:
191,191,53142,1,12,0:0:0:0:
191,191,53228,2,0,L|25:159,1,150.000005722046,4|0,0:0|0:0,0:0:0:0:
43,162,53485,6,0,P|76:200|88:248,1,100,6|4,0:0|0:0,0:0:0:0:
298,60,53828,5,12,0:0:0:0:
298,60,53914,2,0,L|264:232,1,150.000005722046,4|4,0:0|0:0,0:0:0:0:
274,243,54171,5,4,0:0:0:0:
299,267,54256,1,4,0:0:0:0:
335,270,54342,1,4,0:0:0:0:
364,248,54428,1,4,0:0:0:0:
372,214,54513,1,4,0:0:0:0:
357,182,54599,1,4,0:0:0:0:
323,167,54685,1,4,0:0:0:0:
289,177,54770,1,4,0:0:0:0:
268,207,54857,6,0,P|238:219|206:220,3,64.9999970245363,6|4|0|0,0:0|0:0|0:0|0:0,0:0:0:0:
156,116,55200,6,0,L|236:142,1,64.9999970245363,12|4,0:0|0:0,0:0:0:0:
274,243,55371,1,4,0:0:0:0:
276,286,55457,1,4,0:0:0:0:
261,327,55542,1,6,0:0:0:0:
229,356,55628,1,4,0:0:0:0:
186,371,55714,1,4,0:0:0:0:
144,365,55800,1,4,0:0:0:0:
105,342,55885,1,12,0:0:0:0:
82,305,55971,1,4,0:0:0:0:
77,262,56057,1,4,0:0:0:0:
89,220,56142,1,4,0:0:0:0:
117,189,56228,5,6,0:0:0:0:
118,168,56313,1,4,0:0:0:0:
112,147,56400,1,4,0:0:0:0:
101,130,56485,1,0,0:0:0:0:
88,118,56571,2,0,L|16:137,3,50,8|0|4|4,0:0|0:0|0:0|0:0,0:0:0:0:
0,276,56914,5,6,0:0:0:0:
173,85,57085,1,2,0:0:0:0:
309,219,57257,1,10,0:0:0:0:
309,219,57342,1,2,0:0:0:0:
309,219,57428,2,0,L|294:306,1,64.9999970245363,2|2,0:0|0:0,0:0:0:0:
166,185,57600,5,2,0:0:0:0:
439,244,57942,5,8,0:0:0:0:
340,127,58114,2,0,B|323:93|323:93|332:58,1,75.0000028610231,2|0,0:0|0:0,0:0:0:0:
210,261,58457,5,8,0:0:0:0:
350,142,58628,2,0,B|364:85|364:85|333:40,1,112.500004291535,2|0,0:0|0:0,0:0:0:0:
333,40,58971,6,0,L|463:58,1,112.500004291535
464,59,59314,5,8,0:0:0:0:
350,142,59485,2,0,L|244:162,1,75.0000028610231,2|0,0:0|0:0,0:0:0:0:
164,130,59828,5,8,0:0:0:0:
385,178,60000,2,0,L|276:155,1,112.500004291535,2|0,0:0|0:0,0:0:0:0:
274,154,60342,6,0,L|300:290,1,112.500004291535
302,307,60685,5,8,0:0:0:0:
203,202,60857,2,0,P|168:219|132:224,1,75.0000028610231,2|0,0:0|0:0,0:0:0:0:
34,281,61200,5,8,0:0:0:0:
203,202,61371,2,0,L|60:213,1,112.500004291535,2|0,0:0|0:0,0:0:0:0:
142,131,61714,6,0,B|167:21,1,112.500004291535
163,27,62057,6,0,L|222:88,1,75.0000028610231,8|2,0:0|0:0,0:0:0:0:
400,122,62400,5,2,0:2:0:0:
415,119,62485,1,2,0:2:0:0:
431,117,62571,1,2,0:2:0:0:
447,116,62657,1,2,0:2:0:0:
463,114,62742,2,0,L|525:106,2,50.0000019073487,2|2|2,0:2|0:2|0:2,0:2:0:0:
400,122,63085,6,0,B|428:114|428:114|305:104|305:104|328:117,1,175.00000166893,6|0,0:0|0:0,0:0:0:0:
272,260,63428,5,2,0:2:0:0:
272,260,63771,1,2,0:2:0:0:
272,260,64114,2,0,B|297:264|297:264|175:288|175:288|196:273,1,175.00000166893,6|0,0:0|0:0,0:0:0:0:
25,254,64457,6,0,B|5:269,2,25,6|0|0,0:0|0:0|0:0,0:0:0:0:
95,91,64800,5,2,0:2:0:0:
95,91,64971,2,0,L|90:62,2,29.9999990844727,6|0|0,0:0|0:0|0:0,0:0:0:0:
201,237,65485,6,0,L|235:249,2,34.9999989318848,6|0|0,0:0|0:0|0:0,0:0:0:0:
479,240,65828,6,0,L|435:256,2,40,6|0|0,0:0|0:0|0:0,0:0:0:0:
337,351,66171,5,2,0:2:0:0:
337,351,66342,2,0,L|338:304,2,44.999998626709,6|0|0,0:0|0:0|0:0,0:0:0:0:
343,17,66857,6,0,L|342:73,2,50,6|0|0,0:0|0:0|0:0,0:0:0:0:
341,190,67200,5,6,0:0:0:0:
285,201,67885,6,0,L|412:176,2,112.500004291535,2|2|2,0:2|0:2|0:2,0:2:0:0:
395,179,68571,6,0,B|369:304|369:304|361:267,1,165.000001573563,6|0,0:0|0:0,0:0:0:0:
222,81,68828,1,4,0:0:0:0:
222,81,68914,2,0,P|259:98|299:104,1,82.5000007867813,8|0,0:0|0:0,0:0:0:0:
30,266,69085,1,4,0:0:0:0:
285,201,69257,6,0,L|65:189,1,165.000001573563,6|0,0:0|0:0,0:0:0:0:
116,180,69514,5,0,0:0:0:0:
113,166,69600,2,0,L|125:257,1,82.5000007867813,8|0,0:0|0:0,0:0:0:0:
234,313,69771,1,4,0:0:0:0:
256,34,69942,6,0,B|311:10|311:10|267:141,1,165.000001573563,6|0,0:0|0:0,0:0:0:0:
285,201,70200,1,4,0:0:0:0:
285,201,70285,2,0,P|244:199|209:178,1,82.5000007867813,8|0,0:0|0:0,0:0:0:0:
40,250,70457,1,4,0:0:0:0:
183,90,70628,6,0,P|151:107|102:107,1,82.5000007867813,2|0,0:0|0:0,0:0:0:0:
113,93,70800,2,0,B|325:114,1,165.000001573563,4|8,0:0|0:0,0:0:0:0:
496,129,71057,1,4,0:0:0:0:
270,124,71314,6,0,B|319:68|306:-12|306:-12|316:41|371:64,1,247.500002360344,6|4,0:0|0:0,0:0:0:0:
368,62,71657,1,8,0:0:0:0:
212,294,71828,5,4,0:0:0:0:
212,294,71914,1,0,0:0:0:0:
212,294,72000,2,0,B|205:251|205:251|225:218,1,82.5000007867813,6|0,0:0|0:0,0:0:0:0:
411,245,72171,2,0,B|401:205|401:205|369:179,1,82.5000007867813
270,124,72342,6,0,L|26:161,1,247.500002360344,12|0,0:0|0:0,0:0:0:0:
27,174,72685,6,0,P|61:152|82:117,1,82.5000007867813,6|0,0:0|0:0,0:0:0:0:
237,54,72857,1,0,0:0:0:0:
41,277,73028,1,8,0:0:0:0:
95,34,73200,6,0,B|144:44|157:83|157:83|169:123|215:134,1,165.000001573563,4|2,0:0|0:0,0:0:0:0:
367,258,73457,1,0,0:0:0:0:
368,238,73542,2,0,L|377:146,1,82.5000007867813
237,54,73714,6,0,B|188:64|175:103|175:103|163:143|117:154,1,165.000001573563,12|0,0:0|0:0,0:0:0:0:
265,248,74057,5,6,0:0:0:0:
23,60,74314,1,4,0:0:0:0:
23,60,74400,2,0,B|58:79|58:79|100:72,1,82.5000007867813,8|0,0:0|0:0,0:0:0:0:
14,344,74571,1,4,0:0:0:0:
116,154,74742,6,0,B|159:182|159:182|138:300,1,165.000001573563,2|0,0:0|0:0,0:0:0:0:
303,356,75000,1,0,0:0:0:0:
303,355,75085,2,0,L|296:246,1,82.5000007867813,8|0,0:0|0:0,0:0:0:0:
78,245,75257,1,4,0:0:0:0:
153,220,75342,1,4,0:0:0:0:
228,195,75428,6,0,L|201:361,1,165.000001573563,6|0,0:0|0:0,0:0:0:0:
14,344,75685,2,0,B|-6:308|-6:308|2:267,1,82.5000007867813,4|8,0:0|0:0,0:0:0:0:
178,56,75942,6,0,B|289:31|289:31|264:47|254:67,1,165.000001573563,4|2,0:0|0:0,0:0:0:0:
489,186,76285,1,0,0:0:0:0:
489,186,76457,2,0,B|440:177|440:177|416:157|416:157|387:166|387:166|334:157,1,165.000001573563,12|0,0:0|0:0,0:0:0:0:
321,174,76714,1,0,0:0:0:0:
310,188,76800,6,0,L|338:82,1,82.5000007867813,6|0,0:0|0:0,0:0:0:0:
163,254,76971,1,0,0:0:0:0:
479,68,77142,6,0,L|390:59,1,82.5000007867813,8|4,0:0|0:0,0:0:0:0:
252,51,77313,1,4,0:0:0:0:
253,59,77399,1,4,0:0:0:0:
254,67,77485,1,6,0:0:0:0:
162,58,77657,5,0,0:0:0:0:
160,74,77742,1,4,0:0:0:0:
158,90,77828,1,8,0:0:0:0:
88,186,78000,6,0,L|9:209,1,82.5000007867813,4|0,0:0|0:0,0:0:0:0:
98,7,78171,5,6,0:0:0:0:
280,107,78342,1,0,0:0:0:0:
98,7,78514,5,8,0:0:0:0:
1,288,78685,1,0,0:0:0:0:
280,107,78857,6,0,B|159:90|159:90|195:113,1,165.000001573563,6|0,0:0|0:0,0:0:0:0:
148,85,79114,1,0,0:0:0:0:
136,82,79200,2,0,L|155:175,1,82.5000007867813,8|0,0:0|0:0,0:0:0:0:
8,209,79371,1,2,0:0:0:0:
205,384,79542,6,0,L|221:224,1,150.000005722046,6|0,0:0|0:0,0:0:0:0:
224,217,79800,1,4,0:0:0:0:
224,217,79885,2,0,P|193:244|155:253,1,75.0000028610231,8|0,0:0|0:0,0:0:0:0:
70,359,80057,1,4,0:0:0:0:
195,113,80228,6,0,L|345:128,1,150.000005722046,6|0,0:0|0:0,0:0:0:0:
355,142,80485,1,0,0:0:0:0:
366,155,80571,2,0,P|370:117|360:82,1,75.0000028610231,8|0,0:0|0:0,0:0:0:0:
87,203,80742,1,4,0:0:0:0:
359,82,80914,6,0,P|343:154|367:224,1,150.000005722046,6|0,0:0|0:0,0:0:0:0:
417,291,81171,1,4,0:0:0:0:
417,291,81257,2,0,P|439:260|447:224,1,75.0000028610231,8|0,0:0|0:0,0:0:0:0:
273,11,81428,1,4,0:0:0:0:
144,222,81600,6,0,P|177:206|214:209,1,75.0000028610231,2|0,0:0|0:0,0:0:0:0:
225,218,81771,2,0,P|160:183|87:196,1,150.000005722046,4|8,0:0|0:0,0:0:0:0:
19,246,82028,1,4,0:0:0:0:
19,246,82114,1,0,0:0:0:0:
326,53,82285,6,0,B|272:10|272:10|308:166,1,225.000008583069,6|4,0:0|0:0,0:0:0:0:
308,162,82628,1,8,0:0:0:0:
192,290,82800,5,4,0:0:0:0:
192,290,82885,1,0,0:0:0:0:
192,290,82971,2,0,P|235:287|277:305,1,75.0000028610231,6|0,0:0|0:0,0:0:0:0:
456,246,83142,2,0,P|416:261|387:296,1,75.0000028610231
308,162,83314,5,12,0:0:0:0:
341,375,83485,1,0,0:0:0:0:
169,207,83657,6,0,B|125:216|111:252|111:252|96:288|57:297,1,150.000005722046,6|0,0:0|0:0,0:0:0:0:
53,290,83914,1,0,0:0:0:0:
49,283,84000,2,0,L|34:209,1,75.0000028610231,8|0,0:0|0:0,0:0:0:0:
302,212,84171,6,0,B|257:204|242:169|242:169|226:133|187:125,1,150.000005722046,4|2,0:0|0:0,0:0:0:0:
312,118,84428,1,0,0:0:0:0:
310,137,84514,2,0,L|300:220,1,75.0000028610231
168,207,84685,5,12,0:0:0:0:
440,86,84857,1,0,0:0:0:0:
509,275,85028,5,6,0:0:0:0:
396,156,85285,1,4,0:0:0:0:
396,156,85371,2,0,P|431:169|468:165,1,75.0000028610231,8|0,0:0|0:0,0:0:0:0:
347,351,85542,1,4,0:0:0:0:
440,86,85714,6,0,B|251:132,1,150.000005722046,2|0,0:0|0:0,0:0:0:0:
185,77,85971,1,0,0:0:0:0:
185,77,86057,2,0,L|205:153,1,75.0000028610231,8|0,0:0|0:0,0:0:0:0:
346,218,86228,5,4,0:0:0:0:
267,234,86314,1,4,0:0:0:0:
189,249,86400,2,0,L|213:87,1,150.000005722046,6|0,0:0|0:0,0:0:0:0:
285,15,86657,2,0,P|320:26|357:22,1,75.0000028610231,4|8,0:0|0:0,0:0:0:0:
464,234,86914,6,0,L|439:81,1,150.000005722046,4|2,0:0|0:0,0:0:0:0:
66,89,87257,1,0,0:0:0:0:
66,89,87428,2,0,B|109:92|109:92|137:107|137:107|167:96|167:96|209:100,1,150.000005722046,12|0,0:0|0:0,0:0:0:0:
263,176,87685,1,0,0:0:0:0:
263,176,87771,6,0,L|188:180,1,75.0000028610231,6|0,0:0|0:0,0:0:0:0:
145,22,87942,1,0,0:0:0:0:
27,194,88114,6,0,L|117:188,1,75.0000028610231,8|4,0:0|0:0,0:0:0:0:
209,100,88285,1,4,0:0:0:0:
211,89,88370,1,4,0:0:0:0:
212,78,88456,1,6,0:0:0:0:
327,101,88628,5,0,0:0:0:0:
323,78,88713,1,4,0:0:0:0:
321,56,88799,1,8,0:0:0:0:
393,209,88971,6,0,L|468:218,1,75.0000028610231,4|0,0:0|0:0,0:0:0:0:
261,265,89142,5,6,0:0:0:0:
474,136,89314,1,0,0:0:0:0:
263,176,89485,5,8,0:0:0:0:
477,306,89657,1,0,0:0:0:0:
380,121,89828,6,0,L|395:36,1,75.0000028610231,6|0,0:0|0:0,0:0:0:0:
348,309,90000,2,0,L|335:382,1,75.0000028610231,2|0,0:0|0:0,0:0:0:0:
115,147,90171,6,0,L|116:107,1,37.5000014305115,8|0,0:0|0:0,0:0:0:0:
115,147,90257,2,0,L|88:118,1,37.5000014305115,2|0,0:0|0:0,0:0:0:0:
115,147,90342,2,0,L|75:145,1,37.5000014305115,2|0,0:0|0:0,0:0:0:0:
115,147,90428,2,0,L|86:173,1,37.5000014305115,2|0,0:0|0:0,0:0:0:0:
115,147,90514,6,0,B|311:185,1,150.000005722046,6|0,0:0|0:0,0:0:0:0:
281,180,90771,1,4,0:0:0:0:
281,180,90857,2,0,P|262:147|259:109,1,75.0000028610231,8|0,0:0|0:0,0:0:0:0:
127,13,91028,1,4,0:0:0:0:
0,274,91200,6,0,L|33:127,1,150.000005722046,6|0,0:0|0:0,0:0:0:0:
109,109,91457,1,0,0:0:0:0:
109,109,91542,2,0,L|183:94,1,75.0000028610231,8|0,0:0|0:0,0:0:0:0:
429,230,91714,1,4,0:0:0:0:
348,119,91885,6,0,B|300:141|300:141|280:182|280:182|232:207,1,150.000005722046,6|0,0:0|0:0,0:0:0:0:
126,270,92142,1,4,0:0:0:0:
126,270,92228,2,0,P|141:236|147:199,1,75.0000028610231,8|0,0:0|0:0,0:0:0:0:
228,317,92400,1,4,0:0:0:0:
209,137,92571,6,0,P|229:167|234:204,1,75.0000028610231,2|0,0:0|0:0,0:0:0:0:
347,283,92742,2,0,P|331:209|306:107,1,150.000005722046,4|8,0:0|0:0,0:0:0:0:
109,109,93000,1,4,0:0:0:0:
376,53,93257,5,6,0:0:0:0:
383,53,93342,1,2,0:0:0:0:
389,54,93428,1,2,0:0:0:0:
398,55,93514,1,2,0:0:0:0:
433,58,93599,5,6,0:0:0:0:
206,52,93942,6,0,B|252:35|252:35|298:52,1,100,6|0,0:0|0:0,0:0:0:0:
299,53,94200,2,0,B|252:69|252:69|205:51,1,100,6|0,0:0|0:0,0:0:0:0:
187,104,94457,6,0,B|253:69|253:69|320:103,1,150.000005722046,6|0,0:0|0:0,0:0:0:0:
320,103,94714,2,0,B|254:138|254:138|186:103,1,150.000005722046,6|0,0:0|0:0,0:0:0:0:
172,193,94971,6,0,B|255:138|255:138|340:192,1,200,6|0,0:0|0:0,0:0:0:0:
339,191,95228,2,0,B|256:246|256:246|171:192,1,200,6|0,0:0|0:0,0:0:0:0:
418,141,95485,6,0,L|413:261,1,100,6|0,0:0|0:0,0:0:0:0:
420,249,95657,2,0,L|486:239,2,66.6666666666667,6|4|4,0:0|0:0|0:0,0:0:0:0:
178,122,96000,6,0,L|171:192,1,69.9999978637696,6|0,0:0|0:0,0:0:0:0:
92,198,96171,2,0,L|100:128,1,69.9999978637696,2|0,0:0|0:0,0:0:0:0:
22,133,96342,2,0,L|14:203,1,69.9999978637696,12|0,0:0|0:0,0:0:0:0:
265,113,96514,1,2,0:0:0:0:
258,193,96685,6,0,L|266:110,1,80,6|0,0:0|0:0,0:0:0:0:
346,105,96856,2,0,L|339:185,1,80,2|0,0:0|0:0,0:0:0:0:
419,177,97028,2,0,L|427:92,1,80,12|0,0:0|0:0,0:0:0:0:
508,85,97200,1,2,0:0:0:0:
508,85,97285,1,2,0:0:0:0:
508,85,97371,6,0,B|499:180,1,89.9999972534181,6|0,0:0|0:0,0:0:0:0:
335,190,97542,2,0,L|345:80,1,89.9999972534181,2|0,0:0|0:0,0:0:0:0:
423,93,97714,2,0,L|411:209,1,89.9999972534181,12|0,0:0|0:0,0:0:0:0:
253,196,97885,1,2,0:0:0:0:
185,105,98057,6,0,L|173:204,1,100,6|0,0:0|0:0,0:0:0:0:
253,196,98228,2,0,L|264:97,1,100,6|0,0:0|0:0,0:0:0:0:
26,119,98400,2,2,L|13:221,1,100,12|0,0:0|0:0,0:0:0:0:
94,210,98571,2,0,L|105:110,1,100,2|2,0:0|0:0,0:0:0:0:
298,21,98742,5,6,0:0:0:0:
350,2,98827,1,2,0:0:0:0:
400,20,98913,1,2,0:0:0:0:
431,63,98999,1,2,0:0:0:0:
427,118,99084,5,14,0:0:0:0:
391,159,99170,1,2,0:0:0:0:
340,169,99256,1,2,0:0:0:0:
289,145,99342,1,2,0:0:0:0:
264,96,99428,5,6,0:0:0:0:
215,66,99513,1,2,0:0:0:0:
157,66,99599,1,2,0:0:0:0:
108,98,99685,1,2,0:0:0:0:
82,151,99771,5,14,0:0:0:0:
88,162,99856,1,2,0:0:0:0:
94,173,99942,1,2,0:0:0:0:
99,185,100028,1,2,0:0:0:0:
102,198,100114,6,0,L|185:181,1,80,6|2,0:0|0:0,0:0:0:0:
363,246,100285,2,0,L|405:230,1,40,2|0,0:0|0:0,0:0:0:0:
363,246,100371,2,0,B|361:250|400:285,1,40,2|0,0:0|0:0,0:0:0:0:
363,246,100457,6,0,L|260:230,1,80,6|2,0:0|0:0,0:0:0:0:
105,279,100628,2,0,P|75:258|66:235,1,40,2|0,0:0|0:0,0:0:0:0:
105,279,100714,2,0,B|105:280|76:278|55:293,1,40,2|0,0:0|0:0,0:0:0:0:
105,279,100800,6,0,P|132:292|163:350,3,80,6|6|6|6,0:0|0:0|0:0|0:0,0:0:0:0:
32,384,101142,1,6,0:0:0:0:
25,346,101227,1,6,0:0:0:0:
38,310,101313,1,6,0:0:0:0:
67,286,101399,1,6,0:0:0:0:
105,279,101484,5,6,0:0:0:0:
118,182,103371,6,0,P|99:178|69:177,2,37.5000014305115,4|4|4,0:0|0:0|0:0,0:0:0:0:
183,113,103714,5,4,0:0:0:0:
254,96,103885,1,4,0:0:0:0:
308,143,104056,1,4,0:0:0:0:
183,113,104228,5,4,0:0:0:0:
308,143,104914,1,4,0:0:0:0:
412,77,105600,1,4,0:0:0:0:
477,227,106285,5,4,0:0:0:0:
470,205,106370,1,4,0:0:0:0:
452,189,106456,1,4,0:0:0:0:
429,188,106542,1,4,0:0:0:0:
409,200,106627,1,4,0:0:0:0:
399,221,106713,1,4,0:0:0:0:
404,244,106799,1,4,0:0:0:0:
421,260,106885,1,4,0:0:0:0:
444,264,106971,6,0,L|339:274,1,75.0000028610231,6|0,0:0|0:0,0:0:0:0:
354,194,107314,2,0,L|428:187,1,75.0000028610231
282,250,107657,6,0,L|152:259,1,112.500004291535,8|0,0:0|0:0,0:0:0:0:
169,257,108000,6,0,L|192:133,1,112.500004291535,2|0,0:0|0:0,0:0:0:0:
95,102,108342,6,0,B|86:138|86:138|100:173,1,75.0000028610231,6|0,0:0|0:0,0:0:0:0:
267,198,108685,2,0,B|293:170|293:170|298:134,1,75.0000028610231
210,6,109028,6,0,L|71:24,1,112.500004291535,8|0,0:0|0:0,0:0:0:0:
98,20,109371,6,0,P|157:38|172:107,1,112.500004291535,2|0,0:0|0:0,0:0:0:0:
124,165,109714,6,0,P|98:135|102:80,1,75.0000028610231,6|0,0:0|0:0,0:0:0:0:
108,258,110057,2,0,P|86:287|85:324,1,75.0000028610231
204,230,110400,6,0,L|349:248,1,112.500004291535,8|0,0:0|0:0,0:0:0:0:
315,243,110742,6,0,L|300:383,1,112.500004291535,2|0,0:0|0:0,0:0:0:0:
400,283,111085,6,0,P|408:247|399:211,1,75.0000028610231,6|0,0:0|0:0,0:0:0:0:
290,144,111428,2,0,P|255:156|230:183,1,75.0000028610231
230,183,111771,6,0,L|241:59,1,112.500004291535,8|0,0:0|0:0,0:0:0:0:
243,35,112114,1,6,0:0:0:0:
69,225,112457,6,0,L|78:175,9,50,6|0|0|0|0|0|0|0|8|0,0:0|0:0|0:0|0:0|0:0|0:0|0:0|0:0|0:0|0:0,0:0:0:0:
189,223,113314,2,0,L|65:241,1,125,6|0,0:0|0:0,0:0:0:0:
193,205,113828,6,0,L|202:155,9,50,6|0|0|0|0|0|0|0|8|0,0:0|0:0|0:0|0:0|0:0|0:0|0:0|0:0|0:0|0:0,0:0:0:0:
312,205,114685,2,0,L|188:223,1,125,6|0,0:0|0:0,0:0:0:0:
418,190,115200,5,6,0:0:0:0:
418,190,116571,5,2,0:0:0:0:
418,190,116657,1,0,0:0:0:0:
418,190,116742,2,0,B|410:89,1,80
328,118,116914,1,2,0:0:0:0:
328,118,117000,1,0,0:0:0:0:
328,118,117085,2,0,B|336:218,1,80
195,174,117257,6,0,P|213:191|221:217,1,40,2|0,0:0|0:0,0:0:0:0:
195,174,117342,2,0,P|219:173|243:186,1,40,2|0,0:0|0:0,0:0:0:0:
195,174,117428,2,0,P|195:198|182:222,1,40,2|0,0:0|0:0,0:0:0:0:
195,174,117514,2,0,P|212:155|237:148,1,40,2|0,0:0|0:0,0:0:0:0:
195,174,117600,6,0,P|159:159|120:166,1,80,6|0,0:0|0:0,0:0:0:0:
73,225,117771,2,0,P|87:188|120:166,1,80,2|0,0:0|0:0,0:0:0:0:
257,297,117942,5,6,0:0:0:0:
