osu file format v14

[General]
AudioFilename: audio.mp3
AudioLeadIn: 0
PreviewTime: 68497
Countdown: 0
SampleSet: Soft
StackLeniency: 0.7
Mode: 0
LetterboxInBreaks: 0
EpilepsyWarning: 1
WidescreenStoryboard: 1

[Editor]
Bookmarks: 29240,51269,111440,116069
DistanceSpacing: 1.1
BeatDivisor: 4
GridSize: 4
TimelineZoom: 2.5

[Metadata]
Title:AXION (Star* Remix 2016 Update)
TitleUnicode:AXION (Star* Remix 2016 Update)
Artist:sakuzyo
ArtistUnicode:削除
Creator:Ryuusei Aika
Version:gary00737's Insane
Source:BMS
Tags:Cytus C82 Wire Puller 2 wp2 MagicMashMan Magic Mash Man New Genuine Magicial Girl deadblue238 Chaos fantasia SoundCloud Deleted room Hardcore liaoxingyao Suzuki_1112 1112deng Regou Dynamix _MiaoFUuU_ Yugu gary00737 Binguo Misaki-Mei
BeatmapID:2003513
BeatmapSetID:957007

[Difficulty]
HPDrainRate:6
CircleSize:3.5
OverallDifficulty:7.5
ApproachRate:9
SliderMultiplier:1.2
SliderTickRate:1

[Events]
//Background and Video events
0,0,"40701794_p0.jpg",0,0
//Break Periods
2,1582,10457
2,57812,62400
//Storyboard Layer 0 (Background)
//Storyboard Layer 1 (Fail)
//Storyboard Layer 2 (Pass)
//Storyboard Layer 3 (Foreground)
//Storyboard Sound Samples

[TimingPoints]
12,342.857142857143,4,2,1,40,1,0
12354,-100,4,1,1,30,0,0
12697,-100,4,1,1,30,0,0
15097,-100,4,1,1,40,0,0
17840,-100,4,1,1,50,0,0
18526,-100,4,1,1,50,0,0
19212,-100,4,1,1,50,0,0
19897,-100,4,1,1,50,0,0
20583,-100,4,1,1,50,0,0
21269,-100,4,1,1,50,0,0
23326,-100,4,2,1,70,0,0
24697,-83.3333333333333,4,1,1,70,0,0
56240,-71.4285714285714,4,1,1,70,0,0
56926,-83.3333333333333,4,1,1,70,0,0
57954,-83.3333333333333,4,3,1,70,0,0
67383,-83.3333333333333,4,2,1,70,0,0
68583,-71.4285714285714,4,1,1,70,0,1
93954,-71.4285714285714,4,1,1,50,0,1
94983,-71.4285714285714,4,1,1,50,0,1
95669,-71.4285714285714,4,1,1,50,0,1
96012,-71.4285714285714,4,1,1,70,0,1
101497,-100,4,2,1,70,0,0
104240,-125,4,2,1,70,0,0
105612,-200,4,2,1,70,0,0
106983,-100,4,1,1,70,0,0
112469,-100,4,1,1,50,0,0
115212,-100,4,1,1,40,0,0
116583,-83.3333333333333,4,2,1,70,0,0
116926,-71.4285714285714,4,2,1,70,0,0

[Colours]
Combo1 : 128,128,192
Combo2 : 128,255,255
Combo3 : 255,255,128
Combo4 : 0,128,192

[HitObjects]
168,259,354,6,0,L|172:239,24,15,0|0|0|0|0|0|0|0|0|0|0|0|0|0|0|0|0|0|0|0|0|0|0|0|4,0:0|0:0|0:0|0:0|0:0|0:0|0:0|0:0|0:0|0:0|0:0|0:0|0:0|0:0|0:0|0:0|0:0|0:0|0:0|0:0|0:0|0:0|0:0|0:0|0:0,0:0:0:0:
168,259,11326,6,0,L|172:239,24,15,0|0|0|0|0|0|0|0|0|0|0|0|0|0|0|0|0|0|0|0|2|0|0|0|6,0:0|0:0|0:0|0:0|0:0|0:0|0:0|0:0|0:0|0:0|0:0|0:0|0:0|0:0|0:0|0:0|0:0|0:0|0:0|0:0|0:0|0:0|0:0|0:0|0:0,0:0:0:0:
210,231,12697,1,2,0:0:0:0:
234,265,13040,1,2,0:0:0:0:
210,299,13383,1,2,0:0:0:0:
170,286,13726,1,2,0:0:0:0:
170,244,14069,1,2,0:0:0:0:
210,231,14412,1,2,0:0:0:0:
260,186,14754,1,2,0:0:0:0:
246,120,15097,5,2,0:0:0:0:
181,99,15440,1,8,0:0:0:0:
130,144,15783,1,2,0:0:0:0:
143,210,16126,1,8,0:0:0:0:
210,231,16469,1,2,0:0:0:0:
246,120,16812,1,8,0:0:0:0:
151,51,17154,1,2,0:0:0:0:
56,120,17497,1,8,0:0:0:0:
92,231,17840,6,0,L|166:223,1,60,2|2,0:0|0:0,0:0:0:0:
206,316,18183,2,0,L|132:308,1,60,10|2,0:0|0:0,0:0:0:0:
250,236,18526,2,0,L|324:228,1,60,2|2,0:0|0:0,0:0:0:0:
348,334,18869,2,0,L|274:326,1,60,8|2,0:0|0:0,0:0:0:0:
408,241,19212,2,0,L|482:233,1,60,2|2,0:0|0:0,0:0:0:0:
490,352,19554,2,0,L|416:344,1,60,10|2,0:0|0:0,0:0:0:0:
408,241,19897,5,2,0:0:0:0:
457,146,20069,1,2,0:0:0:0:
381,70,20240,1,10,0:0:0:0:
285,118,20412,1,2,0:0:0:0:
300,224,20583,5,2,0:0:0:0:
304,105,20754,1,2,0:0:0:0:
192,64,20926,1,10,0:0:0:0:
118,157,21097,1,2,0:0:0:0:
183,256,21269,5,2,0:0:0:0:
300,224,21440,1,2,0:0:0:0:
323,92,21612,1,8,0:0:0:0:
204,29,21783,1,2,0:0:0:0:
107,122,21954,6,0,L|115:170,7,30,2|2|2|2|10|2|2|2,0:0|0:0|0:0|0:0|0:0|0:0|0:0|0:0,0:0:0:0:
184,209,22640,2,0,L|176:257,8,30,2|2|2|2|10|2|2|2|2,0:0|0:0|0:0|0:0|0:0|0:0|0:0|0:0|0:0,0:0:0:0:
256,192,23412,12,0,24354,0:0:0:0:
196,155,24697,5,6,0:0:0:0:
307,202,24869,2,0,P|342:199|376:187,1,71.9999978027344,0|8,0:0|0:0,0:0:0:0:
414,165,25126,2,0,P|416:200|428:234,1,71.9999978027344,0|0,0:0|0:0,0:0:0:0:
451,271,25383,2,0,P|415:273|381:285,1,71.9999978027344,2|0,0:0|0:0,0:0:0:0:
345,308,25640,2,0,P|342:272|330:238,1,71.9999978027344,0|0,0:0|0:0,0:0:0:0:
307,202,25897,1,0,0:0:0:0:
253,289,26069,5,2,0:0:0:0:
184,183,26240,2,0,P|148:191|116:206,1,71.9999978027344,0|8,0:0|0:0,0:0:0:0:
84,237,26497,2,0,P|65:206|40:179,1,71.9999978027344,0|0,0:0|0:0,0:0:0:0:
1,158,26754,2,0,P|24:130|41:99,1,71.9999978027344,2|0,0:0|0:0,0:0:0:0:
50,54,27012,2,0,P|83:68|118:74,1,71.9999978027344,0|0,0:0|0:0,0:0:0:0:
164,68,27269,1,0,0:0:0:0:
281,17,27440,5,2,0:0:0:0:
374,119,27612,2,0,P|388:168|396:201,1,71.9999978027344,0|8,0:0|0:0,0:0:0:0:
406,230,27869,2,0,P|366:218|312:219,1,71.9999978027344,0|0,0:0|0:0,0:0:0:0:
262,243,28126,2,0,P|248:292|240:325,1,71.9999978027344,2|0,0:0|0:0,0:0:0:0:
225,222,28383,2,0,P|224:272|224:306,1,71.9999978027344,0|0,0:0|0:0,0:0:0:0:
183,211,28640,1,0,0:0:0:0:
39,222,28812,5,2,0:0:0:0:
87,347,28983,2,0,L|168:336,1,71.9999978027344,0|8,0:0|0:0,0:0:0:0:
223,293,29240,2,0,L|294:302,1,71.9999978027344,0|0,0:0|0:0,0:0:0:0:
357,350,29497,2,0,P|411:300|486:311,1,143.999995605469,2|8,0:0|0:0,0:0:0:0:
224,186,30183,5,2,0:0:0:0:
194,76,30354,2,0,P|190:27|196:-12,1,71.9999978027344,0|8,0:0|0:0,0:0:0:0:
240,89,30612,2,0,P|248:40|264:4,1,71.9999978027344,0|0,0:0|0:0,0:0:0:0:
289,89,30869,2,0,P|323:78|358:71,1,71.9999978027344,2|0,0:0|0:0,0:0:0:0:
435,78,31126,2,0,P|456:107|474:138,1,71.9999978027344,0|0,0:0|0:0,0:0:0:0:
491,214,31383,1,0,0:0:0:0:
437,378,31554,5,2,0:0:0:0:
326,253,31726,2,0,P|343:294|374:316,1,71.9999978027344,0|8,0:0|0:0,0:0:0:0:
250,295,31983,2,0,P|273:269|281:234,1,71.9999978027344,0|0,0:0|0:0,0:0:0:0:
325,339,32240,2,0,P|290:333|256:343,1,71.9999978027344,2|0,0:0|0:0,0:0:0:0:
173,313,32497,2,0,P|138:323|103:316,1,71.9999978027344,0|0,0:0|0:0,0:0:0:0:
25,358,32754,1,0,0:0:0:0:
137,234,32926,5,2,0:0:0:0:
76,73,33097,2,0,P|29:60|-8:60,1,71.9999978027344,0|8,0:0|0:0,0:0:0:0:
157,26,33354,2,0,P|110:39|73:39,1,71.9999978027344,0|0,0:0|0:0,0:0:0:0:
238,73,33612,2,0,P|191:60|154:60,1,71.9999978027344,2|0,0:0|0:0,0:0:0:0:
319,26,33869,2,0,P|272:39|235:39,1,71.9999978027344,0|0,0:0|0:0,0:0:0:0:
400,73,34126,1,0,0:0:0:0:
470,168,34297,5,2,0:0:0:0:
42,216,34640,1,8,0:0:0:0:
129,148,34812,1,0,0:0:0:0:
167,153,34897,1,0,0:0:0:0:
198,178,34983,1,2,0:0:0:0:
220,211,35069,1,0,0:0:0:0:
242,244,35154,1,0,0:0:0:0:
271,271,35240,1,0,0:0:0:0:
308,284,35326,1,8,0:0:0:0:
346,276,35412,1,0,0:0:0:0:
373,248,35497,5,0,0:0:0:0:
369,198,35583,1,0,0:0:0:0:
364,146,35669,1,6,0:0:0:0:
261,43,35840,1,0,0:0:0:0:
274,62,35926,2,0,L|171:55,1,71.9999978027344,0|0,0:0|0:0,0:0:0:0:
154,52,36183,1,0,0:0:0:0:
18,165,36354,5,2,0:0:0:0:
167,153,36526,1,0,0:0:0:0:
58,90,36697,5,8,0:0:0:0:
91,205,36869,1,0,0:0:0:0:
154,52,37040,5,2,0:0:0:0:
167,153,37212,1,0,0:0:0:0:
254,77,37383,5,8,0:0:0:0:
239,209,37554,1,0,0:0:0:0:
237,226,37640,1,0,0:0:0:0:
236,244,37726,1,2,0:0:0:0:
245,357,37897,1,0,0:0:0:0:
232,338,37983,2,0,L|335:345,1,71.9999978027344,0|0,0:0|0:0,0:0:0:0:
352,348,38240,1,0,0:0:0:0:
367,157,38412,5,2,0:0:0:0:
376,270,38583,1,0,0:0:0:0:
363,251,38669,2,0,L|466:258,1,71.9999978027344,0|0,0:0|0:0,0:0:0:0:
483,261,38926,1,0,0:0:0:0:
483,261,39269,1,0,0:0:0:0:
352,348,39440,1,8,0:0:0:0:
367,157,39612,1,0,0:0:0:0:
189,83,39783,5,2,0:0:0:0:
305,55,39954,1,0,0:0:0:0:
180,203,40126,1,8,0:0:0:0:
189,83,40297,1,0,0:0:0:0:
208,96,40383,2,0,L|201:-7,1,71.9999978027344,2|0,2:0|0:0,0:0:0:0:
201,0,40640,1,2,2:0:0:0:
196,320,40983,1,0,0:0:0:0:
196,320,41154,5,2,0:0:0:0:
290,248,41326,1,0,0:0:0:0:
180,203,41497,1,8,0:0:0:0:
216,90,41669,1,0,0:0:0:0:
229,109,41754,2,0,L|126:102,1,71.9999978027344,0|0,0:0|0:0,0:0:0:0:
119,100,42012,1,0,0:0:0:0:
35,262,42183,2,0,L|138:255,1,71.9999978027344,8|0,0:0|0:0,0:0:0:0:
251,207,42526,6,0,L|179:202,1,71.9999978027344,2|2,0:0|0:0,0:0:0:0:
12,359,42869,2,0,L|84:355,1,71.9999978027344,10|2,0:0|0:0,0:0:0:0:
159,321,43126,1,0,0:0:0:0:
159,321,43212,2,0,L|230:325,1,71.9999978027344,2|2,0:0|0:0,0:0:0:0:
305,362,43469,2,0,L|376:357,1,71.9999978027344,0|0,0:0|0:0,0:0:0:0:
459,350,43726,1,2,0:0:0:0:
404,249,43897,5,2,0:0:0:0:
459,148,44069,1,2,0:0:0:0:
404,47,44240,1,10,0:0:0:0:
290,68,44412,1,2,0:0:0:0:
309,81,44497,2,0,L|302:-22,1,71.9999978027344,0|0,0:0|0:0,0:0:0:0:
304,9,44754,1,2,0:0:0:0:
274,182,44926,1,10,0:0:0:0:
363,141,45097,1,2,0:0:0:0:
192,131,45269,6,0,P|179:170|190:229,2,71.9999978027344,2|2|10,0:0|0:0|0:0,0:0:0:0:
304,9,45783,2,0,L|297:54,1,35.9999989013672,2|0,0:0|0:0,0:0:0:0:
274,182,45954,1,2,0:0:0:0:
53,211,46297,5,2,0:0:0:0:
459,173,46640,5,6,0:0:0:0:
317,57,46812,1,0,0:0:0:0:
298,44,46897,2,0,L|305:147,1,71.9999978027344,0|0,0:0|0:0,0:0:0:0:
306,155,47154,1,0,0:0:0:0:
415,77,47326,1,2,0:0:0:0:
217,181,47497,1,0,0:0:0:0:
101,124,47669,1,8,0:0:0:0:
118,139,47754,2,0,L|46:143,1,71.9999978027344,0|2,0:0|2:0,0:0:0:0:
3,149,48012,5,0,0:0:0:0:
154,29,48183,2,0,L|189:31,1,35.9999989013672,2|0,2:0|0:0,0:0:0:0:
230,63,48354,2,0,L|265:60,1,35.9999989013672,8|0,0:0|0:0,0:0:0:0:
306,29,48526,2,0,L|341:31,1,35.9999989013672,0|0,0:0|0:0,0:0:0:0:
382,63,48697,1,2,0:0:0:0:
69,23,49040,5,8,0:0:0:0:
473,342,49383,6,0,P|405:355|355:307,1,143.999995605469,2|8,0:0|0:0,0:0:0:0:
321,232,49812,1,0,0:0:0:0:
321,232,49897,2,0,L|324:175,1,35.9999989013672,0|2,0:0|2:0,0:0:0:0:
274,299,50069,1,0,0:0:0:0:
274,299,50154,2,0,L|190:287,1,71.9999978027344,0|0,0:0|0:0,0:0:0:0:
162,308,50412,1,8,0:0:0:0:
131,191,50583,1,0,0:0:0:0:
40,340,50754,5,2,0:0:0:0:
21,353,50840,2,0,L|28:250,1,71.9999978027344,0|0,0:0|0:0,0:0:0:0:
23,237,51097,1,8,0:0:0:0:
151,331,51269,1,0,0:0:0:0:
242,182,51440,5,2,0:0:0:0:
261,169,51526,2,0,L|254:272,1,71.9999978027344,0|0,0:0|0:0,0:0:0:0:
251,284,51783,1,8,0:0:0:0:
131,191,51954,1,0,0:0:0:0:
251,284,52126,5,2,0:0:0:0:
267,121,52297,1,0,0:0:0:0:
347,262,52469,1,8,0:0:0:0:
334,243,52554,2,0,L|437:250,1,71.9999978027344,0|0,0:0|0:0,0:0:0:0:
449,253,52812,1,2,0:0:0:0:
324,340,52983,1,0,0:0:0:0:
242,182,53154,1,8,0:0:0:0:
261,169,53240,2,0,L|254:272,1,71.9999978027344,0|0,0:0|0:0,0:0:0:0:
251,284,53497,5,2,0:0:0:0:
273,73,53669,1,0,0:0:0:0:
79,128,53840,1,8,0:0:0:0:
98,115,53926,2,0,L|91:218,1,71.9999978027344,0|0,0:0|0:0,0:0:0:0:
81,206,54183,2,0,L|116:203,3,35.9999989013672,2|0|0|0,0:0|0:0|0:0|0:0,0:0:0:0:
188,164,54526,2,0,L|223:166,3,35.9999989013672,8|0|0|0,0:0|0:0|0:0|0:0,0:0:0:0:
296,203,54869,5,2,0:0:0:0:
296,203,55212,2,0,L|298:238,1,35.9999989013672,8|0,0:0|0:0,0:0:0:0:
386,168,55383,2,0,L|384:203,1,35.9999989013672,0|0,0:0|0:0,0:0:0:0:
463,80,55554,6,0,L|461:115,1,35.9999989013672,2|0,0:0|0:0,0:0:0:0:
373,45,55726,2,0,L|375:80,1,35.9999989013672
271,119,55897,6,0,L|269:84,1,35.9999989013672,8|0,0:0|0:0,0:0:0:0:
181,154,56069,2,0,L|183:119,1,35.9999989013672,0|0,0:0|0:0,0:0:0:0:
79,91,56240,6,0,B|86:114|31:146|26:27|97:28|142:82|127:113|27:154|79:251,1,251.999992309571,2|2,0:0|0:0,0:0:0:0:
70,227,56840,1,0,0:0:0:0:
70,227,56926,1,2,0:0:0:0:
137,326,57097,1,2,0:0:0:0:
279,254,57269,5,8,0:0:0:0:
311,230,57354,1,2,2:0:0:0:
298,193,57440,1,2,2:0:0:0:
259,193,57526,1,2,0:2:0:0:
246,230,57612,1,4,0:0:0:0:
256,192,63097,5,4,0:2:0:0:
256,113,64126,5,4,0:0:0:0:
256,271,64469,1,4,0:0:0:0:
256,271,64983,5,4,0:0:0:0:
256,271,65497,5,4,0:0:0:0:
256,113,65840,1,4,0:0:0:0:
256,113,66354,5,4,0:0:0:0:
256,113,66869,5,4,0:0:0:0:
256,271,67212,1,6,0:0:0:0:
314,243,68583,6,0,P|267:239|207:231,1,83.9999974365235,6|0,0:0|0:0,0:0:0:0:
154,199,68840,1,0,0:0:0:0:
123,171,68926,2,0,P|135:222|116:277,1,83.9999974365235,8|0,0:0|0:0,0:0:0:0:
40,142,69269,2,0,P|64:106|100:86,1,83.9999974365235,2|0,0:0|0:0,0:0:0:0:
129,252,69612,2,0,P|105:288|69:308,1,83.9999974365235,8|0,0:0|0:0,0:0:0:0:
123,171,69954,6,0,L|218:162,1,83.9999974365235,2|0,0:0|0:0,0:0:0:0:
271,110,70212,1,0,0:0:0:0:
312,113,70297,1,8,0:0:0:0:
415,229,70469,2,0,P|355:265|284:248,1,125.999996154785,0|0,0:0|0:0,0:0:0:0:
268,233,70812,1,0,0:0:0:0:
312,113,70983,1,8,0:0:0:0:
347,85,71069,2,0,L|339:168,1,83.9999974365235,0|0,0:0|0:0,0:0:0:0:
268,233,71326,6,0,L|173:224,1,83.9999974365235,2|0,0:0|0:0,0:0:0:0:
120,172,71583,1,0,0:0:0:0:
78,175,71669,1,8,0:0:0:0:
109,331,71840,1,0,0:0:0:0:
282,312,72012,2,0,P|320:293|343:258,1,83.9999974365235,2|0,0:0|0:0,0:0:0:0:
252,55,72354,2,0,P|214:73|191:108,1,83.9999974365235,8|0,0:0|0:0,0:0:0:0:
342,259,72697,6,0,L|425:251,1,83.9999974365235,2|0,0:0|0:0,0:0:0:0:
335,62,73040,1,8,0:0:0:0:
180,215,73212,2,0,L|263:207,1,83.9999974365235,0|2,0:0|0:0,0:0:0:0:
95,99,73554,1,0,0:0:0:0:
51,300,73726,2,0,L|134:292,1,83.9999974365235,8|0,0:0|0:0,0:0:0:0:
212,82,74069,5,2,0:0:0:0:
203,349,74326,1,0,0:0:0:0:
335,62,74583,1,0,0:0:0:0:
263,206,74754,2,0,L|180:198,1,83.9999974365235,2|0,0:0|0:0,0:0:0:0:
334,152,75097,2,0,P|350:190|348:231,1,83.9999974365235,8|0,0:0|0:0,0:0:0:0:
275,292,75354,1,0,0:0:0:0:
233,295,75440,6,0,L|150:287,1,83.9999974365235,2|0,0:0|0:0,0:0:0:0:
61,252,75697,1,0,0:0:0:0:
19,255,75783,1,8,0:0:0:0:
79,376,75954,2,0,L|162:368,1,83.9999974365235,0|2,0:0|0:0,0:0:0:0:
275,292,76297,1,0,0:0:0:0:
126,138,76469,2,0,L|43:146,1,83.9999974365235,8|0,0:0|0:0,0:0:0:0:
235,36,76812,6,0,L|318:44,1,83.9999974365235,2|0,0:0|0:0,0:0:0:0:
455,163,77154,2,0,L|413:159,1,41.9999987182618,8|0,0:0|0:0,0:0:0:0:
327,132,77326,1,0,0:0:0:0:
329,152,77412,1,0,0:0:0:0:
331,173,77497,1,2,0:0:0:0:
42,146,77754,1,0,0:0:0:0:
341,271,78012,1,0,0:0:0:0:
339,89,78183,6,0,L|331:172,1,83.9999974365235,2|0,0:0|0:0,0:0:0:0:
209,248,78526,2,0,L|201:165,1,83.9999974365235,8|0,0:0|0:0,0:0:0:0:
100,55,78869,2,0,L|92:138,1,83.9999974365235,2|2,0:0|0:0,0:0:0:0:
209,248,79212,6,0,L|205:206,1,41.9999987182618,10|2,0:0|0:0,0:0:0:0:
91,138,79383,2,0,L|87:179,1,41.9999987182618,2|2,0:0|0:0,0:0:0:0:
292,264,79554,6,0,L|284:181,1,83.9999974365235,6|0,0:0|0:0,0:0:0:0:
347,107,79812,1,0,0:0:0:0:
379,137,79897,2,0,L|371:220,1,83.9999974365235,8|0,0:0|0:0,0:0:0:0:
268,93,80240,2,0,P|285:55|319:31,1,83.9999974365235,2|0,0:0|0:0,0:0:0:0:
447,234,80583,2,0,P|429:271|395:295,1,83.9999974365235,8|0,0:0|0:0,0:0:0:0:
217,312,80926,6,0,L|134:304,1,83.9999974365235,2|0,0:0|0:0,0:0:0:0:
59,260,81183,1,0,0:0:0:0:
17,263,81269,1,8,0:0:0:0:
158,106,81440,2,0,P|217:89|272:119,1,125.999996154785,0|0,0:0|0:0,0:0:0:0:
281,157,81783,1,0,0:0:0:0:
232,285,81954,1,8,0:0:0:0:
200,255,82040,2,0,L|208:172,1,83.9999974365235
271,118,82297,6,0,L|354:110,1,83.9999974365235,2|0,0:0|0:0,0:0:0:0:
429,66,82554,1,0,0:0:0:0:
471,69,82640,1,8,0:0:0:0:
376,208,82812,1,0,0:0:0:0:
264,34,82983,2,0,L|347:26,1,83.9999974365235,2|0,0:0|0:0,0:0:0:0:
212,194,83326,2,0,L|295:202,1,83.9999974365235,8|0,0:0|0:0,0:0:0:0:
142,144,83669,6,0,P|127:202|140:241,1,83.9999974365235,2|0,0:0|0:0,0:0:0:0:
249,279,84012,1,8,0:0:0:0:
207,90,84183,2,0,P|158:61|107:66,1,83.9999974365235,0|2,0:0|0:0,0:0:0:0:
25,137,84526,1,0,0:0:0:0:
212,194,84697,2,0,L|295:186,1,83.9999974365235,8|0,0:0|0:0,0:0:0:0:
429,81,85040,5,2,0:0:0:0:
363,327,85297,1,0,0:0:0:0:
228,53,85554,1,0,0:0:0:0:
124,168,85726,2,0,L|207:160,1,83.9999974365235,2|0,0:0|0:0,0:0:0:0:
53,114,86069,2,0,P|37:152|39:193,1,83.9999974365235,8|0,0:0|0:0,0:0:0:0:
112,254,86326,1,0,0:0:0:0:
154,257,86412,6,0,L|237:249,1,83.9999974365235,2|0,0:0|0:0,0:0:0:0:
326,214,86669,1,0,0:0:0:0:
368,217,86754,1,8,0:0:0:0:
471,89,86926,2,0,L|388:97,1,83.9999974365235,0|2,0:0|0:0,0:0:0:0:
410,220,87269,1,0,0:0:0:0:
399,13,87440,2,0,L|316:21,1,83.9999974365235,8|0,0:0|0:0,0:0:0:0:
168,136,87783,6,0,L|251:144,1,83.9999974365235,2|0,0:0|0:0,0:0:0:0:
179,37,88126,2,0,L|137:41,1,41.9999987182618,8|0,0:0|0:0,0:0:0:0:
58,108,88297,1,0,0:0:0:0:
60,128,88383,1,0,0:0:0:0:
62,149,88469,1,2,0:0:0:0:
92,372,88726,1,0,0:0:0:0:
251,144,88983,1,0,0:0:0:0:
339,247,89154,5,2,0:0:0:0:
160,216,89497,1,8,0:0:0:0:
340,239,89840,5,2,0:0:0:0:
158,223,90012,1,2,0:0:0:0:
340,231,90183,6,0,L|286:240,1,41.9999987182618,10|2,0:0|0:0,0:0:0:0:
158,231,90354,2,0,L|212:222,1,41.9999987182618,2|2,0:0|0:0,0:0:0:0:
420,287,90526,6,0,P|436:228|389:144,2,125.999996154785,6|0|0,0:0|0:0|0:0,0:0:0:0:
288,353,91212,2,0,L|205:345,1,83.9999974365235,2|0,0:0|0:0,0:0:0:0:
76,224,91554,2,0,L|159:216,1,83.9999974365235,8|0,0:0|0:0,0:0:0:0:
248,181,91812,1,0,0:0:0:0:
290,184,91897,5,2,0:0:0:0:
107,332,92154,1,0,0:0:0:0:
89,58,92412,2,0,B|131:55|131:55|171:65|171:65|229:60,1,125.999996154785,0|0,0:0|0:0,0:0:0:0:
254,40,92754,1,0,0:0:0:0:
107,152,92926,1,8,0:0:0:0:
126,139,93012,2,0,L|119:242,1,83.9999974365235,0|0,0:0|0:0,0:0:0:0:
109,312,93269,6,0,L|67:309,4,41.9999987182618,6|2|6|2|6,0:0|0:0|0:0|0:0|0:0,0:0:0:0:
291,355,93954,5,4,0:3:0:0:
331,202,94212,5,4,0:3:0:0:
178,162,94469,5,4,0:3:0:0:
138,315,94726,5,4,0:3:0:0:
397,276,94983,5,4,0:3:0:0:
358,17,95240,5,4,0:3:0:0:
99,56,95497,5,4,0:3:0:0:
119,186,95669,6,0,L|174:182,2,55.9999982910157,2|2|2,3:0|2:0|2:0,0:0:0:0:
241,89,96012,5,6,0:0:0:0:
261,90,96183,1,2,0:0:0:0:
282,91,96354,1,10,0:0:0:0:
303,93,96526,1,2,0:0:0:0:
393,198,96697,5,2,0:0:0:0:
373,199,96869,1,2,0:0:0:0:
352,200,97040,1,10,0:0:0:0:
331,202,97212,2,0,L|289:204,1,41.9999987182618,2|2,0:0|0:0,0:0:0:0:
173,304,97383,5,6,0:0:0:0:
193,305,97554,1,2,0:0:0:0:
214,306,97726,1,10,0:0:0:0:
235,308,97897,1,2,0:0:0:0:
174,182,98069,5,2,0:0:0:0:
154,183,98240,1,2,0:0:0:0:
133,184,98412,1,10,0:0:0:0:
112,186,98583,2,0,L|70:188,1,41.9999987182618,2|0,0:0|0:0,0:0:0:0:
33,315,98754,6,0,L|75:313,3,41.9999987182618,6|0|2|0,0:0|0:0|0:0|0:0,0:0:0:0:
143,270,99097,2,0,L|185:272,3,41.9999987182618,10|0|2|0,0:0|0:0|0:0|0:0,0:0:0:0:
259,325,99440,2,0,L|301:323,3,41.9999987182618,6|2|2|0,0:0|0:0|0:0|0:0,0:0:0:0:
376,251,99783,2,0,L|418:253,3,41.9999987182618,10|0|2|0,0:0|0:0|0:0|0:0,0:0:0:0:
512,167,100126,6,0,L|470:169,1,41.9999987182618,6|0,0:0|0:0,0:0:0:0:
388,120,100297,6,0,L|392:100,4,20.9999993591309,2|2|2|2|14,0:0|0:0|0:0|0:0|0:0,0:0:0:0:
286,79,100640,6,0,L|282:59,4,20.9999993591309,2|2|2|2|6,0:0|0:0|0:0|0:0|0:0,0:0:0:0:
171,138,100983,6,0,L|175:118,4,20.9999993591309,2|2|2|2|14,0:0|0:0|0:0|0:0|0:0,0:0:0:0:
65,66,101326,6,0,L|61:46,4,20.9999993591309,2|2|2|2|6,0:0|0:0|0:0|0:0|0:0,0:0:0:0:
287,133,103383,6,0,L|283:96,2,30,2|2|2,0:0|0:0|0:0,0:0:0:0:
369,200,103726,2,0,L|436:192,2,60,0|2|0,0:0|0:0|0:0,0:0:0:0:
247,200,104240,6,0,B|226:192|213:165|213:165|193:233|122:237|87:203,1,192,2|2,0:0|0:0,0:0:0:0:
152,27,105612,6,0,P|142:92|138:160,1,120,2|0,0:0|0:0,0:0:0:0:
138,146,106983,6,0,P|195:120|263:138,2,120,6|2|8,0:0|0:0|0:0,0:0:0:0:
81,236,108012,1,2,0:0:0:0:
161,306,108354,2,0,P|219:315|272:289,2,120,2|2|8,0:0|2:0|0:0,0:0:0:0:
206,218,109383,1,2,0:0:0:0:
387,179,109726,6,0,P|375:229|368:308,2,120,2|2|8,0:0|2:0|0:0,0:0:0:0:
448,90,110754,1,2,0:0:0:0:
345,61,111097,2,0,P|293:65|216:82,2,120,2|2|8,0:0|2:0|0:0,0:0:0:0:
448,90,112126,1,2,0:0:0:0:
206,218,112469,5,6,0:0:0:0:
138,146,113154,5,8,0:0:0:0:
206,218,113326,2,0,P|305:209|403:186,1,180,2|2,0:0|0:0,0:0:0:0:
138,146,114526,1,8,0:0:0:0:
183,58,114697,2,0,P|260:42|339:35,1,150,2|0,0:0|0:0,0:0:0:0:
409,61,115212,6,0,L|398:113,15,30,6|0|0|0|0|0|0|0|0|0|0|0|0|0|0|0,0:0|0:0|0:0|0:0|0:0|0:0|0:0|0:0|0:0|0:0|0:0|0:0|0:0|0:0|0:0|0:0,0:0:0:0:
345,151,116583,6,0,L|356:203,3,35.9999989013672,6|0|0|0,0:0|0:0|0:0|0:0,0:0:0:0:
420,245,116926,6,0,L|409:297,3,41.9999987182618,8|0|0|0,1:0|0:0|0:0|0:0,0:0:0:0:
321,333,117269,5,2,1:0:0:0:
292,339,117354,1,2,1:0:0:0:
263,340,117440,1,2,1:0:0:0:
235,331,117526,1,2,1:0:0:0:
210,315,117612,1,10,1:0:0:0:
186,298,117697,1,2,1:0:0:0:
160,285,117783,1,2,1:0:0:0:
131,282,117869,1,2,1:0:0:0:
102,286,117954,1,6,1:0:0:0:
