osu file format v14

[General]
AudioFilename: audio.mp3
AudioLeadIn: 0
PreviewTime: 68497
Countdown: 0
SampleSet: Soft
StackLeniency: 0.7
Mode: 0
LetterboxInBreaks: 0
EpilepsyWarning: 1
WidescreenStoryboard: 1

[Editor]
Bookmarks: 43040,51269,111440,116069
DistanceSpacing: 1.1
BeatDivisor: 4
GridSize: 32
TimelineZoom: 2.5

[Metadata]
Title:AXION (Star* Remix 2016 Update)
TitleUnicode:AXION (Star* Remix 2016 Update)
Artist:sakuzyo
ArtistUnicode:削除
Creator:Ryuusei Aika
Version:Yugu's Normal
Source:BMS
Tags:Cytus C82 Wire Puller 2 wp2 MagicMashMan Magic Mash Man New Genuine Magicial Girl deadblue238 Chaos fantasia SoundCloud Deleted room Hardcore liaoxingyao Suzuki_1112 1112deng Regou Dynamix _MiaoFUuU_ Yugu gary00737 Binguo Misaki-Mei
BeatmapID:2009549
BeatmapSetID:957007

[Difficulty]
HPDrainRate:4
CircleSize:3
OverallDifficulty:3
ApproachRate:5
SliderMultiplier:0.999999999999999
SliderTickRate:1

[Events]
//Background and Video events
0,0,"40701794_p0.jpg",0,0
//Break Periods
2,57812,67200
2,101697,105600
//Storyboard Layer 0 (Background)
//Storyboard Layer 1 (Fail)
//Storyboard Layer 2 (Pass)
//Storyboard Layer 3 (Foreground)
//Storyboard Sound Samples

[TimingPoints]
12,342.857142857143,4,2,1,40,1,0
12354,-100,4,1,1,30,0,0
12697,-100,4,1,1,30,0,0
15097,-100,4,1,1,40,0,0
17840,-100,4,1,1,50,0,0
18526,-100,4,1,1,50,0,0
19212,-100,4,1,1,50,0,0
19897,-100,4,1,1,50,0,0
20583,-100,4,1,1,50,0,0
21269,-100,4,1,1,50,0,0
23326,-100,4,1,1,50,0,0
24697,-100,4,3,2,70,0,0
68583,-100,4,3,2,70,0,1
93954,-100,4,3,1,50,0,1
94983,-100,4,3,1,70,0,1
95669,-100,4,3,2,70,0,1
96012,-100,4,3,2,70,0,1
101497,-100,4,2,1,70,0,0
106983,-100,4,1,1,70,0,0
112469,-100,4,1,1,50,0,0
115212,-100,4,1,1,40,0,0
116583,-100,4,2,1,70,0,0

[Colours]
Combo1 : 128,128,192
Combo2 : 128,255,255
Combo3 : 255,255,128
Combo4 : 0,128,192

[HitObjects]
92,73,1383,6,0,L|107:222,1,150,4|2,0:0|0:0,0:0:0:0:
87,330,2240,2,0,P|136:328|183:301,1,99.9999999999999,0|2,0:0|0:0,0:0:0:0:
207,256,2754,6,0,L|366:280,1,150,0|2,0:0|0:0,0:0:0:0:
461,308,3612,2,0,L|475:368,2,50,0|0|2,0:0|0:0|0:0,0:0:0:0:
484,257,4126,6,0,P|482:210|518:99,1,150,0|2,0:0|0:0,0:0:0:0:
429,36,4983,2,0,L|324:45,1,99.9999999999999,0|2,0:0|0:0,0:0:0:0:
276,27,5497,6,0,P|300:97|302:172,1,150,0|0,0:0|0:0,0:0:0:0:
204,223,6354,1,0,0:0:0:0:
48,166,6869,6,0,P|23:236|21:311,1,150,0|2,0:0|0:0,0:0:0:0:
115,368,7726,2,0,L|224:354,1,99.9999999999999,0|2,0:0|0:0,0:0:0:0:
268,362,8240,6,0,B|288:313|272:268|272:268|252:206,1,150,0|2,0:0|0:0,0:0:0:0:
282,110,9097,2,0,L|331:92,2,50,0|0|2,0:0|0:0|0:0,0:0:0:0:
233,83,9612,6,0,P|168:78|104:135,1,150,0|2,0:0|0:0,0:0:0:0:
146,232,10469,2,0,P|165:290|171:341,1,99.9999999999999,0|2,0:0|0:0,0:0:0:0:
216,358,10983,6,0,L|381:339,1,150,0|0,0:0|0:0,0:0:0:0:
461,287,11840,1,0,0:0:0:0:
461,287,12012,1,0,0:0:0:0:
505,186,12354,6,0,L|494:84,1,99.9999999999999,6|2,0:0|0:0,0:0:0:0:
383,77,13040,2,0,L|372:176,1,99.9999999999999,2|2,0:0|0:0,0:0:0:0:
283,242,13726,5,2,0:0:0:0:
194,176,14069,2,0,L|183:77,2,99.9999999999999,2|2|2,0:0|0:0|0:0,0:0:0:0:
97,228,15097,6,0,L|108:327,1,99.9999999999999,2|8,0:0|0:0,0:0:0:0:
212,361,15783,2,0,P|260:370|324:340,1,99.9999999999999,2|8,0:0|0:0,0:0:0:0:
417,345,16469,5,2,0:0:0:0:
412,235,16812,2,0,P|421:189|458:129,2,99.9999999999999,8|2|8,0:0|0:0|0:0,0:0:0:0:
306,202,17840,6,0,L|207:220,1,99.9999999999999,2|10,0:0|0:0,0:0:0:0:
152,227,18354,1,2,0:0:0:0:
72,150,18697,2,0,L|11:137,2,50,2|8|2,0:0|0:0|0:0,0:0:0:0:
115,114,19212,6,0,P|168:110|221:81,1,99.9999999999999,2|10,0:0|0:0,0:0:0:0:
240,43,19726,1,2,0:0:0:0:
345,73,20069,2,0,L|406:60,2,50,2|10|2,0:0|0:0|0:0,0:0:0:0:
324,124,20583,6,0,P|309:181|315:234,1,99.9999999999999,2|10,0:0|0:0,0:0:0:0:
343,266,21097,1,2,0:0:0:0:
343,266,21269,1,2,0:0:0:0:
233,274,21612,1,8,0:0:0:0:
123,282,21954,6,0,P|64:271|13:381,2,200,2|2|2,0:0|0:0|0:0,0:0:0:0:
119,77,24697,5,6,0:0:0:0:
119,77,24869,2,0,P|102:156|149:222,1,150,0|2,0:0|0:0,0:0:0:0:
217,222,25640,2,0,P|254:209|308:211,1,74.9999999999999,0|0,0:0|0:0,0:0:0:0:
384,263,26240,6,0,P|395:182|354:120,1,150,0|2,0:0|0:0,0:0:0:0:
410,59,27012,2,0,P|367:44|324:51,1,74.9999999999999,0|0,0:0|0:0,0:0:0:0:
235,86,27612,6,0,P|164:106|85:83,1,150,0|2,0:0|0:0,0:0:0:0:
13,62,28383,2,0,P|11:102|26:136,1,74.9999999999999,0|0,0:0|0:0,0:0:0:0:
3,241,28983,6,0,P|79:225|153:268,1,150,0|2,0:0|0:0,0:0:0:0:
238,307,29840,1,8,0:0:0:0:
344,280,30183,5,2,0:0:0:0:
344,280,30354,2,0,L|359:117,1,150,0|2,0:0|0:0,0:0:0:0:
424,82,31126,2,0,P|393:57|345:50,1,74.9999999999999,0|0,0:0|0:0,0:0:0:0:
253,80,31726,6,0,P|181:97|104:73,1,150,0|2,0:0|0:0,0:0:0:0:
36,37,32497,2,0,P|28:78|41:124,1,74.9999999999999,0|0,0:0|0:0,0:0:0:0:
29,220,33097,6,0,P|103:219|170:266,1,150,0|2,0:0|0:0,0:0:0:0:
122,330,33869,2,0,P|164:344|196:338,1,74.9999999999999,0|0,0:0|0:0,0:0:0:0:
244,319,34297,6,0,P|295:304|360:320,1,99.9999999999999,2|8,0:0|0:0,0:0:0:0:
444,347,34983,2,0,L|428:236,1,99.9999999999999,2|8,0:0|0:0,0:0:0:0:
432,192,35497,1,0,0:0:0:0:
432,192,35669,6,0,L|444:103,1,74.9999999999999,6|0,0:0|0:0,0:0:0:0:
489,50,36183,2,0,B|369:-14|320:183|140:87,1,350,0|8,0:0|0:0,0:0:0:0:
126,140,37554,5,0,0:0:0:0:
126,140,37726,2,0,L|116:65,2,74.9999999999999,2|0|0,0:0|0:0|0:0,0:0:0:0:
100,188,38412,6,0,L|90:262,2,74.9999999999999,2|0|0,0:0|0:0|0:0,0:0:0:0:
174,269,39269,2,0,P|162:309|146:327,2,50,0|8|0,0:0|0:0|0:0,0:0:0:0:
223,243,39783,6,0,P|257:234|277:234,1,50,2|0,0:0|0:0,0:0:0:0:
325,243,40126,2,0,P|375:255|414:253,2,74.9999999999999,8|2|2,0:0|2:0|2:0,0:0:0:0:
380,147,40983,1,0,0:0:0:0:
380,147,41154,6,0,L|376:79,1,50,2|0,0:0|0:0,0:0:0:0:
337,59,41497,2,0,P|287:47|248:49,1,74.9999999999999,8|0,0:0|0:0,0:0:0:0:
90,182,43040,5,2,0:0:0:0:
90,182,43212,2,0,P|64:224|94:331,1,150,2|2,0:0|0:0,0:0:0:0:
135,330,43897,6,0,P|144:352|148:384,2,50,2|2|10,0:0|0:0|0:0,0:0:0:0:
175,257,44497,1,4,0:0:0:0:
252,228,44754,2,0,P|261:206|265:174,2,50,2|10|2,0:0|0:0|0:0,0:0:0:0:
306,240,45269,6,0,L|424:256,1,99.9999999999999,2|10,0:0|0:0,0:0:0:0:
475,169,45954,2,0,P|475:132|435:61,1,99.9999999999999,2|2,0:0|0:0,0:0:0:0:
339,81,46640,6,0,L|346:-3,2,74.9999999999999,6|0|0,0:0|0:0|0:0,0:0:0:0:
286,93,47326,2,0,L|233:98,1,50,2|0,0:0|0:0,0:0:0:0:
186,120,47669,2,0,L|75:110,1,99.9999999999999,8|0,0:0|0:0,0:0:0:0:
40,82,48183,6,0,P|13:149|43:222,1,150,2|2,2:0|0:0,0:0:0:0:
86,317,49040,1,8,0:0:0:0:
190,283,49383,1,2,0:0:0:0:
294,316,49726,6,0,L|307:200,1,99.9999999999999,8|0,0:0|0:0,0:0:0:0:
368,126,50412,2,0,L|355:10,1,99.9999999999999,8|2,0:0|0:0,0:0:0:0:
461,61,51097,5,8,0:0:0:0:
497,164,51440,2,0,L|484:280,1,99.9999999999999,2|8,0:0|0:0,0:0:0:0:
398,330,52126,5,2,0:0:0:0:
314,258,52469,2,0,P|272:269|220:315,1,99.9999999999999,8|2,0:0|0:0,0:0:0:0:
187,341,52983,1,0,0:0:0:0:
187,341,53154,1,8,0:0:0:0:
85,298,53497,5,2,0:0:0:0:
135,200,53840,2,0,L|145:96,1,99.9999999999999,8|2,0:0|0:0,0:0:0:0:
152,45,54354,1,0,0:0:0:0:
152,45,54526,1,8,0:0:0:0:
259,67,54869,6,0,B|306:30|361:54|379:96|373:158|317:172|317:172|270:186|257:235|269:277|308:293|349:294,1,400,2|2,0:0|0:0,0:0:0:0:
120,340,56926,1,2,0:0:0:0:
38,135,57612,1,4,0:0:0:0:
129,71,68583,6,0,P|96:53|41:40,2,74.9999999999999,6|0|0,0:0|0:0|0:0,0:0:0:0:
156,118,69269,1,2,0:0:0:0:
39,234,69783,1,0,0:0:0:0:
85,262,69954,6,0,L|97:350,1,74.9999999999999,2|0,0:0|0:0,0:0:0:0:
174,359,70469,1,0,0:0:0:0:
241,272,70812,2,0,L|253:184,1,74.9999999999999,0|0,0:0|0:0,0:0:0:0:
329,172,71326,6,0,L|350:13,1,150,2|0,0:0|0:0,0:0:0:0:
399,1,72012,1,2,0:0:0:0:
477,77,72354,1,8,0:0:0:0:
456,185,72697,6,0,L|477:343,1,150,2|0,0:0|0:0,0:0:0:0:
316,293,73726,1,8,0:0:0:0:
208,317,74069,6,0,P|208:277|224:234,1,74.9999999999999,2|0,0:0|0:0,0:0:0:0:
262,174,74583,1,0,0:0:0:0:
60,85,75269,1,0,0:0:0:0:
21,123,75440,6,0,P|21:163|37:206,1,74.9999999999999,2|0,0:0|0:0,0:0:0:0:
75,266,75954,1,0,0:0:0:0:
226,332,76469,1,8,0:0:0:0:
319,274,76812,6,0,P|395:256|479:268,1,150,2|0,0:0|0:0,0:0:0:0:
498,220,77497,2,0,L|487:142,1,74.9999999999999,2|0,0:0|0:0,0:0:0:0:
424,91,78012,1,0,0:0:0:0:
424,91,78183,2,0,B|376:81|330:108|330:108|283:134|225:109,1,200,2|2,0:0|0:0,0:0:0:0:
105,292,79554,6,0,B|60:306|34:342,2,74.9999999999999,6|0|0,0:0|0:0|0:0,0:0:0:0:
156,312,80240,1,2,0:0:0:0:
300,233,80754,1,0,0:0:0:0:
338,272,80926,6,0,L|428:284,1,74.9999999999999,2|0,0:0|0:0,0:0:0:0:
476,229,81440,1,0,0:0:0:0:
463,119,81783,2,0,P|428:120|383:92,1,74.9999999999999,0|0,0:0|0:0,0:0:0:0:
365,24,82297,6,0,L|206:62,1,150,2|0,0:0|0:0,0:0:0:0:
165,71,82983,1,2,0:0:0:0:
231,158,83326,1,8,0:0:0:0:
165,246,83669,6,0,L|6:208,2,150,2|0|8,0:0|0:0|0:0,0:0:0:0:
267,286,85040,6,0,P|279:317|279:369,2,74.9999999999999,2|0|0,0:0|0:0|0:0,0:0:0:0:
295,238,85726,1,2,0:0:0:0:
452,189,86240,1,0,0:0:0:0:
424,141,86412,6,0,P|436:110|436:58,1,74.9999999999999,2|0,0:0|0:0,0:0:0:0:
375,14,86926,1,0,0:0:0:0:
214,51,87440,1,8,0:0:0:0:
111,12,87783,6,0,P|123:61|132:171,1,150,2|0,0:0|0:0,0:0:0:0:
107,209,88469,2,0,L|26:218,1,74.9999999999999,2|0,0:0|0:0,0:0:0:0:
23,299,88983,1,0,0:0:0:0:
23,299,89154,2,0,L|227:276,1,200,2|2,0:0|0:0,0:0:0:0:
310,341,90183,1,10,0:0:0:0:
394,269,90526,6,0,P|436:274|473:285,2,74.9999999999999,6|0|0,0:0|0:0|0:0,0:0:0:0:
362,223,91212,1,2,0:0:0:0:
249,102,91726,1,0,0:0:0:0:
225,52,91897,6,0,P|183:57|146:68,1,74.9999999999999,2|0,0:0|0:0,0:0:0:0:
84,115,92412,1,0,0:0:0:0:
115,220,92754,2,0,P|94:276|88:312,1,74.9999999999999,0|0,0:0|0:0,0:0:0:0:
150,348,93269,6,0,L|268:330,1,99.9999999999999,6|6,0:0|0:0,0:0:0:0:
302,236,93954,6,0,P|313:198|307:150,2,74.9999999999999,4|4|4,0:3|0:3|0:3,0:0:0:0:
222,213,94726,2,0,P|211:175|217:127,2,74.9999999999999,4|4|4,0:3|0:3|0:3,0:0:0:0:
148,251,95497,1,4,0:3:0:0:
148,251,95669,2,0,P|100:265|62:297,1,99.9999999999999,2|6,3:0|0:0,0:0:0:0:
21,195,96354,6,0,L|12:83,1,99.9999999999999,10|2,0:0|0:0,0:0:0:0:
100,28,97040,1,10,0:0:0:0:
186,95,97383,5,6,0:0:0:0:
273,28,97726,2,0,L|392:14,2,99.9999999999999,10|2|10,0:0|0:0|0:0,0:0:0:0:
186,95,98754,5,6,0:0:0:0:
273,162,99097,2,0,L|392:176,2,99.9999999999999,10|6|10,0:0|0:0|0:0,0:0:0:0:
186,230,100126,5,6,0:0:0:0:
241,324,100469,1,14,0:0:0:0:
350,335,100812,1,6,0:0:0:0:
437,268,101154,1,14,0:0:0:0:
440,158,101497,1,4,0:0:0:0:
81,84,106983,6,0,P|92:225|243:263,1,300,6|2,0:0|0:0,0:0:0:0:
312,337,108354,2,0,B|382:195|248:195|321:32,1,300,2|2,0:0|0:0,0:0:0:0:
403,113,109726,6,0,P|509:151|401:175,1,300,2|2,0:0|0:0,0:0:0:0:
291,159,111097,2,0,P|199:139|161:307,1,300,2|2,0:0|0:0,0:0:0:0:
250,358,112469,6,0,P|345:326|443:354,1,200,6|8,0:0|0:0,0:0:0:0:
493,344,113326,1,2,0:0:0:0:
492,179,113840,6,0,P|397:211|299:183,1,200,2|8,0:0|0:0,0:0:0:0:
249,193,114697,1,2,0:0:0:0:
155,57,115212,6,0,B|188:184|88:184|160:319|160:319|223:290|290:318,1,400,6|6,0:0|0:0,0:0:0:0:
386,356,116926,1,8,1:0:0:0:
478,296,117269,6,0,L|457:83,1,200,2|6,1:0|1:0,0:0:0:0:
