osu file format v14

[General]
AudioFilename: audio.mp3
AudioLeadIn: 0
PreviewTime: 68497
Countdown: 0
SampleSet: None
StackLeniency: 0.5
Mode: 0
LetterboxInBreaks: 0
EpilepsyWarning: 1
WidescreenStoryboard: 1

[Editor]
DistanceSpacing: 0.8
BeatDivisor: 4
GridSize: 8
TimelineZoom: 1.999999

[Metadata]
Title:AXION (Star* Remix 2016 Update)
TitleUnicode:AXION (Star* Remix 2016 Update)
Artist:sakuzyo
ArtistUnicode:削除
Creator:Ryuusei Aika
Version:Another
Source:BMS
Tags:Cytus C82 Wire Puller 2 wp2 MagicMashMan Magic Mash Man New Genuine Magicial Girl deadblue238 Chaos fantasia SoundCloud Deleted room Hardcore liaoxingyao Suzuki_1112 1112deng Regou Dynamix _MiaoFUuU_ Yugu gary00737 Binguo Misaki-Mei
BeatmapID:2003510
BeatmapSetID:957007

[Difficulty]
HPDrainRate:5
CircleSize:5.5
OverallDifficulty:7.5
ApproachRate:9
SliderMultiplier:1.44
SliderTickRate:1

[Events]
//Background and Video events
0,0,"40701794_p0.jpg",0,0
//Break Periods
2,101697,105656
//Storyboard Layer 0 (Background)
//Storyboard Layer 1 (Fail)
//Storyboard Layer 2 (Pass)
//Storyboard Layer 3 (Foreground)
//Storyboard Sound Samples

[TimingPoints]
12,342.857142857143,4,2,1,40,1,0
12,-166.666666666667,4,2,1,40,0,0
1383,-166.666666666667,4,2,1,40,0,0
12354,-125,4,1,1,30,0,0
15097,-125,4,1,1,40,0,0
17840,-125,4,1,1,50,0,0
21954,-62.5,4,1,1,70,0,0
23326,-100,4,2,1,70,0,0
23840,-100,4,2,1,70,0,0
24697,-100,4,1,1,70,0,0
34812,-100,4,1,1,70,0,0
35583,-100,4,1,1,70,0,0
35669,-100,4,1,1,70,0,0
37212,-100,4,1,1,70,0,0
37897,-100,4,1,1,70,0,0
38412,-100,4,1,1,70,0,0
42526,-100,4,1,1,70,0,0
45954,-100,4,1,1,70,0,0
46554,-100,4,1,1,70,0,0
46640,-71.4285714285714,4,1,1,70,0,0
47326,-100,4,1,1,70,0,0
51440,-100,4,1,1,70,0,0
52126,-100,4,1,1,70,0,0
55212,-100,4,1,1,70,0,0
55554,-100,4,1,1,70,0,0
56069,-100,4,1,1,70,0,0
56240,-100,4,1,1,70,0,0
57612,-125,4,1,1,70,0,0
57954,-125,4,3,1,70,0,0
63097,-62.5,4,3,1,70,0,0
63140,-62.5,4,2,1,70,0,1
63183,-62.5,4,2,1,70,0,0
63440,-100,4,3,1,70,0,0
64126,-62.5,4,3,1,70,0,1
64169,-62.5,4,2,1,70,0,0
64469,-100,4,3,1,70,0,1
64512,-100,4,2,1,70,0,0
64983,-100,4,2,1,70,0,1
65026,-100,4,2,1,70,0,0
65497,-62.5,4,2,1,70,0,0
65540,-62.5,4,2,1,70,0,1
65583,-62.5,4,2,1,70,0,0
65840,-100,4,2,1,70,0,0
65883,-100,4,2,1,70,0,1
65926,-100,4,2,1,70,0,0
66354,-100,4,2,1,70,0,1
66397,-100,4,2,1,70,0,0
66869,-100,4,2,1,70,0,1
66912,-100,4,2,1,70,0,0
67212,-100,4,2,1,70,0,1
67254,-100,4,2,1,70,0,0
67383,-100,4,2,1,70,0,0
67897,-166.666666666667,4,2,1,70,0,0
68583,-83.3333333333333,4,1,1,70,0,1
79469,-83.3333333333333,4,1,1,70,0,1
79554,-83.3333333333333,4,1,1,70,0,1
90440,-83.3333333333333,4,1,1,70,0,1
90526,-83.3333333333333,4,1,1,70,0,1
93269,-83.3333333333333,4,1,1,70,0,1
93312,-83.3333333333333,4,2,1,70,0,0
93354,-83.3333333333333,4,2,1,70,0,1
93397,-83.3333333333333,4,2,1,70,0,0
93440,-83.3333333333333,4,2,1,70,0,1
93483,-83.3333333333333,4,2,1,70,0,0
93526,-83.3333333333333,4,2,1,70,0,1
93569,-83.3333333333333,4,2,1,70,0,0
93612,-83.3333333333333,4,1,1,70,0,1
93654,-83.3333333333333,4,2,1,70,0,0
93954,-125,4,1,1,50,0,1
93997,-125,4,2,1,70,0,0
94212,-100,4,2,1,70,0,1
94254,-100,4,2,1,70,0,0
94469,-83.3333333333333,4,2,1,70,0,1
94512,-83.3333333333333,4,2,1,70,0,0
94726,-71.4285714285714,4,2,1,70,0,1
94769,-71.4285714285714,4,2,1,70,0,0
94983,-83.3333333333333,4,2,1,70,0,1
95026,-83.3333333333333,4,2,1,70,0,0
95240,-62.5,4,2,1,70,0,1
95283,-62.5,4,2,1,70,0,0
95497,-71.4285714285714,4,2,1,70,0,1
95540,-71.4285714285714,4,2,1,70,0,0
95669,-62.5,4,2,1,70,0,1
95726,-62.5,4,2,1,70,0,0
96012,-83.3333333333333,4,1,1,70,0,1
101497,-125,4,2,1,70,0,0
106983,-125,4,1,1,70,0,0
112469,-125,4,1,1,50,0,0
113154,-83.3333333333333,4,2,1,70,0,0
113326,-125,4,2,1,70,0,0
114526,-83.3333333333333,4,2,1,70,0,0
114697,-125,4,2,1,70,0,0
115212,-100,4,1,1,40,0,0
116583,-100,4,2,1,70,0,0
117612,-50,4,2,1,70,0,0

[Colours]
Combo1 : 128,128,192
Combo2 : 128,255,255
Combo3 : 255,255,128
Combo4 : 0,128,192

[HitObjects]
388,277,183,6,0,B|316:251|316:251|177:302|177:302|105:277,1,302.399990771485,0|4,0:0|0:0,0:0:0:0:
30,249,1554,1,2,0:0:0:0:
92,199,1726,1,0,0:0:0:0:
170,186,1897,1,2,0:0:0:0:
178,178,2240,5,0,0:0:0:0:
191,256,2412,1,0,0:0:0:0:
163,330,2583,1,2,0:0:0:0:
191,256,2754,5,0,0:0:0:0:
252,205,2926,1,2,0:0:0:0:
330,192,3097,1,0,0:0:0:0:
404,218,3269,1,2,0:0:0:0:
412,210,3612,5,0,0:0:0:0:
440,267,3783,1,0,0:0:0:0:
492,304,3954,1,2,0:0:0:0:
440,267,4126,5,0,0:0:0:0:
361,261,4297,1,2,0:0:0:0:
289,293,4469,1,0,0:0:0:0:
244,358,4640,1,2,0:0:0:0:
252,366,4983,5,0,0:0:0:0:
187,321,5154,1,0,0:0:0:0:
108,314,5326,1,2,0:0:0:0:
187,321,5497,5,0,0:0:0:0:
223,269,5669,1,2,0:0:0:0:
228,205,5840,1,0,0:0:0:0:
214,176,6012,2,0,B|171:178|171:178|140:207,1,86.3999973632813,0|0,0:0|0:0,0:0:0:0:
142,210,6869,5,0,0:0:0:0:
94,130,7040,2,0,B|89:173,1,43.1999986816407,2|0,0:0|0:0,0:0:0:0:
170,269,7383,1,2,0:0:0:0:
162,277,7726,5,0,0:0:0:0:
241,335,7897,2,0,B|198:329,1,43.1999986816407,0|0,0:0|0:0,0:0:0:0:
162,277,8240,5,0,0:0:0:0:
71,302,8412,2,0,B|111:317,1,43.1999986816407,2|0,0:0|0:0,0:0:0:0:
226,265,8754,1,2,0:0:0:0:
234,257,9097,6,0,B|240:214,2,43.1999986816407,0|0|0,0:0|0:0|0:0,0:0:0:0:
278,162,9612,5,0,0:0:0:0:
323,79,9783,2,0,B|284:96,1,43.1999986816407,2|0,0:0|0:0,0:0:0:0:
240,214,10126,1,2,0:0:0:0:
248,222,10469,5,0,0:0:0:0:
318,299,10640,2,0,B|284:274,1,43.1999986816407,0|0,0:0|0:0,0:0:0:0:
248,222,10983,5,0,0:0:0:0:
155,197,11154,2,0,B|180:230,1,43.1999986816407,2|0,0:0|0:0,0:0:0:0:
306,242,11497,2,0,B|349:240|349:240|380:211,1,86.3999973632813,0|0,0:0|0:0,0:0:0:0:
433,325,12012,1,0,0:0:0:0:
439,0,12354,6,0,B|466:50|466:50|454:107,7,115.2,6|2|2|2|2|2|2|2,0:0|0:0|0:0|0:0|0:0|0:0|0:0|0:0,0:0:0:0:
464,117,15097,6,0,B|420:78|420:78|363:76,2,115.2,2|8|2,0:0|0:0|0:0,0:0:0:0:
283,23,15954,1,0,0:0:0:0:
294,35,16040,1,0,0:0:0:0:
302,43,16126,2,0,B|324:62|324:62|352:63,1,57.6,8|0,0:0|0:0,0:0:0:0:
210,43,16469,6,0,B|188:62|188:62|160:63,1,57.6,2|0,0:0|0:0,0:0:0:0:
143,63,16726,1,0,0:0:0:0:
95,112,16812,6,0,B|76:90|76:90|75:62,1,57.6,8|0,0:0|0:0,0:0:0:0:
75,45,17069,1,0,0:0:0:0:
143,63,17154,6,0,B|162:85|162:85|163:113,1,57.6,2|0,0:0|0:0,0:0:0:0:
163,130,17412,1,0,0:0:0:0:
114,180,17497,5,8,0:0:0:0:
109,195,17583,1,0,0:0:0:0:
106,206,17669,1,0,0:0:0:0:
256,277,17840,5,2,0:0:0:0:
256,261,18012,1,2,0:0:0:0:
196,245,18183,1,10,0:0:0:0:
256,229,18354,1,2,0:0:0:0:
256,213,18526,1,2,0:0:0:0:
256,197,18697,1,2,0:0:0:0:
316,181,18869,1,8,0:0:0:0:
256,165,19040,1,2,0:0:0:0:
256,149,19212,5,2,0:0:0:0:
196,165,19383,1,2,0:0:0:0:
256,181,19554,1,10,0:0:0:0:
316,197,19726,1,2,0:0:0:0:
256,213,19897,5,2,0:0:0:0:
196,229,20069,1,2,0:0:0:0:
256,245,20240,1,10,0:0:0:0:
316,261,20412,1,2,0:0:0:0:
256,277,20583,5,2,0:0:0:0:
316,197,20754,1,2,0:0:0:0:
256,309,20926,5,10,0:0:0:0:
182,229,21097,1,2,0:0:0:0:
256,341,21269,5,2,0:0:0:0:
348,261,21440,1,2,0:0:0:0:
256,373,21612,5,8,0:0:0:0:
148,293,21783,1,2,0:0:0:0:
22,269,21954,5,2,0:0:0:0:
18,273,22040,1,2,0:0:0:0:
14,277,22126,2,0,B|0:252|0:252|6:223,1,57.6,2|2,0:0|0:0,0:0:0:0:
83,174,22297,5,10,0:0:0:0:
68,169,22383,1,2,0:0:0:0:
52,162,22469,2,0,B|51:134|51:134|71:112,1,57.6,2|2,0:0|0:0,0:0:0:0:
173,57,22640,5,2,0:0:0:0:
191,72,22726,1,2,0:0:0:0:
210,87,22812,1,2,0:0:0:0:
229,102,22897,1,2,0:0:0:0:
224,107,22983,5,10,0:0:0:0:
254,69,23069,1,2,0:0:0:0:
299,83,23154,1,2,0:0:0:0:
329,45,23240,1,2,0:0:0:0:
339,55,23326,5,2,0:0:0:0:
228,132,24697,5,6,0:0:0:0:
178,91,24869,6,0,B|170:127|170:127|188:158,1,72,0|8,0:0|0:0,0:0:0:0:
251,72,25126,2,0,B|214:76|214:76|191:102,1,72,0|0,0:0|0:0,0:0:0:0:
292,137,25383,2,0,B|276:102|276:102|245:88,1,72,2|0,0:0|0:0,0:0:0:0:
243,194,25640,2,0,B|271:168|271:168|274:134,1,72,0|0,0:0|0:0,0:0:0:0:
173,165,25897,2,0,B|205:184|205:184|239:176,1,72,0|2,0:0|0:0,0:0:0:0:
167,309,26240,6,0,B|200:280|200:280|204:237,1,72,0|8,0:0|0:0,0:0:0:0:
82,277,26497,2,0,B|120:300|120:300|161:290,1,72,0|0,0:0|0:0,0:0:0:0:
87,186,26754,2,0,B|78:231|78:231|98:267,1,72,2|0,0:0|0:0,0:0:0:0:
173,165,27012,2,0,B|127:171|127:171|100:201,1,72,0|0,0:0|0:0,0:0:0:0:
221,243,27269,2,0,B|203:202|203:202|164:186,1,72,0|2,0:0|0:0,0:0:0:0:
332,109,27612,6,0,B|279:113|279:113|245:151,1,72,0|8,0:0|0:0,0:0:0:0:
391,200,27869,2,0,B|369:150|369:150|323:130,1,72,0|0,0:0|0:0,0:0:0:0:
320,284,28126,2,0,B|361:245|361:245|366:197,1,72,2|0,0:0|0:0,0:0:0:0:
221,243,28383,2,0,B|269:269|269:269|317:257,1,72,0|0,0:0|0:0,0:0:0:0:
228,135,28640,2,0,B|216:187|216:187|243:229,1,72,0|2,0:0|0:0,0:0:0:0:
414,366,28983,6,0,B|487:358,1,72,0|8,0:0|0:0,0:0:0:0:
497,366,29240,2,0,B|425:373,1,72,0|0,0:0|0:0,0:0:0:0:
428,297,29497,2,0,B|391:300|391:300|342:351|342:351|306:356,1,144,2|8,0:0|0:0,0:0:0:0:
239,273,30012,2,0,B|243:310,1,36,0|0,0:0|0:0,0:0:0:0:
163,300,30183,1,2,0:0:0:0:
19,183,30354,6,0,B|11:219|11:219|29:250,1,72,0|8,0:0|0:0,0:0:0:0:
92,164,30612,2,0,B|55:168|55:168|32:194,1,72,0|0,0:0|0:0,0:0:0:0:
133,229,30869,2,0,B|117:194|117:194|86:180,1,72,2|0,0:0|0:0,0:0:0:0:
84,286,31126,2,0,B|112:260|112:260|115:226,1,72,0|0,0:0|0:0,0:0:0:0:
14,257,31383,2,0,B|46:276|46:276|80:268,1,72,0|2,0:0|0:0,0:0:0:0:
187,52,31726,6,0,B|148:29|148:29|106:38,1,72,0|8,0:0|0:0,0:0:0:0:
181,141,31983,2,0,B|190:97|190:97|169:61,1,72,0|0,0:0|0:0,0:0:0:0:
92,164,32240,2,0,B|137:158|137:158|165:128,1,72,2|0,0:0|0:0,0:0:0:0:
45,88,32497,2,0,B|64:129|64:129|101:145,1,72,0|0,0:0|0:0,0:0:0:0:
105,19,32754,2,0,B|71:48|71:48|67:90,1,72,0|2,0:0|0:0,0:0:0:0:
253,256,33097,6,0,B|283:229|283:229|287:189,1,72,0|8,0:0|0:0,0:0:0:0:
175,225,33354,2,0,B|210:245|210:245|247:237,1,72,0|0,0:0|0:0,0:0:0:0:
181,141,33612,2,0,B|172:182|172:182|191:214,1,72,2|0,0:0|0:0,0:0:0:0:
261,122,33869,2,0,B|219:127|219:127|194:155,1,72,0|0,0:0|0:0,0:0:0:0:
305,193,34126,1,0,0:0:0:0:
378,232,34297,6,0,B|493:219,1,108,2|0,0:0|0:0,0:0:0:0:
496,228,34640,2,0,B|442:233,1,36,8|0,0:0|0:0,0:0:0:0:
389,240,34812,5,0,0:0:0:0:
377,274,34897,1,0,0:0:0:0:
391,307,34983,5,2,0:0:0:0:
373,286,35069,1,0,0:0:0:0:
346,283,35154,1,0,0:0:0:0:
323,298,35240,1,0,0:0:0:0:
316,325,35326,2,0,B|279:329,1,36,8|0,0:0|0:0,0:0:0:0:
224,283,35497,2,0,B|187:279,1,36,0|0,0:0|0:0,0:0:0:0:
132,325,35669,6,0,B|101:343|101:343|65:335,1,72,6|0,0:0|0:0,0:0:0:0:
36,327,35926,2,0,B|67:309|67:309|103:317,1,72,0|0,0:0|0:0,0:0:0:0:
94,343,36183,2,0,B|115:274|115:274|39:33|39:33|0:207,1,504,0|8,0:0|0:0,0:0:0:0:
95,92,37554,1,0,0:0:0:0:
122,98,37640,1,0,0:0:0:0:
149,104,37726,6,0,B|185:112|185:112|216:94,1,72,2|0,0:0|0:0,0:0:0:0:
267,129,37983,2,0,B|298:111|298:111|334:119,1,72,0|0,0:0|0:0,0:0:0:0:
385,154,38240,1,0,0:0:0:0:
453,242,38412,6,0,B|436:210|436:210|444:175,1,72,2|0,0:0|0:0,0:0:0:0:
478,124,38669,2,0,B|486:88|486:88|468:57,1,72,0|0,0:0|0:0,0:0:0:0:
433,6,38926,1,0,0:0:0:0:
419,293,39269,2,0,B|382:294,1,36,0|0,0:0|0:0,0:0:0:0:
324,273,39440,2,0,B|287:271,1,36,8|0,0:0|0:0,0:0:0:0:
229,293,39612,2,0,B|192:294,1,36,0|0,0:0|0:0,0:0:0:0:
134,273,39783,6,0,B|142:236|142:236|124:205,2,72,2|0|8,0:0|0:0|0:0,0:0:0:0:
73,171,40383,2,0,B|46:125|46:125|58:71,1,108,2|2,2:0|2:0,0:0:0:0:
124,206,40812,2,0,B|142:236|142:236|134:273,1,72,8|0,0:0|0:0,0:0:0:0:
69,233,41154,6,0,B|33:233|33:233|5:208,1,72,2|0,0:0|0:0,0:0:0:0:
128,144,41497,1,8,0:0:0:0:
100,324,41754,2,0,B|164:343|164:343|387:272|387:272|226:236,1,468,0|10,0:0|0:0,0:0:0:0:
333,324,43040,1,2,0:0:0:0:
327,350,43126,1,0,0:0:0:0:
321,376,43212,6,0,B|357:384|357:384|388:366,1,72,2|2,0:0|0:0,0:0:0:0:
434,319,43469,2,0,B|465:301|465:301|501:309,1,72,0|0,0:0|0:0,0:0:0:0:
476,374,43726,1,2,0:0:0:0:
387,272,43897,6,0,B|391:235,7,36,2|0|2|0|10|0|2|0,0:0|0:0|0:0|0:0|0:0|0:0|0:0|0:0,0:0:0:0:
343,189,44583,2,0,B|347:152,7,36,2|0|2|0|10|0|2|0,0:0|0:0|0:0|0:0|0:0|0:0|0:0|0:0,0:0:0:0:
299,106,45269,6,0,B|303:69,3,36,2|0|2|0,0:0|0:0|0:0|0:0,0:0:0:0:
241,140,45612,2,0,B|237:175,3,36,10|0|2|0,0:0|0:0|0:0|0:0,0:0:0:0:
193,92,45954,6,0,B|197:55,1,36,2|0,0:0|0:0,0:0:0:0:
135,126,46126,2,0,B|131:161,1,36,2|0,0:0|0:0,0:0:0:0:
87,78,46297,5,2,0:0:0:0:
54,104,46383,1,2,0:0:0:0:
21,130,46469,1,2,0:0:0:0:
47,163,46554,1,2,0:0:0:0:
73,196,46640,6,0,B|59:232|59:232|85:301|85:301|73:337,2,151.199995385742,6|0|0,0:0|0:0|0:0,0:0:0:0:
15,302,47326,5,2,0:0:0:0:
130,230,47497,1,0,0:0:0:0:
150,321,47669,2,0,B|162:287,1,36,8|0,0:0|0:0,0:0:0:0:
182,378,47926,1,2,2:0:0:0:
293,278,48183,5,2,2:0:0:0:
258,271,48269,1,0,0:0:0:0:
227,288,48354,5,8,0:0:0:0:
245,292,48440,1,0,0:0:0:0:
263,297,48526,1,0,0:0:0:0:
279,288,48612,1,0,0:0:0:0:
293,278,48697,6,0,B|338:251|338:251|392:263,1,108,2|0,0:0|0:0,0:0:0:0:
428,336,49040,2,0,B|382:309|382:309|365:257,1,108,8|0,0:0|0:0,0:0:0:0:
411,191,49383,2,0,B|411:243|411:243|374:284,1,108,2|0,0:0|0:0,0:0:0:0:
346,195,49726,5,8,0:0:0:0:
319,189,49812,1,0,0:0:0:0:
292,183,49897,2,0,B|256:175,1,36,0|2,0:0|2:0,0:0:0:0:
195,158,50069,1,0,0:0:0:0:
205,140,50154,2,0,B|169:132,1,36
57,121,50326,2,0,B|78:152|78:152|113:161,1,72,0|0,0:0|0:0,0:0:0:0:
240,88,50754,5,2,0:0:0:0:
246,61,50840,1,0,0:0:0:0:
347,16,51012,2,0,B|314:0|314:0|281:9,1,72,0|0,0:0|0:0,0:0:0:0:
437,34,51440,1,2,0:0:0:0:
431,61,51526,1,0,0:0:0:0:
329,105,51697,2,0,B|362:121|362:121|395:112,1,72,0|0,0:0|0:0,0:0:0:0:
385,330,52126,6,0,B|401:297|401:297|392:264,1,72,2|0,0:0|0:0,0:0:0:0:
314,222,52469,1,8,0:0:0:0:
341,228,52554,1,0,0:0:0:0:
178,262,52726,2,0,B|227:286|227:286|277:272,1,108,0|0,0:0|0:0,0:0:0:0:
325,338,53154,1,8,0:0:0:0:
298,332,53240,1,0,0:0:0:0:
189,250,53497,6,0,B|156:234|156:234|123:243,1,72,2|0,0:0|0:0,0:0:0:0:
81,321,53840,1,8,0:0:0:0:
87,294,53926,1,0,0:0:0:0:
22,200,54097,1,0,0:0:0:0:
26,224,54183,6,0,B|36:259,1,36,2|0,0:0|0:0,0:0:0:0:
94,152,54354,2,0,B|86:187,1,36,0|0,0:0|0:0,0:0:0:0:
34,114,54526,1,8,0:0:0:0:
27,79,54612,1,0,0:0:0:0:
19,43,54697,1,0,0:0:0:0:
54,54,54783,1,0,0:0:0:0:
89,65,54869,6,0,B|141:83|141:83|189:65,1,108,2|0,0:0|0:0,0:0:0:0:
236,105,55212,5,8,0:0:0:0:
255,163,55297,2,0,B|249:198,1,36,0|0,0:0|0:0,0:0:0:0:
268,256,55469,1,0,0:0:0:0:
286,313,55554,5,2,0:0:0:0:
304,316,55640,1,0,0:0:0:0:
322,318,55726,1,0,0:0:0:0:
333,303,55812,1,0,0:0:0:0:
344,289,55897,2,0,B|379:294,1,36,8|0,0:0|0:0,0:0:0:0:
424,335,56069,2,0,B|459:340,1,36,0|0,0:0|0:0,0:0:0:0:
504,299,56240,6,0,B|509:264,7,36,2|0|2|0|10|0|2|0,0:0|0:0|0:0|0:0|0:0|0:0|0:0|0:0,0:0:0:0:
468,219,56926,2,0,B|473:184,3,36,2|0|2|0,0:0|0:0|0:0|0:0,0:0:0:0:
432,139,57269,1,8,0:0:0:0:
396,133,57354,1,2,2:0:0:0:
360,127,57440,1,2,2:0:0:0:
346,93,57526,1,2,0:2:0:0:
334,58,57612,6,0,B|275:48|275:48|228:76,1,115.2,4|8,0:0|0:0,0:0:0:0:
133,106,58126,2,0,B|191:116|191:116|239:88,1,115.2,2|0,0:0|0:0,0:0:0:0:
296,164,58640,1,2,0:0:0:0:
289,143,58726,1,0,0:0:0:0:
251,249,58983,6,0,B|310:259|310:259|357:231,1,115.2,8|0,0:0|0:0,0:0:0:0:
452,201,59497,2,0,B|394:191|394:191|346:219,1,115.2,2|0,0:0|0:0,0:0:0:0:
289,143,60012,1,2,0:0:0:0:
296,164,60097,1,0,0:0:0:0:
270,356,60354,6,0,B|280:297|280:297|252:250,1,115.2,8|0,0:0|0:0,0:0:0:0:
222,155,60869,2,0,B|212:213|212:213|240:261,1,115.2,2|0,0:0|0:0,0:0:0:0:
164,318,61383,1,2,0:0:0:0:
185,311,61469,1,0,0:0:0:0:
88,361,61726,5,8,0:0:0:0:
109,368,61812,1,0,0:0:0:0:
12,318,62069,1,0,0:0:0:0:
33,311,62154,1,0,0:0:0:0:
83,255,62412,2,0,B|88:226,1,28.8,2|0,0:2|0:0,0:0:0:0:
32,176,62583,2,0,B|27:147,1,28.8,2|0,0:2|0:0,0:0:0:0:
77,91,62754,5,2,0:2:0:0:
81,53,62869,1,2,0:2:0:0:
45,67,62983,1,2,0:2:0:0:
134,134,63097,6,0,B|163:139|163:139|187:125,1,57.6,4|0,0:2|0:0,0:0:0:0:
244,167,64126,2,0,B|268:153|268:153|297:158,1,57.6,4|0,0:0|0:0,0:0:0:0:
346,209,64469,6,0,B|286:244|286:244|213:231,1,144,4|2,0:0|0:3,0:0:0:0:
205,162,64983,2,0,B|265:127|265:127|337:139,1,144,4|2,0:0|0:3,0:0:0:0:
315,257,65497,6,0,B|291:271|291:271|262:266,1,57.6,4|0,0:0|0:0,0:0:0:0:
368,75,65840,6,0,B|403:81,5,36,4|0|0|0|2|0,0:0|0:0|0:0|0:0|0:3|0:0,0:0:0:0:
443,138,66354,2,0,B|478:144,5,36,4|0|0|0|2|0,0:0|0:0|0:0|0:0|0:3|0:0,0:0:0:0:
483,213,66869,1,4,0:0:0:0:
478,241,66954,1,0,0:0:0:0:
473,269,67040,1,0,0:0:0:0:
468,297,67126,1,0,0:0:0:0:
463,325,67212,5,6,0:0:0:0:
358,248,67554,2,0,B|376:251,6,18,2|2|2|2|2|2|2,0:0|0:0|0:0|0:0|0:0|0:0|0:0,0:0:0:0:
294,237,67897,5,2,0:0:0:0:
233,259,68154,2,0,B|245:276,2,21.5999993408203,2|0|0,0:0|0:0|0:0,0:0:0:0:
191,308,68412,1,2,0:0:0:0:
166,171,68583,6,0,B|127:189|127:189|84:184,1,86.3999973632813,6|0,0:0|0:0,0:0:0:0:
48,131,68840,1,0,0:0:0:0:
29,149,68926,2,0,B|47:187|47:187|42:232,1,86.3999973632813,8|0,0:0|0:0,0:0:0:0:
116,357,69269,1,2,0:0:0:0:
94,353,69354,1,0,0:0:0:0:
73,350,69440,1,0,0:0:0:0:
54,359,69526,1,0,0:0:0:0:
35,369,69612,1,8,0:0:0:0:
7,299,69783,1,0,0:0:0:0:
101,280,69954,6,0,B|143:272|143:272|183:288,1,86.3999973632813,2|0,0:0|0:0,0:0:0:0:
204,350,70212,1,0,0:0:0:0:
227,337,70297,2,0,B|270:329,1,43.1999986816407,8|0,0:0|0:0,0:0:0:0:
295,271,70469,1,0,0:0:0:0:
354,353,70640,2,0,B|344:312,1,43.1999986816407,2|0,0:0|0:0,0:0:0:0:
322,214,70812,2,0,B|312:173,1,43.1999986816407,0|0,0:0|0:0,0:0:0:0:
370,254,70983,1,8,0:0:0:0:
389,273,71069,2,0,B|427:254|427:254|470:259,1,86.3999973632813,0|0,0:0|0:0,0:0:0:0:
506,134,71326,6,0,B|467:152|467:152|424:147,1,86.3999973632813,2|0,0:0|0:0,0:0:0:0:
387,94,71583,1,0,0:0:0:0:
369,112,71669,2,0,B|387:151|387:151|382:194,1,86.3999973632813,8|0,0:0|0:0,0:0:0:0:
316,34,72012,2,0,B|312:77,1,43.1999986816407,2|0,0:0|0:0,0:0:0:0:
246,91,72183,2,0,B|241:135,1,43.1999986816407,0|0,0:0|0:0,0:0:0:0:
177,149,72354,2,0,B|138:167|138:167|95:163,1,86.3999973632813,8|0,0:0|0:0,0:0:0:0:
220,197,72697,5,2,0:0:0:0:
248,327,72869,1,0,0:0:0:0:
156,365,73040,2,0,B|199:371,1,43.1999986816407,8|0,0:0|0:0,0:0:0:0:
248,327,73212,2,0,B|291:333,1,43.1999986816407,0|0,0:0|0:0,0:0:0:0:
234,262,73383,1,2,0:0:0:0:
212,264,73469,1,0,0:0:0:0:
191,267,73554,1,0,0:0:0:0:
169,269,73640,1,0,0:0:0:0:
148,272,73726,1,8,0:0:0:0:
435,145,74069,6,0,B|396:163|396:163|353:158,1,86.3999973632813,2|0,0:0|0:0,0:0:0:0:
316,105,74326,1,0,0:0:0:0:
298,123,74412,2,0,B|316:162|316:162|311:205,1,86.3999973632813,8|0,0:0|0:0,0:0:0:0:
214,138,74754,1,2,0:0:0:0:
232,120,74840,2,0,B|214:81|214:81|219:38,1,86.3999973632813,0|0,0:0|0:0,0:0:0:0:
272,1,75097,1,8,0:0:0:0:
156,42,75269,1,0,0:0:0:0:
135,43,75354,1,0,0:0:0:0:
115,44,75440,6,0,B|132:83|132:83|128:126,1,86.3999973632813,2|0,0:0|0:0,0:0:0:0:
75,163,75697,1,0,0:0:0:0:
93,181,75783,2,0,B|89:224,1,43.1999986816407,8|0,0:0|0:0,0:0:0:0:
120,281,75954,1,0,0:0:0:0:
5,369,76126,1,2,0:0:0:0:
4,349,76212,2,0,B|43:332|43:332|86:336,1,86.3999973632813,0|0,0:0|0:0,0:0:0:0:
120,281,76469,2,0,B|163:285,1,43.1999986816407,8|0,0:0|0:0,0:0:0:0:
218,319,76640,1,0,0:0:0:0:
253,193,76812,6,0,B|270:232|270:232|266:275,1,86.3999973632813,2|0,0:0|0:0,0:0:0:0:
247,375,77154,1,8,0:0:0:0:
266,366,77240,1,0,0:0:0:0:
286,358,77326,1,0,0:0:0:0:
308,360,77412,1,0,0:0:0:0:
329,362,77497,2,0,B|415:370,1,86.3999973632813,2|0,0:0|0:0,0:0:0:0:
466,279,77754,1,0,0:0:0:0:
482,300,77840,2,0,B|492:259|492:259|484:215,1,86.3999973632813,8|0,0:0|0:0,0:0:0:0:
416,96,78183,5,2,0:0:0:0:
336,201,78354,1,0,0:0:0:0:
315,204,78440,1,0,0:0:0:0:
293,207,78526,1,8,0:0:0:0:
273,201,78612,1,0,0:0:0:0:
253,193,78697,1,0,0:0:0:0:
173,298,78869,5,2,0:0:0:0:
123,177,79040,1,2,0:0:0:0:
119,156,79126,1,0,0:0:0:0:
116,133,79212,2,0,L|158:126,1,43.1999986816407,10|2,0:0|0:0,0:0:0:0:
220,83,79383,2,0,L|263:77,1,43.1999986816407,2|2,0:0|0:0,0:0:0:0:
324,34,79554,6,0,B|306:73|306:73|312:116,1,86.3999973632813,6|0,0:0|0:0,0:0:0:0:
366,152,79812,1,0,0:0:0:0:
383,134,79897,2,0,B|426:127|426:127|465:145,1,86.3999973632813,8|0,0:0|0:0,0:0:0:0:
317,266,80240,1,2,0:0:0:0:
315,244,80326,1,0,0:0:0:0:
312,223,80412,1,0,0:0:0:0:
310,201,80497,1,0,0:0:0:0:
307,180,80583,1,8,0:0:0:0:
253,144,80754,1,0,0:0:0:0:
205,281,80926,6,0,B|223:242|223:242|217:199,1,86.3999973632813,2|0,0:0|0:0,0:0:0:0:
163,163,81183,1,0,0:0:0:0:
146,181,81269,2,0,B|103:188,1,43.1999986816407,8|0,0:0|0:0,0:0:0:0:
67,242,81440,1,0,0:0:0:0:
9,163,81612,2,0,B|13:206,1,43.1999986816407,2|0,0:0|0:0,0:0:0:0:
30,294,81783,2,0,B|35:338,1,43.1999986816407,0|0,0:0|0:0,0:0:0:0:
88,373,81954,1,8,0:0:0:0:
105,355,82040,2,0,B|148:348|148:348|187:366,1,86.3999973632813,0|0,0:0|0:0,0:0:0:0:
241,248,82297,6,0,B|280:266|280:266|323:260,1,86.3999973632813,2|0,0:0|0:0,0:0:0:0:
357,207,82554,1,0,0:0:0:0:
339,190,82640,2,0,B|332:147|332:147|350:108,1,86.3999973632813,8|0,0:0|0:0,0:0:0:0:
440,195,82983,2,0,B|447:238,1,43.1999986816407,2|0,0:0|0:0,0:0:0:0:
412,289,83154,2,0,B|419:332,1,43.1999986816407,0|0,0:0|0:0,0:0:0:0:
384,383,83326,2,0,B|345:365|345:365|302:371,1,86.3999973632813,8|0,0:0|0:0,0:0:0:0:
213,306,83669,5,2,0:0:0:0:
237,184,83840,1,0,0:0:0:0:
142,155,84012,2,0,B|185:149,1,43.1999986816407,8|0,0:0|0:0,0:0:0:0:
237,184,84183,2,0,B|280:177,1,43.1999986816407,0|0,0:0|0:0,0:0:0:0:
225,245,84354,1,2,0:0:0:0:
203,241,84440,1,0,0:0:0:0:
182,238,84526,1,0,0:0:0:0:
160,234,84612,1,0,0:0:0:0:
139,231,84697,1,8,0:0:0:0:
421,66,85040,6,0,B|439:105|439:105|433:148,1,86.3999973632813,2|0,0:0|0:0,0:0:0:0:
379,184,85297,1,0,0:0:0:0:
362,166,85383,2,0,B|319:159|319:159|280:177,1,86.3999973632813,8|0,0:0|0:0,0:0:0:0:
145,117,85726,1,2,0:0:0:0:
162,135,85812,2,0,B|205:142|205:142|244:124,1,86.3999973632813,0|0,0:0|0:0,0:0:0:0:
295,85,86069,1,8,0:0:0:0:
280,177,86240,1,0,0:0:0:0:
284,204,86326,1,0,0:0:0:0:
264,223,86412,6,0,B|248:262|248:262|257:304,1,86.3999973632813,2|0,0:0|0:0,0:0:0:0:
315,335,86669,1,0,0:0:0:0:
332,315,86754,2,0,B|375:316,1,43.1999986816407,8|0,0:0|0:0,0:0:0:0:
418,268,86926,1,0,0:0:0:0:
399,133,87097,1,2,0:0:0:0:
374,142,87183,2,0,B|357:182|357:182|368:223,1,86.3999973632813,0|0,0:0|0:0,0:0:0:0:
418,268,87440,2,0,B|461:267,1,43.1999986816407,8|0,0:0|0:0,0:0:0:0:
504,218,87612,1,0,0:0:0:0:
502,381,87783,6,0,B|466:357|466:357|422:358,1,86.3999973632813,2|0,0:0|0:0,0:0:0:0:
257,305,88126,5,8,0:0:0:0:
235,305,88212,1,0,0:0:0:0:
214,306,88297,1,0,0:0:0:0:
196,319,88383,1,0,0:0:0:0:
179,332,88469,2,0,B|93:330,1,86.3999973632813,2|0,0:0|0:0,0:0:0:0:
57,229,88726,1,0,0:0:0:0:
37,246,88812,2,0,B|24:203|24:203|37:163,1,86.3999973632813,8|0,0:0|0:0,0:0:0:0:
77,39,89154,5,2,0:0:0:0:
166,135,89326,1,0,0:0:0:0:
187,130,89412,1,0,0:0:0:0:
208,126,89497,1,8,0:0:0:0:
229,121,89583,1,0,0:0:0:0:
250,117,89669,1,0,0:0:0:0:
339,213,89840,5,2,0:0:0:0:
300,338,90012,1,2,0:0:0:0:
295,317,90097,1,0,0:0:0:0:
291,296,90183,1,10,0:0:0:0:
322,288,90269,1,2,0:0:0:0:
354,282,90354,1,2,0:0:0:0:
385,275,90440,1,2,0:0:0:0:
417,269,90526,6,0,B|406:226|406:226|420:185,1,86.3999973632813,6|0,0:0|0:0,0:0:0:0:
480,160,90783,1,0,0:0:0:0:
465,139,90869,2,0,B|423:148|423:148|380:134,1,86.3999973632813,8|0,0:0|0:0,0:0:0:0:
258,51,91212,1,2,0:0:0:0:
273,72,91297,2,0,B|314:62|314:62|357:76,1,86.3999973632813,0|0,0:0|0:0,0:0:0:0:
394,23,91554,1,8,0:0:0:0:
356,193,91726,1,0,0:0:0:0:
185,133,91897,6,0,B|226:122|226:122|268:137,1,86.3999973632813,2|0,0:0|0:0,0:0:0:0:
292,195,92154,1,0,0:0:0:0:
271,208,92240,2,0,B|267:251,1,43.1999986816407,8|0,0:0|0:0,0:0:0:0:
230,303,92412,1,0,0:0:0:0:
326,345,92583,2,0,B|282:341,1,43.1999986816407,2|0,0:0|0:0,0:0:0:0:
191,355,92754,2,0,B|147:351,1,43.1999986816407,0|0,0:0|0:0,0:0:0:0:
95,313,92926,1,8,0:0:0:0:
116,298,93012,2,0,B|106:257|106:257|120:214,1,86.3999973632813,0|0,0:0|0:0,0:0:0:0:
94,80,93269,5,6,0:0:0:0:
62,108,93354,1,2,0:0:0:0:
19,118,93440,1,6,0:0:0:0:
59,130,93526,1,2,0:0:0:0:
88,162,93612,1,6,0:0:0:0:
90,165,93954,6,0,B|118:174|118:174|145:167,1,57.6,4|0,0:3|0:0,0:0:0:0:
191,213,94212,6,0,B|224:204|224:204|259:215,1,72,4|0,0:3|0:0,0:0:0:0:
320,165,94469,6,0,B|362:178|362:178|401:167,1,86.3999973632813,4|0,0:3|0:0,0:0:0:0:
412,76,94726,6,0,B|362:60|362:60|316:73,1,100.799996923828,4|0,0:3|0:0,0:0:0:0:
320,150,94983,6,0,B|362:163|362:163|401:152,1,86.3999973632813,4|0,0:3|0:0,0:0:0:0:
419,48,95240,6,0,B|362:29|362:29|309:44,1,115.2,4|0,0:3|0:0,0:0:0:0:
224,67,95497,6,0,B|164:83,1,50.3999984619141,4|0,0:3|0:0,0:0:0:0:
77,110,95669,5,2,3:0:0:0:
18,129,95783,1,2,2:0:0:0:
87,200,95897,1,2,2:0:0:0:
146,181,96012,6,0,B|146:223|146:223|122:260,6,86.3999973632813,6|2|10|2|2|2|10,0:0|0:0|0:0|0:0|0:0|0:0|0:0,0:0:0:0:
104,304,97212,1,2,0:0:0:0:
112,284,97297,1,2,0:0:0:0:
122,260,97383,6,0,B|160:238|160:238|202:242,6,86.3999973632813,6|2|10|2|2|2|10,0:0|0:0|0:0|0:0|0:0|0:0|0:0,0:0:0:0:
228,239,98583,1,2,0:0:0:0:
250,236,98669,1,2,0:0:0:0:
272,233,98754,5,6,0:0:0:0:
299,268,98840,1,0,0:0:0:0:
326,303,98926,1,2,0:0:0:0:
369,297,99012,1,0,0:0:0:0:
412,291,99097,2,0,L|405:248,1,43.1999986816407,10|0,0:0|0:0,0:0:0:0:
447,192,99269,2,0,L|440:149,1,43.1999986816407,2|0,0:0|0:0,0:0:0:0:
383,107,99440,5,6,0:0:0:0:
356,72,99526,1,2,0:0:0:0:
329,37,99612,1,2,0:0:0:0:
286,43,99697,1,0,0:0:0:0:
243,48,99783,2,0,L|250:91,1,43.1999986816407,10|0,0:0|0:0,0:0:0:0:
208,148,99954,2,0,L|215:191,1,43.1999986816407,2|0,0:0|0:0,0:0:0:0:
173,248,100126,5,6,0:0:0:0:
130,254,100212,1,0,0:0:0:0:
87,260,100297,2,0,L|44:267,1,43.1999986816407,2|2,0:0|0:0,0:0:0:0:
85,221,100469,5,14,0:0:0:0:
91,264,100554,1,0,0:0:0:0:
97,307,100640,2,0,L|104:350,1,43.1999986816407,2|2,0:0|0:0,0:0:0:0:
58,309,100812,5,6,0:0:0:0:
101,303,100897,1,0,0:0:0:0:
144,297,100983,2,0,L|187:290,1,43.1999986816407,2|2,0:0|0:0,0:0:0:0:
146,336,101154,5,14,0:0:0:0:
140,293,101240,1,0,0:0:0:0:
134,250,101326,2,0,L|127:207,1,43.1999986816407,2|2,0:0|0:0,0:0:0:0:
116,138,101497,5,6,0:0:0:0:
56,169,106297,6,0,L|58:140,1,28.8,0|0,0:0|0:0,0:0:0:0:
107,98,106469,6,0,L|104:69,1,28.8,0|0,0:0|0:0,0:0:0:0:
56,27,106640,6,0,L|17:23,2,38.4,2|2|2,0:0|0:0|0:0,0:0:0:0:
105,69,106983,6,0,B|160:88|160:88|266:49|266:49|320:69,1,230.4,6|0,0:0|0:0,0:0:0:0:
323,72,108012,1,2,0:0:0:0:
484,92,108354,6,0,B|429:111|429:111|323:72|323:72|269:92,1,230.4,2|0,0:0|0:0,0:0:0:0:
266,95,109383,1,2,0:0:0:0:
107,115,109726,6,0,B|162:134|162:134|268:95|268:95|322:115,1,230.4,2|0,0:0|0:0,0:0:0:0:
325,118,110754,1,2,0:0:0:0:
486,138,111097,6,0,B|431:157|431:157|325:118|325:118|271:138,1,230.4,2|0,0:0|0:0,0:0:0:0:
268,141,112126,1,2,0:0:0:0:
228,379,112469,6,0,B|195:283|195:283|230:189,1,201.6,6|0,0:0|0:0,0:0:0:0:
136,207,113154,6,0,B|182:224,1,43.1999986816407,8|0,0:0|0:0,0:0:0:0:
247,249,113326,6,0,B|300:268|300:268|354:250,1,115.2,2|0,0:0|0:0,0:0:0:0:
374,119,113840,6,0,B|407:215|407:215|372:309,1,201.6,2|0,0:0|0:0,0:0:0:0:
466,291,114526,6,0,B|420:274,1,43.1999986816407,8|0,0:0|0:0,0:0:0:0:
355,249,114697,6,0,B|301:229|301:229|247:247,1,115.2,2|0,0:0|0:0,0:0:0:0:
54,310,115212,5,6,0:0:0:0:
54,310,116583,5,6,0:0:0:0:
64,285,116669,1,0,0:0:0:0:
73,260,116754,1,0,0:0:0:0:
64,234,116840,1,0,0:0:0:0:
55,209,116926,5,8,1:0:0:0:
45,233,117012,1,0,0:0:0:0:
36,259,117097,1,0,0:0:0:0:
45,285,117183,1,0,0:0:0:0:
54,309,117269,5,2,1:0:0:0:
80,319,117354,1,2,1:0:0:0:
116,332,117440,5,2,1:0:0:0:
143,322,117526,1,2,1:0:0:0:
180,310,117612,6,0,L|195:272,1,36,10|0,1:0|0:0,0:0:0:0:
188,247,117697,2,0,L|181:206,1,36,2|0,1:0|0:0,0:0:0:0:
198,187,117783,2,0,L|221:154,1,36,2|0,1:0|0:0,0:0:0:0:
208,125,117869,2,0,L|191:85,1,36,2|0,1:0|0:0,0:0:0:0:
218,67,117954,5,6,1:0:0:0:
