osu file format v14

[General]
AudioFilename: audio.mp3
AudioLeadIn: 0
PreviewTime: 80030
Countdown: 0
SampleSet: Soft
StackLeniency: 0.4
Mode: 0
LetterboxInBreaks: 0
WidescreenStoryboard: 1

[Editor]
Bookmarks: 19830,32230,43430,54630,70630,80430,97730,100530,103330,114530,122930,125730
DistanceSpacing: 1.5
BeatDivisor: 4
GridSize: 32
TimelineZoom: 1.6

[Metadata]
Title:7thSense
TitleUnicode:7thSense
Artist:Sakuzyo
ArtistUnicode:削除
Creator:Shyotamaze
Version:MASTER
Source:maimai PiNK
Tags:artcore Ellyu handsome muscle Deppyforce reAdvent
BeatmapID:2138048
BeatmapSetID:704758

[Difficulty]
HPDrainRate:6
CircleSize:4.5
OverallDifficulty:7.5
ApproachRate:8.8
SliderMultiplier:1.9
SliderTickRate:1

[Events]
//Background and Video events
0,0,"Sense.jpg",0,0
//Break Periods
2,103729,113501
//Storyboard Layer 0 (Background)
//Storyboard Layer 1 (Fail)
//Storyboard Layer 2 (Pass)
//Storyboard Layer 3 (Foreground)
//Storyboard Layer 4 (Overlay)
//Storyboard Sound Samples

[TimingPoints]
240,400,7,2,2,60,1,0
8668,400,7,2,1,60,1,0
8668,-200,7,2,1,60,0,0
19430,400,7,2,1,60,1,0
19830,400,7,2,1,70,1,0
19830,-133.333333333333,7,2,1,70,0,0
27830,-200,7,2,1,70,0,0
28230,-133.333333333333,7,2,1,70,0,0
32230,400,7,2,2,70,1,0
33030,-66.6666666666667,7,2,1,70,0,0
33230,-100,7,2,1,70,0,0
34630,-66.6666666666667,7,2,1,70,0,0
34830,-100,7,2,1,70,0,0
35830,-66.6666666666667,7,2,1,70,0,0
36030,-100,7,2,1,70,0,0
37430,-66.6666666666667,7,2,1,70,0,0
37630,-100,7,2,1,70,0,0
38630,-66.6666666666667,7,2,1,70,0,0
38830,-100,7,2,1,70,0,0
40230,-66.6666666666667,7,2,1,70,0,0
40430,-100,7,2,1,70,0,0
41430,-66.6666666666667,7,2,1,70,0,0
41630,-100,7,2,1,70,0,0
43430,-100,7,2,4,70,0,0
43530,-100,7,2,1,70,0,0
44230,-66.6666666666667,7,2,1,70,0,0
44430,-100,7,2,1,70,0,0
45830,-66.6666666666667,7,2,1,70,0,0
46030,-100,7,2,1,70,0,0
47030,-66.6666666666667,7,2,1,70,0,0
47230,-100,7,2,1,70,0,0
48630,-66.6666666666667,7,2,1,70,0,0
48730,-100,7,2,1,70,0,0
49830,-66.6666666666667,7,2,1,70,0,0
50030,-100,7,2,1,70,0,0
51430,-66.6666666666667,7,2,1,70,0,0
51530,-100,7,2,1,70,0,0
52630,-66.6666666666667,7,2,1,70,0,0
52730,-100,7,2,1,70,0,0
54630,400,5,2,1,70,1,0
54630,-50,5,2,4,70,0,0
54830,-50,5,2,1,70,0,0
56230,-86.9565217391304,5,2,1,70,0,0
56630,-50,5,2,4,70,0,0
56830,-50,5,2,1,70,0,0
58230,-86.9565217391304,5,2,1,70,0,0
58630,-50,5,2,4,70,0,0
58830,-50,5,2,1,70,0,0
60230,-86.9565217391304,5,2,1,70,0,0
60630,-50,5,2,1,70,0,0
62230,-86.9565217391304,5,2,1,70,0,0
62630,-50,5,2,4,70,0,0
62830,-50,5,2,1,70,0,0
64230,-86.9565217391304,5,2,1,70,0,0
64630,-50,5,2,4,70,0,0
64830,-50,5,2,1,70,0,0
66230,-86.9565217391304,5,2,1,70,0,0
66630,-50,5,2,4,70,0,0
66830,-50,5,2,1,70,0,0
68230,-86.9565217391304,5,2,1,70,0,0
68630,-80,5,2,1,70,0,0
70030,-100,5,2,1,70,0,0
70630,400,6,2,1,60,1,0
77830,-400,7,2,1,60,0,0
79030,400,7,2,3,60,1,0
79030,-133.333333333333,7,2,3,60,0,0
79730,-100,7,2,1,60,0,0
80430,400,7,2,1,80,1,0
80430,-80,7,2,1,80,0,1
97730,400,7,2,1,70,1,0
99130,-232.5,7,2,1,70,0,0
99830,-100,7,2,1,70,0,0
100430,-80,7,2,1,70,0,0
103330,-66.6666666666667,7,2,1,70,0,0
103530,-100,7,2,1,70,0,0
122530,-300,7,2,1,70,0,0
122830,-100,7,2,1,70,0,0

[Colours]
Combo1 : 234,72,72
Combo2 : 187,205,150
Combo3 : 131,171,190
Combo4 : 255,232,182
Combo5 : 244,136,136

[HitObjects]
174,119,8668,5,6,0:0:0:0:
101,180,8868,1,2,0:0:0:0:
140,31,9268,1,2,0:0:0:0:
45,35,9668,1,2,0:0:0:0:
20,127,10068,1,2,0:0:0:0:
101,180,10468,1,2,0:0:0:0:
140,31,10868,1,2,0:0:0:0:
174,119,11068,1,2,0:0:0:0:
315,312,11468,5,2,0:0:0:0:
385,249,11668,1,2,0:0:0:0:
232,263,12068,1,2,0:0:0:0:
254,170,12468,1,2,0:0:0:0:
348,162,12868,1,2,0:0:0:0:
385,249,13268,1,2,0:0:0:0:
232,263,13668,1,2,0:0:0:0:
315,312,13868,1,2,0:0:0:0:
101,180,14268,5,6,0:0:0:0:
174,119,14468,1,2,0:0:0:0:
136,270,14868,1,2,0:0:0:0:
232,263,15268,1,2,0:0:0:0:
254,170,15668,1,2,0:0:0:0:
174,119,16068,1,2,0:0:0:0:
136,270,16468,1,2,0:0:0:0:
101,180,16668,1,2,0:0:0:0:
421,100,17068,37,2,0:0:0:0:
348,162,17268,1,2,0:0:0:0:
503,150,17668,1,2,0:0:0:0:
482,241,18068,1,2,0:0:0:0:
385,249,18468,1,2,0:0:0:0:
348,162,18868,1,2,0:0:0:0:
503,150,19268,1,2,0:0:0:0:
386,74,19430,1,2,0:0:0:0:
396,79,19530,1,2,0:0:0:0:
405,85,19630,1,2,0:0:0:0:
413,92,19730,1,2,0:0:0:0:
421,100,19830,6,0,B|348:162|348:162|402:152,2,142.500005435944,6|0|0,0:0|0:0|0:0,0:0:0:0:
454,234,20830,1,2,0:0:0:0:
454,234,20930,2,0,L|385:248,1,71.2500027179719,2|0,0:0|0:0,0:0:0:0:
292,238,21230,2,0,L|223:252,1,71.2500027179719,2|0,0:0|0:0,0:0:0:0:
348,162,21630,1,2,0:0:0:0:
384,248,21830,1,2,0:0:0:0:
330,324,22030,1,2,0:0:0:0:
292,238,22230,1,2,0:0:0:0:
384,248,22430,1,2,0:0:0:0:
384,248,22530,1,2,0:0:0:0:
384,248,22630,6,0,B|477:229|477:229|425:211,1,142.500005435944,2|0,0:0|0:0,0:0:0:0:
292,238,23230,2,0,L|223:252,1,71.2500027179719,2|0,0:0|0:0,0:0:0:0:
100,342,23630,2,0,L|169:328,1,71.2500027179719,2|0,0:0|0:0,0:0:0:0:
130,242,24030,2,0,L|61:256,1,71.2500027179719,2|0,0:0|0:0,0:0:0:0:
261,338,24430,2,0,L|330:324,1,71.2500027179719,2|0,0:0|0:0,0:0:0:0:
384,248,24830,1,2,0:0:0:0:
348,162,25030,1,2,0:0:0:0:
292,238,25230,1,2,0:0:0:0:
292,238,25330,1,2,0:0:0:0:
292,238,25430,38,0,B|199:257|199:257|234:225,1,142.500005435944,2|0,0:0|0:0,0:0:0:0:
384,248,26030,2,0,L|453:234,1,71.2500027179719
331,324,26430,1,2,0:0:0:0:
292,238,26630,1,2,0:0:0:0:
348,162,26830,2,0,L|417:148,1,71.2500027179719,2|0,0:0|0:0,0:0:0:0:
292,238,27230,2,0,L|223:252,1,71.2500027179719
348,162,27630,1,2,0:0:0:0:
331,324,27830,6,0,L|262:338,1,71.2500027179719,2|0,0:0|0:0,0:0:0:0:
384,248,28230,6,0,B|477:229|477:229|425:211,1,142.500005435944,2|0,0:0|0:0,0:0:0:0:
256,152,28830,2,0,L|187:166,1,71.2500027179719,2|0,0:0|0:0,0:0:0:0:
348,162,29230,2,0,L|334:93,1,71.2500027179719,2|0,0:0|0:0,0:0:0:0:
384,248,29630,2,0,L|453:234,1,71.2500027179719,2|0,0:0|0:0,0:0:0:0:
292,238,30030,2,0,L|306:307,1,71.2500027179719,2|0,0:0|0:0,0:0:0:0:
256,152,30430,1,2,0:0:0:0:
256,152,30630,1,2,0:0:0:0:
256,152,32230,38,0,L|265:198,1,47.5,6|0,3:2|0:0,0:0:0:0:
288,62,32430,2,0,B|329:86|329:86|347:129,1,95,2|0,0:0|0:0,0:0:0:0:
161,162,32730,2,0,B|164:115|164:115|195:79,1,95,2|0,0:0|0:0,0:0:0:0:
285,291,33030,38,0,L|256:152,1,142.500005435944,2|0,0:0|0:0,0:0:0:0:
161,162,33330,22,0,L|170:208,1,47.5,2|0,0:0|0:0,0:0:0:0:
285,291,33530,2,0,L|240:275,1,47.5,2|0,0:0|0:0,0:0:0:0:
74,364,33730,2,0,L|146:302,1,95,2|0,0:0|0:0,0:0:0:0:
330,276,34030,6,0,B|285:291|285:291|241:275,1,95,2|0,0:0|0:0,0:0:0:0:
384,194,34330,2,0,B|419:225|419:225|427:271,1,95,2|0,0:0|0:0,0:0:0:0:
342,65,34630,38,0,B|332:112|332:112|296:142|296:142|286:189,1,142.500005435944,2|0,0:0|0:0,0:0:0:0:
151,38,34930,22,0,L|244:59,1,95,2|0,0:0|0:0,0:0:0:0:
286,188,35230,2,0,L|193:167,1,95,2|0,0:0|0:0,0:0:0:0:
384,194,35530,2,0,L|476:214,1,95,2|0,0:0|0:0,0:0:0:0:
342,65,35830,22,0,B|332:112|332:112|296:142|296:142|286:189,1,142.500005435944,2|0,0:0|0:0,0:0:0:0:
384,194,36130,54,0,L|421:165,1,47.5,2|0,0:0|0:0,0:0:0:0:
330,276,36330,2,0,L|336:322,1,47.5,2|0,0:0|0:0,0:0:0:0:
286,188,36530,2,0,L|193:167,1,95,2|0,0:0|0:0,0:0:0:0:
265,346,36830,2,0,L|330:276,1,95,2|0,0:0|0:0,0:0:0:0:
138,249,37130,2,0,L|167:341,1,95,2|0,0:0|0:0,0:0:0:0:
193,167,37430,22,0,B|286:188|286:188|241:202,1,142.500005435944,2|0,0:0|0:0,0:0:0:0:
66,70,37730,6,0,L|95:161,1,95,2|0,0:0|0:0,0:0:0:0:
286,188,38030,2,0,L|193:167,1,95,2|0,0:0|0:0,0:0:0:0:
73,319,38331,2,0,L|138:249,1,95,2|0,0:0|0:0,0:0:0:0:
241,202,38630,38,0,B|286:188|286:188|193:167,1,142.500005435944,2|0,0:0|0:0,0:0:0:0:
138,249,38930,38,0,L|152:294,1,47.5,2|0,0:0|0:0,0:0:0:0:
226,132,39130,2,0,L|193:167,1,47.5,2|0,0:0|0:0,0:0:0:0:
2,139,39330,2,0,L|95:160,1,95,2|0,0:0|0:0,0:0:0:0:
167,340,39630,2,0,L|138:249,1,95,2|0,0:0|0:0,0:0:0:0:
258,97,39930,2,0,L|193:167,1,95,2|0,0:0|0:0,0:0:0:0:
344,321,40230,38,0,B|329:276|329:276|237:256,1,142.500005435944,2|0,0:0|0:0,0:0:0:0:
2,139,40530,38,0,L|95:160,1,95,2|0,0:0|0:0,0:0:0:0:
167,340,40830,2,0,L|138:249,1,95,2|0,0:0|0:0,0:0:0:0:
258,97,41130,2,0,L|193:167,1,95,2|0,0:0|0:0,0:0:0:0:
344,321,41430,6,0,B|329:276|329:276|237:256,1,142.500005435944,2|0,0:0|0:0,0:0:0:0:
210,345,41730,22,0,L|257:357,1,47.5,2|0,0:0|0:0,0:0:0:0:
145,277,41930,2,0,L|112:312,1,47.5,2|0,0:0|0:0,0:0:0:0:
236,255,42129,2,0,L|222:210,1,47.5,2|0,0:0|0:0,0:0:0:0:
210,345,42430,5,0,0:0:0:0:
145,277,42630,1,0,0:0:0:0:
145,277,42730,1,0,0:0:0:0:
236,255,42930,1,0,0:0:0:0:
155,124,43130,5,0,0:0:0:0:
160,145,43230,1,0,0:0:0:0:
165,166,43330,1,0,0:0:0:0:
171,187,43430,38,0,L|123:186,1,47.5,6|0,1:2|0:0,0:0:0:0:
145,277,43630,1,2,0:0:0:0:
262,165,43830,1,2,3:2:0:0:
262,165,43930,1,2,0:0:0:0:
106,119,44130,1,2,0:0:0:0:
106,119,44230,54,0,B|84:26|84:26|116:60,1,142.500005435944,2|0,3:2|0:0,0:0:0:0:
145,277,44530,6,0,L|110:309,1,47.5,2|0,0:0|3:2,0:0:0:0:
262,165,44730,2,0,L|307:178,1,47.5,2|0,0:0|0:0,0:0:0:0:
106,119,44930,2,0,L|83:26,1,95,2|0,0:0|0:0,0:0:0:0:
171,187,45230,1,2,0:0:0:0:
307,178,45430,5,2,3:2:0:0:
307,178,45530,1,2,0:0:0:0:
307,178,45630,2,0,L|262:165,1,47.5
449,106,45830,22,0,L|398:156,2,71.2500027179719,2|0|0,3:2|0:0|3:2,0:0:0:0:
371,245,46130,38,0,L|392:337,1,95,2|0,0:0|0:0,0:0:0:0:
307,178,46430,1,2,0:0:0:0:
462,223,46630,5,2,3:2:0:0:
462,223,46730,1,2,0:0:0:0:
280,268,46930,1,2,0:0:0:0:
280,268,47030,22,0,B|210:334|210:334|256:322,1,142.500005435944,2|0,3:2|0:0,0:0:0:0:
307,178,47330,38,0,L|262:165,1,47.5,2|0,0:0|3:2,0:0:0:0:
382,290,47530,2,0,L|371:245,1,47.5,2|0,0:0|0:0,0:0:0:0:
466,89,47730,2,0,L|398:155,1,95,2|0,0:0|0:0,0:0:0:0:
280,268,48030,1,2,0:0:0:0:
507,236,48230,37,2,3:2:0:0:
507,236,48330,1,2,0:0:0:0:
507,236,48430,2,0,L|462:223,1,47.5
334,88,48630,38,0,L|316:18,1,71.2500027179719,2|0,3:2|0:0,0:0:0:0:
466,89,48830,21,2,3:2:0:0:
307,178,49030,1,0,3:2:0:0:
371,244,49230,1,2,0:0:0:0:
334,88,49430,1,2,3:2:0:0:
334,88,49530,1,2,0:0:0:0:
280,268,49730,1,2,0:0:0:0:
280,268,49830,54,0,B|225:224|225:224|217:152,1,142.500005435944,2|0,3:2|0:0,0:0:0:0:
222,339,50130,22,0,L|185:309,1,47.5,2|0,0:0|3:2,0:0:0:0:
126,156,50330,2,0,L|132:204,1,47.5,2|0,0:0|0:0,0:0:0:0:
307,178,50530,2,0,L|390:132,1,95,2|0,0:0|0:0,0:0:0:0:
280,268,50830,1,2,0:0:0:0:
217,152,51030,1,2,3:2:0:0:
217,152,51130,1,2,0:0:0:0:
425,225,51330,1,2,0:0:0:0:
425,225,51430,22,0,L|363:260,1,71.2500027179719,2|0,3:2|0:0,0:0:0:0:
239,244,51630,53,2,3:2:0:0:
239,244,51730,2,0,L|280:268,1,47.5,2|0,0:0|3:2,0:0:0:0:
425,225,52030,1,2,0:0:0:0:
307,178,52230,1,2,3:2:0:0:
307,178,52330,1,2,0:0:0:0:
472,292,52530,1,2,0:0:0:0:
472,292,52630,22,0,L|410:327,1,71.2500027179719,2|0,3:2|0:0,0:0:0:0:
238,243,52830,37,0,0:0:0:0:
238,243,52930,1,2,0:0:0:0:
238,243,53030,37,0,3:2:0:0:
267,259,53130,1,2,0:0:0:0:
287,286,53230,1,0,0:0:0:0:
293,318,53330,2,0,L|251:341,1,47.5,2|0,0:0|3:2,0:0:0:0:
217,151,53630,1,2,0:0:0:0:
78,319,53830,1,0,0:0:0:0:
109,330,53930,1,0,0:0:0:0:
141,327,54030,1,0,0:0:0:0:
170,310,54130,1,0,0:0:0:0:
148,183,54230,5,2,3:2:0:0:
148,217,54330,1,2,0:0:0:0:
267,259,54430,5,2,3:2:0:0:
238,243,54530,1,2,0:0:0:0:
170,310,54630,6,0,B|37:283|37:283|78:319,1,190,6|0,1:2|0:0,0:0:0:0:
148,217,54930,2,0,B|237:115|237:115|186:132,1,190,4|0,3:2|0:0,0:0:0:0:
238,243,55230,2,0,B|281:371|281:371|291:316,1,190,4|0,3:2|0:0,0:0:0:0:
170,310,55530,2,0,B|37:283|37:283|78:319,1,190,4|0,3:2|0:0,0:0:0:0:
148,217,55830,2,0,L|210:145,1,95,4|0,3:2|0:0,0:0:0:0:
170,310,56030,1,4,3:2:0:0:
306,176,56230,21,2,0:0:0:0:
311,191,56330,1,2,0:0:0:0:
316,206,56430,1,2,0:0:0:0:
322,222,56530,1,2,0:0:0:0:
328,238,56630,54,0,B|323:289|323:289|250:338|250:338|201:322,1,190,6|0,1:2|0:0,0:0:0:0:
286,155,56930,2,0,B|332:133|332:133|411:172|411:172|422:222,1,190,4|0,3:2|0:0,0:0:0:0:
234,233,57229,2,0,B|192:203|192:203|186:115|186:115|224:81,1,190,4|0,3:2|0:0,0:0:0:0:
328,238,57530,2,0,B|323:289|323:289|250:338|250:338|201:322,1,190,4|0,3:2|0:0,0:0:0:0:
286,155,57830,2,0,B|332:133|332:133|371:152,1,95,4|0,3:2|0:0,0:0:0:0:
234,233,58030,1,4,3:2:0:0:
393,345,58231,22,0,L|397:290,1,54.6250010418892,2|0,0:0|0:0,0:0:0:0:
422,221,58430,2,0,L|417:275,1,54.6250010418892,2|0,0:0|0:0,0:0:0:0:
192,148,58630,22,0,B|147:194|147:194|142:256|142:256|98:302,1,190,6|0,1:2|0:0,0:0:0:0:
278,188,58930,2,0,B|233:234|233:234|228:296|228:296|184:342,1,190,4|0,3:2|0:0,0:0:0:0:
320,273,59230,2,0,B|365:227|365:227|367:196,1,95,4|0,3:2|0:0,0:0:0:0:
287,35,59430,2,0,B|304:97|304:97|330:115,1,95,4|0,3:2|0:0,0:0:0:0:
509,124,59630,2,0,B|446:108|446:108|419:122,1,95,4|0,3:2|0:0,0:0:0:0:
320,273,59830,2,0,B|365:227|365:227|367:196,1,95,4|0,3:2|0:0,0:0:0:0:
287,35,60030,1,4,3:2:0:0:
367,196,60230,53,2,3:2:0:0:
187,184,60430,1,2,3:2:0:0:
458,170,60630,22,0,B|464:217|464:217|439:258,1,95,6|0,3:2|0:0,0:0:0:0:
415,270,60830,2,0,L|420:317,1,47.5,0|0,3:0|3:0,0:0:0:0:
390,280,60930,2,0,B|202:260,1,190,6|0,3:2|0:0,0:0:0:0:
150,180,61230,2,0,B|117:106|117:106|132:44|132:44|150:86,1,190,4|0,3:2|0:0,0:0:0:0:
108,266,61530,2,0,B|60:330|60:330|-1:349|-1:349|26:312,1,190,4|0,3:2|0:0,0:0:0:0:
201,260,61830,2,0,L|295:270,1,95,4|0,3:2|0:0,0:0:0:0:
150,180,62030,1,4,3:2:0:0:
160,346,62230,5,2,0:0:0:0:
175,347,62330,1,2,0:0:0:0:
191,349,62430,1,2,0:0:0:0:
207,351,62530,1,2,0:0:0:0:
224,353,62630,38,0,B|321:364|321:364|396:311,1,190,6|0,1:2|0:0,0:0:0:0:
346,99,62930,2,0,B|288:178|288:178|296:269,1,190,4|0,3:2|0:0,0:0:0:0:
504,333,63230,2,0,B|465:243|465:243|382:205,1,190,4|0,3:2|0:0,0:0:0:0:
224,353,63530,2,0,B|321:364|321:364|396:311,1,190,4|0,3:2|0:0,0:0:0:0:
346,99,63830,2,0,L|289:175,1,95,4|0,3:2|0:0,0:0:0:0:
396,311,64030,1,4,3:2:0:0:
212,229,64230,37,2,0:0:0:0:
212,229,64330,1,2,0:0:0:0:
212,229,64430,2,0,L|157:223,1,54.6250010418892,2|0,0:0|0:0,0:0:0:0:
41,124,64630,38,0,B|68:257|68:257|32:216,1,190,6|0,1:2|0:0,0:0:0:0:
138,131,64930,1,0,0:0:0:0:
138,131,65030,2,0,L|232:142,1,95,4|0,3:2|0:0,0:0:0:0:
232,321,65230,2,0,L|138:310,1,95,4|0,3:2|0:0,0:0:0:0:
212,229,65430,2,0,B|277:236|277:236|311:278|311:278|347:282|347:282|404:251|404:251|340:244,1,285,4|0,3:2|0:0,0:0:0:0:
232,321,65830,2,0,L|138:310,1,95,4|0,3:2|0:0,0:0:0:0:
340,244,66030,1,4,3:2:0:0:
183,105,66230,38,0,L|188:159,1,54.6250010418892,2|0,0:0|0:0,0:0:0:0:
212,229,66429,2,0,L|208:174,1,54.6250010418892,2|0,0:0|0:0,0:0:0:0:
121,23,66630,6,0,B|79:51|79:51|72:139|72:139|110:175,1,190,6|4,1:2|3:2,0:0:0:0:
135,178,66930,2,0,L|138:225,1,47.5,4|0,3:2|0:0,0:0:0:0:
160,181,67030,1,4,3:2:0:0:
306,40,67230,1,4,3:2:0:0:
183,105,67430,2,0,L|308:119,2,126.666666666667,4|4|4,3:2|3:2|3:2,0:0:0:0:
157,103,67830,1,4,3:2:0:0:
312,198,68030,1,4,3:2:0:0:
306,40,68230,21,2,0:0:0:0:
186,184,68430,1,2,0:0:0:0:
379,156,68630,6,0,B|396:213|396:213|361:261,1,118.75,2|0,3:2|0:0,0:0:0:0:
376,77,68930,2,0,B|417:33|417:33|476:40,1,118.75,2|0,3:2|0:0,0:0:0:0:
308,118,69230,2,0,B|250:105|250:105|226:50|226:50|170:36,2,178.125,0|0|0,3:2|3:2|3:2,0:0:0:0:
173,115,70030,6,0,L|142:107,2,31.6666666666667
308,118,70630,38,0,P|247:185|283:267,1,190,6|0,0:0|0:0,0:0:0:0:
212,380,71230,2,0,P|185:294|96:285,1,190,2|0,0:0|0:0,0:0:0:0:
32,167,71830,2,0,P|72:190|118:187,1,95,2|0,0:0|0:0,0:0:0:0:
173,114,72230,1,2,0:0:0:0:
32,167,72430,2,0,P|119:187|173:115,1,190,2|0,0:0|0:0,0:0:0:0:
282,266,73030,5,6,0:0:0:0:
248,183,73230,1,2,0:0:0:0:
308,117,73430,1,2,0:0:0:0:
469,145,73630,2,0,P|415:217|327:197,1,190,2|0,0:0|0:0,0:0:0:0:
270,45,74230,2,0,P|359:55|386:141,1,190,2|0,0:0|0:0,0:0:0:0:
282,266,74830,2,0,P|247:184|307:118,1,190,2|0,0:0|0:0,0:0:0:0:
212,380,75430,6,0,P|185:294|96:285,1,190,6|0,0:0|0:0,0:0:0:0:
173,113,76030,2,0,P|119:185|31:166,1,190,2|0,0:0|0:0,0:0:0:0:
282,266,76630,2,0,P|247:183|308:117,1,190,2|2,0:0|0:0,0:0:0:0:
327,116,77130,1,2,0:0:0:0:
345,117,77230,1,2,0:0:0:0:
282,266,77430,1,2,0:0:0:0:
173,114,77630,1,2,0:0:0:0:
328,198,77830,38,0,B|376:200|376:200|410:168,1,95,4|0,0:0|0:0,0:0:0:0:
282,266,78830,5,0,0:0:0:0:
282,266,78896,1,0,0:0:0:0:
282,266,78963,1,0,0:0:0:0:
282,266,79030,38,0,B|305:200|305:200|239:113|239:113|215:179,1,249.375009512902,4|0,0:0|0:0,0:0:0:0:
208,198,79830,37,0,0:0:0:0:
432,107,80030,1,2,0:0:0:0:
424,127,80130,1,2,0:0:0:0:
417,147,80230,1,2,0:0:0:0:
410,167,80330,1,2,0:0:0:0:
403,187,80430,38,0,B|358:142|358:142|352:91|352:91|307:46,1,178.125,6|0,0:0|0:0,0:0:0:0:
495,14,80830,2,0,B|479:71|479:71|432:107,1,118.75,10|0,0:0|0:0,0:0:0:0:
142,161,81230,2,0,L|158:104,1,59.375,2|0,0:0|0:0,0:0:0:0:
256,203,81430,2,0,L|198:218,1,59.375,10|0,0:0|0:0,0:0:0:0:
236,84,81629,2,0,L|278:126,1,59.375,2|0,0:0|0:0,0:0:0:0:
120,237,81830,2,0,B|-3:205|-3:205|35:238,1,178.125,6|0,0:0|0:0,0:0:0:0:
145,316,82230,2,0,B|189:276|189:276|199:218,1,118.75,10|0,0:0|0:0,0:0:0:0:
105,27,82630,2,0,L|63:69,1,59.375,2|0,0:0|0:0,0:0:0:0:
199,104,82830,2,0,L|183:47,1,59.375,10|0,0:0|0:0,0:0:0:0:
85,146,83030,2,0,L|143:161,1,59.375,2|0,0:0|0:0,0:0:0:0:
329,117,83230,6,0,B|379:128|379:128|256:160,1,178.125,6|0,0:0|0:0,0:0:0:0:
437,73,83630,2,0,B|456:128|456:128|437:184,1,118.75,10|2,0:0|0:0,0:0:0:0:
417,199,83930,1,2,0:0:0:0:
397,212,84030,1,2,0:0:0:0:
116,74,84230,2,0,B|177:58|177:58|224:79|224:79|286:64,1,178.125,10|0,0:0|0:0,0:0:0:0:
168,139,84630,2,0,B|175:197|175:197|216:241,1,118.75,6|0,0:0|0:0,0:0:0:0:
399,119,85030,2,0,B|407:90|407:90|400:62,1,59.375,10|0,0:0|0:0,0:0:0:0:
307,236,85230,2,0,B|315:264|315:264|336:284,1,59.375,2|0,0:0|0:0,0:0:0:0:
312,88,85430,2,0,B|286:71|286:71|258:69,1,59.375,2|0,0:0|0:0,0:0:0:0:
397,212,85630,2,0,B|427:210|427:210|451:195,1,59.375,10|0,0:0|0:0,0:0:0:0:
256,160,85830,2,0,B|232:178|232:178|221:205,1,59.375,2|0,0:0|0:0,0:0:0:0:
131,363,86030,5,6,0:0:0:0:
148,331,86130,1,2,0:0:0:0:
153,296,86230,1,2,0:0:0:0:
146,262,86330,1,2,0:0:0:0:
128,232,86430,1,10,0:0:0:0:
111,237,86530,1,2,0:0:0:0:
94,242,86630,1,2,0:0:0:0:
77,247,86730,2,0,L|19:261,1,59.375,2|0,0:0|0:0,0:0:0:0:
134,131,86930,37,2,0:0:0:0:
151,135,87030,1,10,0:0:0:0:
168,139,87130,1,2,0:0:0:0:
185,143,87230,1,2,0:0:0:0:
203,147,87330,1,2,0:0:0:0:
220,151,87430,5,6,0:0:0:0:
203,118,87530,1,2,0:0:0:0:
201,83,87630,1,2,0:0:0:0:
215,50,87730,1,2,0:0:0:0:
241,27,87830,1,10,0:0:0:0:
274,16,87930,1,2,0:0:0:0:
309,20,88030,1,2,0:0:0:0:
338,40,88130,1,2,0:0:0:0:
358,70,88230,1,2,0:0:0:0:
363,104,88330,1,2,0:0:0:0:
352,139,88430,5,10,0:0:0:0:
357,191,88530,1,2,0:0:0:0:
393,230,88630,1,2,0:0:0:0:
444,240,88730,1,2,0:0:0:0:
492,218,88830,38,0,B|512:135|512:135|522:166,1,118.75,6|0,0:0|0:0,0:0:0:0:
498,297,89130,1,2,0:0:0:0:
498,297,89230,2,0,L|484:354,1,59.375,8|0,0:0|0:0,0:0:0:0:
393,230,89430,2,0,B|413:147|413:147|423:178,1,118.75,6|0,0:0|0:0,0:0:0:0:
399,309,89730,1,2,0:0:0:0:
399,309,89830,2,0,L|385:366,1,59.375,8|0,0:0|0:0,0:0:0:0:
294,242,90030,2,0,B|314:159|314:159|324:190,1,118.75,6|0,0:0|0:0,0:0:0:0:
300,321,90330,1,2,0:0:0:0:
300,321,90430,2,0,L|286:378,1,59.375,12|0,0:0|0:0,0:0:0:0:
195,254,90630,2,0,B|215:171|215:171|225:202,1,118.75,6|0,0:0|0:0,0:0:0:0:
152,92,90930,5,6,0:0:0:0:
200,71,91030,1,2,0:0:0:0:
252,77,91130,1,2,0:0:0:0:
294,109,91230,5,2,0:0:0:0:
328,117,91330,1,2,0:0:0:0:
363,111,91430,1,2,0:0:0:0:
392,92,91530,1,2,0:0:0:0:
412,63,91630,38,0,B|400:189|400:189|382:141,1,178.125,6|0,0:0|0:0,0:0:0:0:
467,234,92030,2,0,B|413:262|413:262|355:253,1,118.75,10|0,0:0|0:0,0:0:0:0:
152,92,92430,2,0,L|189:46,1,59.375,2|0,0:0|0:0,0:0:0:0:
238,176,92630,2,0,L|178:166,1,59.375,10|0,0:0|0:0,0:0:0:0:
268,58,92829,2,0,L|289:113,1,59.375,2|0,0:0|0:0,0:0:0:0:
203,249,93030,2,0,B|139:238|139:238|104:201|104:201|42:190,1,178.125,6|0,0:0|0:0,0:0:0:0:
179,166,93430,2,0,B|195:109|195:109|175:52,1,118.75,10|0,0:0|0:0,0:0:0:0:
33,310,93830,2,0,L|92:320,1,59.375,2|0,0:0|0:0,0:0:0:0:
43,190,94031,2,0,L|6:236,1,59.375,2|0,0:0|0:0,0:0:0:0:
143,257,94230,2,0,L|122:202,1,59.375,2|0,0:0|0:0,0:0:0:0:
289,312,94430,6,0,L|172:332,1,118.75,4|0,0:0|0:0,0:0:0:0:
341,150,94730,2,0,L|458:130,1,118.75,4|0,0:0|0:0,0:0:0:0:
234,205,95030,2,0,L|214:87,1,118.75,4|0,0:0|0:0,0:0:0:0:
396,257,95330,2,0,L|415:374,1,118.75,4|0,0:0|0:0,0:0:0:0:
341,150,95630,1,4,0:0:0:0:
341,150,95730,2,0,L|403:139,1,59.375
289,312,95930,2,0,L|172:332,1,118.75,4|0,0:0|0:0,0:0:0:0:
396,257,96230,2,0,L|415:374,1,118.75,4|0,0:0|0:0,0:0:0:0:
234,205,96530,2,0,L|227:165,3,39.5833333333333,0|0|0|0,3:0|3:0|3:0|3:0,0:0:0:0:
172,332,96830,2,0,L|289:312,1,118.75,2|0,0:0|0:0,0:0:0:0:
460,206,97130,5,2,0:0:0:0:
426,220,97230,1,2,0:0:0:0:
416,338,97330,37,2,0:0:0:0:
418,300,97430,1,2,0:0:0:0:
321,233,97530,5,2,0:0:0:0:
351,254,97630,1,10,0:0:0:0:
460,206,97730,6,0,B|448:109|448:109|435:151,1,142.5,6|0,0:0|0:0,0:0:0:0:
493,277,98130,1,10,0:0:0:0:
321,233,98330,2,0,B|333:330|333:330|345:287,1,142.5,2|0,0:0|0:0,0:0:0:0:
335,155,98730,2,0,L|288:162,1,47.5,10|0,0:0|0:0,0:0:0:0:
445,283,98931,2,0,L|493:277,1,47.5,2|0,0:0|0:0,0:0:0:0:
321,233,99130,38,0,B|333:330|333:330|345:287,1,143.010752688172,2|0,0:0|0:0,0:0:0:0:
492,277,99930,2,0,L|444:283,1,47.5,2|0,0:0|0:0,0:0:0:0:
435,151,100130,2,0,B|448:109|448:109|460:206,1,142.5,2|0,0:0|0:0,0:0:0:0:
275,123,100530,38,0,B|294:53|294:53|357:38|357:38|328:68,1,178.125,4|0,3:2|0:0,0:0:0:0:
200,234,100930,2,0,B|142:278|142:278|82:253|82:253|122:245,1,178.125,4|0,3:2|0:0,0:0:0:0:
327,188,101330,2,0,B|398:185|398:185|433:239|433:239|394:222,1,178.125,4|0,3:2|0:0,0:0:0:0:
196,152,101730,2,0,B|136:111|136:111|141:47|141:47|160:82,1,178.125,4|0,3:2|0:0,0:0:0:0:
280,257,102131,2,0,B|304:324|304:324|262:374|262:374|266:333,1,178.125,4|0,3:2|0:0,0:0:0:0:
275,123,102530,2,0,B|294:53|294:53|357:38|357:38|328:68,1,178.125,4|0,3:2|0:0,0:0:0:0:
200,234,102930,2,0,B|142:278|142:278|82:253|82:253|122:245,1,178.125,4|0,3:2|0:0,0:0:0:0:
394,222,103330,38,0,B|292:214|292:214|322:240,1,142.500005435944,6|0,0:0|0:0,0:0:0:0:
382,138,114130,5,2,0:0:0:0:
385,159,114230,1,2,0:0:0:0:
388,180,114330,1,2,0:0:0:0:
391,201,114430,1,2,0:0:0:0:
394,222,114530,38,0,L|300:205,1,95,2|0,3:2|0:0,0:0:0:0:
282,211,114830,1,0,0:0:0:0:
264,217,114930,1,8,0:0:0:0:
326,333,115130,1,0,3:0:0:0:
326,333,115230,1,0,0:0:0:0:
326,333,115330,2,0,L|310:288,1,47.5
164,267,115530,1,10,0:0:0:0:
164,267,115630,2,0,L|133:302,2,47.5,2|0|0,0:0|0:0|0:0,0:0:0:0:
246,223,115930,6,0,L|263:129,1,95,2|0,3:2|0:0,0:0:0:0:
182,19,116230,1,0,0:0:0:0:
182,19,116330,2,0,L|198:64,1,47.5,8|0,0:0|0:0,0:0:0:0:
140,136,116530,1,2,3:2:0:0:
140,136,116630,1,0,0:0:0:0:
140,136,116730,2,0,L|93:127,1,47.5,2|0,0:0|0:0,0:0:0:0:
59,42,116930,2,0,L|90:6,1,47.5,10|0,0:0|0:0,0:0:0:0:
263,129,117130,1,2,0:0:0:0:
263,129,117230,1,2,0:0:0:0:
263,129,117330,6,0,L|246:223,1,95,2|0,3:2|0:0,0:0:0:0:
252,241,117630,1,0,0:0:0:0:
258,259,117730,1,8,0:0:0:0:
473,285,117930,1,2,3:2:0:0:
473,285,118030,1,0,0:0:0:0:
473,285,118130,2,0,L|457:240,1,47.5
329,213,118330,2,0,L|375:221,1,47.5,10|0,0:0|0:0,0:0:0:0:
461,119,118530,2,0,L|430:155,1,47.5,0|0,3:0|0:0,0:0:0:0:
384,307,118730,38,0,L|290:289,1,95,2|0,3:2|0:0,0:0:0:0:
229,174,119030,1,0,0:0:0:0:
229,174,119130,2,0,L|245:219,1,47.5,10|0,0:0|0:0,0:0:0:0:
187,291,119330,1,0,3:0:0:0:
187,291,119430,1,0,0:0:0:0:
187,291,119530,2,0,L|140:282,1,47.5
106,197,119730,2,0,L|137:161,1,47.5,10|0,0:0|0:0,0:0:0:0:
291,289,119930,1,2,0:0:0:0:
291,289,120030,1,2,0:0:0:0:
291,289,120130,6,0,L|384:306,1,95,2|0,3:2|0:0,0:0:0:0:
398,319,120430,1,0,0:0:0:0:
412,332,120530,1,8,0:0:0:0:
461,119,120730,1,0,3:0:0:0:
461,119,120830,1,0,0:0:0:0:
461,119,120930,2,0,L|430:155,1,47.5
473,285,121130,2,0,L|457:240,1,47.5,10|0,0:0|0:0,0:0:0:0:
329,213,121330,2,0,L|375:221,1,47.5,2|0,0:0|0:0,0:0:0:0:
314,34,121530,6,0,L|296:128,1,95,2|0,3:2|0:0,0:0:0:0:
158,104,121830,1,0,0:0:0:0:
158,104,121930,2,0,L|205:113,1,47.5,8|0,0:0|0:0,0:0:0:0:
238,198,122130,1,0,3:0:0:0:
238,198,122230,1,0,0:0:0:0:
238,198,122330,2,0,L|206:234,1,47.5,2|0,0:0|0:0,0:0:0:0:
116,222,122530,38,0,L|100:177,1,47.5,10|0,0:0|0:0,0:0:0:0:
10,294,122930,6,0,L|104:312,1,95,2|0,3:2|0:0,0:0:0:0:
287,345,123230,2,0,L|193:327,1,95,0|0,3:0|0:0,0:0:0:0:
23,204,123530,2,0,B|116:222|116:222|100:177,1,142.5,0|0,3:0|0:0,0:0:0:0:
238,198,123930,2,0,L|206:234,1,47.5,0|0,3:0|0:0,0:0:0:0:
158,104,124130,2,0,L|205:113,1,47.5,0|0,3:0|0:0,0:0:0:0:
349,179,124330,6,0,B|300:130|300:130|305:57,1,142.5,0|0,3:0|0:0,0:0:0:0:
438,151,124730,2,0,B|443:78|443:78|394:29,1,142.5,0|0,3:0|0:0,0:0:0:0:
417,242,125130,2,0,L|430:287,1,47.5,0|0,3:0|0:0,0:0:0:0:
266,287,125330,1,2,3:2:0:0:
286,281,125430,1,2,0:0:0:0:
307,275,125530,1,2,3:2:0:0:
328,269,125630,1,2,0:0:0:0:
